osu file format v12

[General]
AudioFilename: Call of Duty_ Black Ops 2 Multiplayer Main Menu Music- Adrenaline by Trent Reznor.mp3
AudioLeadIn: 0
PreviewTime: 62757
Countdown: 0
SampleSet: Soft
StackLeniency: 0.7
Mode: 0
LetterboxInBreaks: 1
WidescreenStoryboard: 0

[Editor]
Bookmarks: 5171,13566,24359,33953,43557,55257,62757,67557,75957,89157,91557,93957,103557
DistanceSpacing: 1.3
BeatDivisor: 4
GridSize: 8

[Metadata]
Title:Adrenaline
TitleUnicode:Adrenaline
Artist:Jack Wall & Jimmy Hinson
ArtistUnicode:Jack Wall & Jimmy Hinson
Creator:Invert Tails Prower
Version:Easy
Source:Call of Duty: Black Ops II
Tags:two multiplayer
BeatmapID:380387
BeatmapSetID:154985

[Difficulty]
HPDrainRate:3
CircleSize:2
OverallDifficulty:2
ApproachRate:4
SliderMultiplier:0.7
SliderTickRate:1

[Events]
//Background and Video events
0,0,"1531211.jpg",0,0
//Break Periods
2,24245,32625
2,57544,61425
//Storyboard Layer 0 (Background)
//Storyboard Layer 1 (Fail)
//Storyboard Layer 2 (Pass)
//Storyboard Layer 3 (Foreground)
//Storyboard Sound Samples
//Background Colour Transformations
3,100,163,162,255

[TimingPoints]
345,300,4,2,0,40,1,0
5171,-100,4,1,0,60,0,0
89157,-100,4,1,0,10,0,0
89307,-100,4,1,0,20,0,0
89457,-100,4,1,0,30,0,0
89607,-100,4,1,0,40,0,0
89757,-100,4,1,0,50,0,0
89907,-100,4,1,0,60,0,0
90057,-100,4,1,0,70,0,0
90207,-100,4,1,0,75,0,0
90357,-100,4,1,0,70,0,0
91557,-100,4,1,0,70,0,1
110757,-100,4,1,0,70,0,0

[Colours]
Combo1 : 255,192,0
Combo2 : 255,128,0
Combo3 : 128,128,128
Combo4 : 0,0,0

[HitObjects]
256,192,345,2,0,L|480:192,1,210
512,280,1545,2,0,P|408:288|304:312,1,210,0|8,0:0|0:0,0:0:0:0:
256,192,2745,6,0,L|32:192,1,210
16,104,3945,2,0,P|128:104|224:80,1,210,0|12,0:0|0:0,0:0:0:0:
256,192,5145,5,4,0:0:0:0:
368,192,5745,1,0,0:0:0:0:
368,304,6345,6,0,P|312:344|256:304,1,140
256,192,7545,1,0,0:0:0:0:
144,192,8145,1,0,0:0:0:0:
144,80,8745,1,0,0:0:0:0:
256,80,9345,6,0,P|296:64|328:80,1,70
352,72,9945,1,0,0:0:0:0:
352,192,10545,1,0,0:0:0:0:
352,320,11145,5,0,0:0:0:0:
256,192,11745,1,0,0:0:0:0:
160,320,12345,1,0,0:0:0:0:
64,192,12945,1,0,0:0:0:0:
136,120,13545,6,0,P|232:104|416:152,1,280
400,288,15345,1,0,0:0:0:0:
256,192,15945,1,0,0:0:0:0:
112,96,16545,1,0,0:0:0:0:
264,336,17745,5,0,0:0:0:0:
264,336,18045,1,0,0:0:0:0:
264,336,18345,2,0,L|264:192,1,140
320,72,19545,5,0,0:0:0:0:
184,136,20145,1,0,0:0:0:0:
320,184,20745,1,0,0:0:0:0:
184,248,21345,1,0,0:0:0:0:
312,296,21945,6,0,L|384:296,1,70
472,296,22545,2,0,L|432:232,1,70
432,136,23145,6,0,L|384:136,6,35,0|0|4|4|4|4|4,0:0|0:0|0:0|0:0|0:0|0:0|0:0,0:0:0:0:
256,192,33945,5,2,0:0:0:0:
352,192,34245,1,0,0:0:0:0:
448,192,34545,1,0,0:0:0:0:
480,288,35145,6,8,P|432:328|376:288,1,140
256,256,36345,5,2,0:0:0:0:
256,160,36645,1,0,0:0:0:0:
256,64,36945,1,0,0:0:0:0:
144,152,37545,6,8,P|96:184|144:232,1,140
256,192,38745,5,0,0:0:0:0:
360,312,39345,1,0,0:0:0:0:
256,192,39945,1,0,0:0:0:0:
160,312,40545,1,0,0:0:0:0:
256,192,41145,1,0,0:0:0:0:
152,64,41745,1,0,0:0:0:0:
256,192,42345,1,0,0:0:0:0:
360,64,42945,6,0,L|360:208,1,140
480,192,44145,1,0,0:0:0:0:
360,192,44745,2,0,L|288:192,1,70
232,192,45345,1,0,0:0:0:0:
480,192,46545,5,0,0:0:0:0:
320,192,47745,1,0,0:0:0:0:
320,192,48045,1,8,0:0:0:0:
320,56,48945,1,0,0:0:0:0:
152,48,50145,1,0,0:0:0:0:
152,48,50445,1,8,0:0:0:0:
152,48,51945,6,0,B|176:112|176:152|160:200,1,140
368,208,53145,1,2,0:0:0:0:
472,200,53745,2,0,L|472:56,1,140
256,192,55245,5,0,0:0:0:0:
256,192,55545,1,0,0:0:0:0:
512,192,56745,2,0,L|512:344,1,140,0|4,0:0|0:0,0:0:0:0:
256,192,62745,12,0,66345,0:0:0:0:
256,192,66945,6,8,L|256:144,2,35,8|8|8,0:0|0:0|0:0,0:0:0:0:
256,288,67545,6,0,L|112:288,1,140
112,184,68745,2,0,L|112:40,1,140
216,32,69945,2,0,L|344:112,1,140
288,192,71145,1,0,0:0:0:0:
448,192,71745,6,8,L|496:192,4,35,8|8|8|8|2,0:0|0:0|0:0|0:0|0:0,0:0:0:0:
336,336,73545,6,0,L|184:336,1,140
80,312,74745,1,0,0:0:0:0:
80,312,75045,1,0,0:0:0:0:
80,312,75345,1,0,0:0:0:0:
96,192,75945,6,2,L|376:192,1,280,2|2,0:0|0:0,0:0:0:0:
512,192,77745,1,2,0:0:0:0:
512,56,78345,1,0,0:0:0:0:
376,56,78945,1,0,0:0:0:0:
240,56,79545,1,0,0:0:0:0:
104,56,80145,1,0,0:0:0:0:
104,56,81345,6,2,L|104:208,1,140,2|2,0:0|0:0,0:0:0:0:
104,296,82545,1,2,0:0:0:0:
344,296,83745,1,0,0:0:0:0:
384,192,84345,2,0,L|408:112,1,70
360,88,84945,1,0,0:0:0:0:
232,88,85545,6,2,L|88:88,1,140
8,104,86745,1,2,0:0:0:0:
144,192,87945,1,0,0:0:0:0:
320,192,89145,2,4,L|344:192,16,17.5,4|4|4|4|4|4|4|4|4|4|4|4|4|4|4|4|14,0:0|0:0|0:0|0:0|0:0|0:0|0:0|0:0|0:0|0:0|0:0|0:0|0:0|0:0|0:0|0:0|0:0,0:0:0:0:
160,64,91545,5,6,0:0:0:0:
264,64,92145,1,0,0:0:0:0:
368,64,92745,1,0,0:0:0:0:
368,160,93045,1,0,0:0:0:0:
368,160,93345,1,0,0:0:0:0:
368,312,93945,6,0,L|224:312,1,140
120,312,94845,1,0,0:0:0:0:
120,312,95145,2,0,L|120:240,3,70,2|0|2|0,0:0|0:0|0:0|0:0,0:0:0:0:
120,128,96345,1,2,0:0:0:0:
336,176,96945,6,0,L|336:320,1,140
112,240,98145,2,0,L|264:240,1,140
400,240,99345,1,0,0:0:0:0:
480,240,99645,1,0,0:0:0:0:
480,160,99945,1,0,0:0:0:0:
288,160,100545,6,2,L|144:160,1,140
0,160,101745,1,2,0:0:0:0:
104,240,102345,1,0,0:0:0:0:
160,200,102645,2,0,L|216:144,1,70
408,152,103545,5,0,0:0:0:0:
320,248,104145,1,0,0:0:0:0:
192,248,104745,2,0,L|112:248,4,70,2|0|2|0|2,0:0|0:0|0:0|0:0|0:0,0:0:0:0:
256,192,106245,12,4,110745,0:0:0:0:
