osu file format v5

[General]
AudioFilename: Lullaby+For+You+-English+Version-.mp3
AudioLeadIn: 3000
PreviewTime: -1
Countdown: 0
SampleSet: Soft
StackLeniency: 0.7
Mode: 0
LetterboxInBreaks: 1

[Metadata]
Title:Lullaby For You -English Version-
Artist:JYONGRI
Creator:Magmabear
Version:Hard
Source:
Tags:

[Difficulty]
HPDrainRate:8
CircleSize:6
OverallDifficulty:8
SliderMultiplier:2.4
SliderTickRate:2

[Events]
//Background and Video events
0,0,"theworldendswithyouwallpaper.jpg"
//Break Periods
2,115256,128782
2,201189,224648
//Storyboard Layer 0 (Background)
//Storyboard Layer 1 (Failing)
//Storyboard Layer 2 (Passing)
//Storyboard Layer 3 (Foreground)
//Storyboard Sound Samples
//Background Colour Transformations
3,100,163,162,255

[TimingPoints]
430,895.522388059701,4,2,0,100,1

[HitObjects]
160,256,15197,1,0
232,320,15653,1,0
328,304,16101,1,0
368,280,16337,1,0
288,168,16997,1,0
248,128,17221,1,0
224,256,18130,5,0
232,208,18340,2,0,B|208:152|296:104,1,120
320,136,19012,1,0
408,176,19459,2,0,B|464:224|360:288,1,120
200,232,21027,5,0
376,296,21922,1,0
376,200,22367,1,0
352,160,22594,1,0
280,88,23041,2,0,B|192:96|144:168,1,150
320,352,25056,5,0
352,320,25280,1,0
384,288,25504,1,0
312,216,25952,1,0
280,184,26176,2,0,B|208:160|136:192,1,120
104,256,27071,1,0
160,288,29086,5,0
240,232,29538,1,0
288,224,29758,1,0
368,168,30206,2,0,B|368:104|224:64,1,180
136,88,31331,1,0
96,120,31549,1,0
128,200,31997,5,0
248,280,32668,1,0
344,288,33116,1,0
376,256,33340,1,0
320,176,33788,1,0
240,120,34235,1,0
152,88,34683,1,0
80,152,35131,1,0
160,272,35803,5,0
256,272,36250,1,0
256,320,37594,5,0
256,224,38041,1,0
128,224,39385,5,0
128,128,39832,2,0,B|200:24|256:224|272:336,1,300
352,264,41400,2,0,B|448:224|192:56,1,300
200,248,43415,5,4
296,240,43862,1,0
296,240,44310,2,0,B|392:208|376:136,1,120
368,112,44982,2,0,B|296:88|208:208,1,180
168,192,45877,1,0
328,296,46773,5,0
368,264,46997,2,0,B|448:192|408:136,1,120
416,112,47668,1,0
320,112,48116,1,0
320,208,48564,1,0
176,200,49235,5,8
128,112,49683,1,8
248,192,50355,5,0
280,224,50579,2,0,B|344:256|400:240,1,120
384,192,51250,1,0
320,120,51698,1,0
224,96,52146,2,0,B|128:104|40:216|112:344,1,300
224,248,53937,5,0
264,224,54161,1,0
256,128,54609,1,0
208,128,54832,1,0
256,48,55280,1,0
352,48,55728,1,0
360,192,56400,5,8
264,192,56847,1,8
168,200,57295,5,0
176,248,57519,1,0
200,288,57743,1,0
288,248,58191,1,0
304,200,58415,1,0
288,104,58862,6,0,B|128:208,1,180
136,296,59982,1,0
184,304,60206,1,0
280,304,60653,2,0,B|416:296|432:200,1,180
336,120,61773,1,0
296,88,61997,1,0
200,88,62444,1,0
144,168,62892,1,0
168,264,63340,1,0
248,312,63788,1,0
392,320,64459,6,0,B|392:184,1,120
112,280,66250,2,0,B|112:136,1,120
288,232,67594,6,0,B|376:240|432:112,1,180
423,131,68489,2,0,B|344:104|232:104|136:200,1,300
144,272,70056,1,0
280,136,70952,5,8
280,136,71064,1,8
280,136,71176,1,8
280,88,71400,1,8
280,88,71624,1,8
232,72,71847,5,2
184,72,72071,1,2
160,184,72519,1,2
272,104,72967,1,2
336,176,73415,1,2
320,272,73862,2,2,B|80:152,1,240
224,88,75429,1,2
224,136,75653,2,2,B|224:216|304:192,1,120
304,144,76325,1,2
304,96,76549,2,2,B|304:40|344:32|392:40|416:96|424:184,1,240
424,224,77668,5,10
336,256,78116,1,10
336,256,78340,1,10
336,256,78564,1,10
288,256,78788,1,2
240,256,79012,1,2
240,304,79246,5,2
328,328,79683,1,2
312,232,80131,2,2,B|448:232,1,120
432,136,81027,1,2
288,80,81698,1,2
256,168,82146,5,10
280,296,82818,6,2,B|200:312|88:304|0:216,1,300
88,168,84385,1,2
136,152,84609,1,2
224,184,85056,1,2
272,176,85280,1,2
224,272,86400,5,2
312,312,86847,1,2
360,312,87071,1,2
352,216,87519,1,2
272,160,87967,5,2
240,200,88191,2,2,B|56:128,1,180
144,72,89310,1,2
240,72,89758,1,2
288,72,89982,1,2
336,72,90206,1,2
384,72,90429,1,2
392,168,90877,5,10
296,168,91325,1,10
200,168,91773,2,2,B|288:256,1,120
328,264,92444,1,10
328,264,92668,1,10
328,264,92892,1,10
168,256,93564,5,2
264,256,94012,1,2
336,192,94459,1,2
264,136,94892,1,2
160,136,95355,1,2
168,216,95803,1,2
192,256,96027,1,2
208,352,96474,5,10
256,352,96698,1,10
296,328,96922,1,10
288,288,97146,5,2
448,184,98041,1,2
392,112,98477,1,2
296,104,98937,1,2
224,168,99385,1,2
224,216,99609,1,2
128,224,100056,5,10
112,272,100280,1,10
112,320,100504,1,10
160,320,100728,5,2
248,280,101176,1,2
320,216,101624,1,2
352,128,102071,2,10,B|296:112|232:112|200:104|160:144|112:168|80:208,1,300,2|2
40,224,103415,1,10
56,272,103638,6,2,B|184:272,1,120
176,272,104310,2,2,B|232:296|336:280|416:224|424:160,1,300,10|2
376,160,105653,1,2
328,160,105877,1,2
280,160,106101,6,2,B|272:112|216:64|152:72|88:120|56:168|72:240|144:272,1,360,10|10
216,288,107892,2,2,B|280:288|360:240|416:160|352:80,1,300
320,56,109235,2,2,B|256:32|200:64|128:168|160:208,1,240,2|10
184,224,110355,1,10
224,248,110579,1,10
264,272,110803,1,10
312,264,111027,5,2
344,232,111250,2,2,B|368:208|368:176|368:144|336:112|288:96|272:96,1,180
232,96,112146,1,2
184,112,112370,2,2,B|152:144|152:184,1,120
208,248,113041,1,2
256,192,113265,12,6,115056
128,224,129832,5,0
176,304,130280,1,0
272,320,130728,1,0
272,272,130952,1,0
416,224,131624,5,0
416,176,131847,1,0
256,288,132743,5,0
208,288,132967,1,0
152,208,133415,1,0
200,200,133638,1,0
248,200,133862,1,0
296,208,134086,1,0
368,152,134534,1,0
240,96,135206,5,8
192,112,135429,1,0
160,144,135653,1,8
144,192,135877,1,0
144,240,136101,5,0
168,280,136325,1,0
216,288,136549,1,0
296,240,136997,1,0
280,192,137221,1,0
352,128,137668,1,0
368,168,137892,1,0
392,208,138116,1,0
248,192,138788,5,8
152,216,139235,1,8
288,352,139683,5,0
304,304,139907,1,0
320,256,140131,2,0,B|208:192,1,120
192,240,140803,1,0
104,184,141250,1,0
144,160,141474,1,0
184,136,141698,1,0
384,288,142594,5,0
352,328,142818,1,0
304,336,143041,1,0
168,264,143713,6,0,B|168:136,1,120
216,144,144385,1,0
320,160,144832,1,0
360,176,145056,1,0
400,192,145280,1,0
424,232,145504,1,0
384,320,145952,1,0
336,328,146176,1,0
240,328,146624,1,0
200,304,146847,1,0
176,264,147071,1,0
176,216,147295,5,0
224,136,147743,1,0
256,168,147967,1,0
328,232,148415,1,0
328,328,148862,1,0
416,296,149310,1,0
480,224,149758,2,0,B|456:160|344:112|336:192,1,180,0|8
240,160,150877,5,0
472,328,152221,1,0
392,272,152668,1,0
320,320,154012,5,0
224,328,154459,2,0,B|152:296|96:192|160:112,1,240
248,120,155803,5,0
296,120,156027,1,0
104,120,156922,5,8
104,120,157034,1,8
104,120,157146,1,8
104,168,157370,1,8
104,168,157594,1,8
152,168,157818,5,2
152,120,158041,2,4,B|152:64|184:8|216:0,1,120
280,48,158937,2,4,B|320:88|240:152,1,120
264,240,159832,2,2,B|456:72,1,240
304,120,161400,5,2
304,120,161624,1,2
160,120,162295,1,2
160,120,162519,2,2,B|112:120|40:184|200:296,1,240
240,288,163638,1,8
280,264,163862,1,2
280,216,164086,1,2
280,216,164310,1,10
280,216,164534,1,10
160,288,165206,5,2
224,216,165653,1,2
304,160,166101,1,2
392,120,166549,1,2
440,200,166997,1,2
416,296,167444,1,2
376,320,167668,2,2,B|312:336|280:344|240:328,1,120,2|10
112,312,168788,6,2,B|32:128|248:72,1,300
304,128,170355,1,2
336,160,170579,1,2
344,256,171027,1,2
312,288,171250,1,2
256,320,172370,5,2
352,320,172818,1,2
376,280,173041,1,2
344,184,173489,1,2
248,216,173937,1,2
216,184,174161,2,2,B|368:56,1,180
256,56,175280,1,2
160,72,175728,1,2
160,120,175952,1,2
160,168,176176,1,2
160,216,176400,1,2
256,216,176847,5,10
344,176,177295,1,10
408,104,177743,1,2
312,96,178191,1,0
264,96,178415,1,2
312,96,178638,1,2
264,96,178862,1,2
256,288,179534,5,2
336,232,179982,1,2
384,144,180430,1,2
304,88,180877,1,2
224,144,181325,1,2
224,240,181773,1,2
192,280,181997,1,2
280,312,182444,5,10
416,192,183116,6,2,B|416:112|312:88|240:152|272:208,1,240
184,240,184459,1,2
184,144,184907,1,2
272,104,185355,1,2
320,104,185579,2,2,B|392:80|480:200,1,180
384,320,186698,5,2
296,280,187146,1,2
256,192,187594,1,2
256,96,188041,2,2,B|216:88|152:136|160:200|248:336|312:360|344:360,1,360
336,312,189609,5,2
336,264,189832,1,2
384,264,190056,1,2
432,264,190280,2,2,B|488:264|504:208|464:152|424:120|376:136|336:160|328:168,1,240
304,176,191400,5,2
256,160,191624,1,2
208,176,191847,1,2
160,160,192071,2,10,B|152:104|72:64|64:80,1,120
48,168,192967,2,10,B|56:232|144:248,1,120
176,328,193862,6,2,C|200:312|160:296|208:280|160:256|224:232,1,240
216,184,194982,1,2
216,184,195206,2,10,C|248:136|328:120,1,120
320,232,196101,2,8,B|384:256|408:256|416:248|440:232,1,120
432,280,196773,1,0
408,312,196997,6,2,B|368:344|280:328,1,120
280,232,197892,2,2,B|200:208|168:272,1,120
200,168,198788,1,6
256,192,199012,12,6,201027
192,288,225877,5,0
232,312,226101,1,0
328,312,226549,1,0
416,280,226997,1,0
456,192,227444,1,0
456,96,227892,2,0,B|200:96,1,240
120,96,229235,2,0,B|88:136|192:184,1,120
256,112,230131,2,0,B|304:144|272:232,1,120
224,224,230803,5,0
184,248,231027,1,0
144,224,231250,1,0
104,248,231474,1,0
296,224,232370,1,0
224,256,233259,5,0
248,160,233713,1,0
312,88,234161,1,0
392,136,234609,1,0
448,208,235056,2,0,B|432:264|360:312|288:328,1,180
88,240,236847,6,0,B|104:184|240:72|344:72,1,300
376,136,238415,1,0
400,176,238638,2,0,B|400:240|328:288,1,120
296,280,239310,5,0
296,280,239422,1,0
296,280,239534,1,0
248,280,239758,2,0,B|208:280|136:256|120:168|144:136,1,180,0|6
256,136,240877,1,2
304,120,241101,1,2
400,128,241549,1,2
400,224,241997,5,2
352,240,242221,2,2,B|144:240,1,180
72,240,243340,2,2,B|72:160|128:112,1,120
144,96,244012,2,10,B|272:96,3,120
248,192,245803,5,2
344,192,246250,1,2
392,192,246474,1,10
344,192,246698,1,10
344,240,246922,1,10
256,288,247594,5,2
320,216,248041,1,2
288,128,248489,1,2
200,88,248937,1,2
200,184,249385,1,2
272,248,249832,1,2
312,272,250056,1,2
400,232,250504,5,10
440,256,250728,1,10
424,304,250952,1,10
384,336,251176,6,2,B|328:344|168:280|160:240,1,240
248,200,252519,1,2
344,216,252967,1,2
376,120,253415,1,2
328,128,253638,1,2
240,88,254086,5,10
192,88,254310,1,10
160,120,254534,1,10
136,160,254758,5,2
136,256,255206,1,2
232,248,255653,1,2
328,232,256101,2,2,B|376:240|408:232|432:200|440:168,2,120,2|10|10
232,232,257444,1,2
240,280,257668,6,2,B|200:320|160:312,1,60
144,304,258116,1,2
104,272,258340,2,2,B|80:232|88:136|184:56,1,240
184,104,259459,6,2,B|184:152|224:168,1,60
240,120,259907,2,2,B|264:144|272:192,1,60
224,200,260355,2,2,B|232:248|264:264,1,60
328,200,261027,5,10
416,160,261474,1,10
424,264,261922,6,2,B|416:320|304:328,1,120
280,240,262818,1,2
248,208,263041,1,2
224,168,263265,2,2,B|192:120|128:152|120:184,1,120
128,248,264161,1,10
176,248,264385,1,10
176,296,264609,1,10
176,248,264832,1,10
128,248,265056,1,2
128,200,265280,2,4,B|128:144|136:112|160:96|176:80|208:64|248:56|272:48|320:48|352:56,1,300
408,80,266847,6,0,B|456:88|448:144,1,60,0|0
400,128,267295,2,0,B|416:168|464:176,1,60,0|0
480,144,267743,2,0,B|480:184|456:216,1,60,0|0
416,216,268191,2,0,B|432:256|472:256,1,60,0|0
504,272,268638,2,0,B|504:304|440:304,1,60,0|0
408,304,269086,1,4
296,208,269982,5,0
256,232,270206,1,0
216,256,270430,1,0
248,168,270877,1,0
208,192,271101,1,0
168,216,271325,1,0
416,288,272221,5,0
384,248,272444,1,0
256,192,273116,12,4,276251
312,160,276474,5,0
344,192,276698,1,0
344,240,276922,2,0,B|328:280|216:240,1,120
232,200,277594,1,0
232,152,277818,2,0,B|232:88,1,60
328,96,278489,5,0
424,96,278937,2,0,B|424:160,1,60
400,200,279385,1,0
304,192,279832,5,0
304,240,280056,1,0
264,216,280280,1,0
256,264,280504,2,0,B|256:296|192:296|128:264|144:192,1,180
142,197,281400,2,0,B|144:152|152:112|168:96|192:88|232:88|256:120,1,180
240,160,282295,5,0
288,160,282519,1,0
240,160,282743,1,0
240,304,283415,5,0
288,304,283638,1,0
288,256,283862,1,0
240,256,284086,1,0
144,256,284534,1,0
144,304,284758,1,0
144,256,284982,1,0
304,80,286101,6,0,B|360:136,1,60
264,240,286997,6,0,B|320:272|408:232,1,120
384,144,287892,1,0
336,144,288116,1,0
288,144,288340,1,0
240,144,288564,1,0
192,144,288788,1,0
248,328,289683,1,0
256,192,291250,5,0
256,192,291362,1,0
256,192,291474,1,0
352,200,294497,5,0
352,200,294609,1,0
352,200,294720,1,0
352,200,294832,1,0
