osu file format v5

[General]
AudioFilename: Lullaby+For+You+-English+Version-.mp3
AudioLeadIn: 3000
PreviewTime: -1
Countdown: 0
SampleSet: Soft
StackLeniency: 0.7
Mode: 0
LetterboxInBreaks: 1

[Metadata]
Title:Lullaby For You -English Version-
Artist:JYONGRI
Creator:Magmabear
Version:Easy
Source:
Tags:

[Difficulty]
HPDrainRate:3
CircleSize:3
OverallDifficulty:3
SliderMultiplier:2.4
SliderTickRate:4

[Events]
//Background and Video events
0,0,"theworldendswithyouwallpaper.jpg"
//Break Periods
2,41824,56303
2,114360,128782
2,201189,224648
//Storyboard Layer 0 (Background)
//Storyboard Layer 1 (Failing)
//Storyboard Layer 2 (Passing)
//Storyboard Layer 3 (Foreground)
//Storyboard Sound Samples
//Background Colour Transformations
3,100,163,162,255

[TimingPoints]
430,895.522388059701,4,2,0,100,1

[HitObjects]
160,256,15197,1,0
240,312,15653,1,0
424,248,16549,1,0
312,88,17444,1,0
136,168,18340,5,0
256,312,19235,1,0
384,168,20131,1,0
192,168,21027,5,0
288,328,21922,1,0
424,192,22818,1,0
288,56,23713,1,0
272,288,25504,5,0
152,208,26176,1,0
152,112,26624,1,0
280,40,27295,1,0
440,280,29086,5,0
296,152,29982,1,0
168,296,30877,1,0
360,296,31773,1,0
200,192,32668,5,0
272,16,33564,1,0
400,72,34235,1,0
456,152,34683,1,0
456,248,35131,1,0
208,248,36250,5,0
304,144,38041,5,0
208,144,39832,5,0
304,240,41624,5,0
248,288,57743,5,0
384,152,58638,1,0
192,144,59534,1,0
176,240,59982,1,0
176,240,60206,1,0
416,208,61325,5,0
376,296,61773,1,0
328,312,61997,1,0
136,336,62892,1,0
96,248,63340,1,0
192,248,63788,1,0
408,144,64907,5,0
120,152,66250,1,0
120,248,66698,1,0
272,224,67594,6,0,B|272:120|304:48|424:56,1,240
424,248,69385,5,0
232,248,70280,1,0
168,80,72071,5,2
360,96,72967,1,2
368,192,73415,1,2
320,272,73862,6,0,B|64:144,4,240,0|8|0|8|0
328,176,77892,5,8
232,176,78340,1,0
232,272,78788,1,8
152,320,79246,5,2
104,240,79683,1,2
168,168,80131,1,2
352,120,81027,1,2
440,232,81698,1,2
280,288,82818,5,2
40,312,83937,1,2
72,216,84385,1,2
72,216,84609,1,2
152,160,85056,1,2
152,160,85280,1,2
384,224,86400,5,2
328,304,86847,2,2,B|216:232,1,120
280,160,87743,1,2
280,64,88191,2,0,B|520:232,4,240,0|8|0|8|0
216,136,92221,5,8
160,216,92668,2,0,B|56:144,1,120,0|8
16,232,93564,5,2
80,296,94012,1,2
176,304,94459,1,2
320,136,95355,1,2
224,136,95803,1,2
272,216,96250,1,2
88,272,97146,5,2
280,272,98041,1,2
352,216,98477,1,2
344,120,98937,1,2
248,120,99385,1,2
248,120,99609,1,2
88,304,100728,6,2,B|392:104,1,360
320,40,102519,1,2
224,40,102967,1,2
96,104,103638,6,2,B|128:216|176:232|232:240|224:224,1,180
216,328,104758,1,2
312,328,105206,5,2
408,328,105653,2,2,B|464:272|472:224|464:176,1,120
464,128,106549,2,2,B|408:64|336:72,2,120,10|10|10
384,184,107892,5,2
192,328,109012,1,2
192,328,109235,1,2
128,256,109683,6,2,B|72:184,1,120,10|2
160,88,110579,1,10
256,88,111027,5,2
256,184,111474,2,10,B|0:312,3,240,8|8|8|4
128,224,129832,5,0
144,320,130280,1,0
240,320,130728,1,0
240,320,130952,1,0
424,112,132071,5,0
240,168,132967,5,0
144,168,133415,1,0
144,264,133862,1,0
336,264,134758,1,0
152,248,136549,5,0
152,152,136997,1,0
248,152,137444,1,0
344,152,137892,1,0
344,248,138340,1,0
264,144,140131,5,0
264,240,140579,1,0
184,184,141027,1,0
376,184,141922,1,0
216,200,143713,5,0
408,200,144609,1,0
232,272,145504,1,0
224,80,146400,1,0
384,184,147295,5,0
216,280,148191,1,0
216,184,148638,1,0
120,184,149086,1,0
120,88,149534,1,0
24,88,149982,1,0
56,280,150877,5,0
344,280,152221,1,0
344,184,152668,1,0
56,216,154012,5,0
56,120,154459,1,0
280,296,155803,2,4,B|452:296|432:136|248:96,1,360
64,96,158041,6,0,B|168:208,1,120,0|8
184,96,158937,2,0,B|296:208,1,120,0|8
200,248,159832,2,0,B|392:80,4,240,0|8|0|8|0
128,184,163862,5,8
32,184,164310,1,0
32,280,164758,1,8
152,296,165206,5,2
240,256,165653,1,2
328,216,166101,1,2
400,272,166549,1,2
456,192,166997,1,2
288,96,167892,1,10
160,240,168788,5,2
440,296,169907,1,2
440,200,170355,1,2
392,200,170579,2,2,B|248:200,1,120
272,152,171250,1,2
192,280,172370,5,2
288,296,172818,1,2
288,296,173041,1,2
376,272,173489,1,2
256,184,174161,2,0,B|64:24,4,240,0|8|0|8|0
352,200,178191,5,8
352,104,178638,1,0
256,104,179086,1,8
176,48,179534,5,2
96,104,179982,1,2
96,200,180430,1,2
128,288,180877,1,2
256,296,181325,1,2
256,104,182221,1,2
264,264,183116,5,2
32,96,184459,1,2
128,96,184907,1,2
224,96,185355,1,2
224,96,185579,1,2
384,272,186698,5,2
192,272,187594,1,2
192,176,188041,1,2
288,280,189832,5,2
376,248,190280,2,2,B|480:192|472:104|376:56|264:40|184:56|120:120,1,480
288,304,193862,5,2
96,88,195206,1,2
256,192,196997,12,6,201027
232,312,226101,5,0
328,312,226549,1,0
328,216,226997,1,0
384,136,227444,1,0
288,112,227892,2,0,B|40:112,3,240,0|0|0|0
136,280,231474,5,0
328,280,232370,1,0
136,248,233259,5,0
104,152,233713,1,0
168,80,234161,1,0
256,48,234609,1,0
344,88,235056,1,0
376,224,235728,1,0
136,224,236844,5,0
352,120,237967,1,0
208,128,238638,1,0
256,208,239086,1,0
256,208,239310,1,0
152,216,240430,5,2
192,128,240877,1,2
288,104,241325,1,2
384,128,241773,1,2
368,224,242221,2,0,B|72:224,4,240,0|8|0|8|0
352,128,246250,5,8
256,128,246698,1,0
256,224,247146,1,8
256,320,247594,5,2
336,272,248041,1,2
360,176,248489,1,2
280,120,248937,1,2
184,144,249385,1,2
160,240,249832,1,2
160,240,250056,1,2
352,96,251176,5,2
160,88,252071,1,2
160,184,252519,1,2
232,248,252967,1,2
320,216,253415,1,2
320,216,253638,1,2
168,88,254758,5,2
168,184,255206,1,2
264,184,255653,1,2
360,184,256101,2,2,B|352:120|272:72|200:64|120:80|72:128|64:184,1,360
72,256,257892,5,2
136,328,258340,2,2,B|200:360|272:352|328:320|360:272|392:240,1,240
432,312,259683,5,2
432,216,260131,2,2,B|392:152|312:136|256:152|216:200|208:200,1,240
128,208,261474,1,2
72,128,261922,6,2,B|136:64|208:56|240:64|312:96,1,240
384,112,263265,2,2,B|352:184|264:216|200:224|144:208,1,240
120,288,264609,1,10
24,328,265056,5,2
24,232,265504,2,4,B|248:104,4,240,0|8|0|8|4
224,200,269982,5,0
296,256,270430,1,0
432,280,272221,5,0
368,208,272668,1,0
256,192,273116,12,4,276250
