osu file format v5

[General]
AudioFilename: 01.Lullaby For You.mp3
AudioLeadIn: 0
PreviewTime: -1
Countdown: 0
SampleSet: Soft
EditorBookmarks: 2602,115317,129085,226018,240122,276611

[Metadata]
Title:Lullaby For You
Artist:JYONGRI
Creator:diela
Version:Normal

[Difficulty]
HPDrainRate:3
CircleSize:5
OverallDifficulty:3
SliderMultiplier:0.7
SliderTickRate:0.5

[Events]
//Background and Video events
1,0,"video.avi"
//Break Periods
2,115181,129108
2,225994,240816
//Storyboard Layer 0 (Background)
//Storyboard Layer 1 (Failing)
//Storyboard Layer 2 (Passing)
//Storyboard Layer 3 (Foreground)
//Storyboard Sound Samples
//Background Colour Transformations
3,100,162,161,254

[TimingPoints]
140,447.727781508843,4,2,0,100

[Colours]
Combo1 : 120,120,120
Combo2 : 255,255,255
Combo3 : 0,249,249

[HitObjects]
256,192,2602,1,0
256,192,6184,1,2
256,192,9766,1,2
480,136,11780,5,0
328,248,13571,1,0
176,248,14467,1,2
256,128,15362,1,4
176,64,15810,6,0,B|320:64|448:152|448:248,1,350
368,320,18944,2,0,B|208:409|48:232,1,350
56,144,21630,1,4
152,72,22302,5,0
152,72,22526,1,0
240,72,22974,2,0,B|240:192,2,105
56,192,25884,6,0,B|56:40,1,140
120,96,27227,1,0
176,56,27675,1,0
360,264,29690,5,0
424,208,30137,1,0
424,208,30361,2,0,B|424:88,1,105
360,56,31480,5,0
296,112,31927,1,0
296,112,32151,2,0,B|296:232,1,105
240,296,33271,5,0
176,240,33718,1,0
176,240,33942,2,0,B|176:120,1,105
120,48,35062,5,0
56,104,35509,1,0
56,104,35733,2,0,B|56:224,1,105
112,272,36853,1,4
312,72,38196,5,0
312,72,38420,2,0,B|144:72,2,157.5
384,72,40883,1,0
448,152,41330,1,0
424,256,41778,1,0
328,192,42226,1,0
200,120,43121,1,0
80,200,44017,1,4
160,272,44465,6,0,B|210:263|253:229|264:184,1,140
296,160,45584,1,2
320,128,45808,2,2,B|318:79|400:80,1,105
480,80,46927,1,4
480,184,47375,6,0,B|424:288,1,105
352,224,48494,1,0
352,224,48718,1,0
288,296,49166,1,4
240,104,50957,5,0
272,64,51180,1,0
304,32,51404,2,2,B|384:120,1,105
440,176,52524,1,0
440,176,52748,1,4
328,248,54315,5,0
328,248,54538,2,0,B|339:116|184:120,1,210
200,32,56553,1,2
296,64,57001,1,2
384,104,57449,1,4
456,184,58344,6,0,B|431:306|350:340|264:336,2,262.5
400,136,61926,2,0,B|400:224|352:272|272:272,1,210
264,336,63493,2,2,B|179:329|165:204|288:208,1,210
368,208,65284,1,4
72,240,67970,5,0
72,240,68194,2,2,B|159:255|248:206|288:96,2,280
88,128,72448,6,0,B|176:147|214:198|236:256|304:256,1,245
384,256,74462,2,0,B|425:102|318:32|181:22|74:97|152:296,1,560
200,208,78716,2,4,B|169:159|112:152,1,105
56,192,79835,6,4,B|61:283|146:348|295:338|360:248,1,385
264,192,82969,1,0
264,192,83417,2,2,C|192:181|136:136,2,140
304,224,85432,1,0
352,224,85656,2,4,C|496:224,1,140
480,128,86999,6,4,B|429:57|342:40|248:40,1,245
256,104,88790,2,2,B|234:264|24:264,2,297.5
152,104,93043,2,4,B|72:104,1,70
88,184,94162,6,0,C|156:242|208:184|270:237,2,245
184,192,97744,6,2,C|328:192,3,140
376,192,100654,1,4
448,256,101326,6,4,B|364:169|248:256,1,210
72,224,103565,5,0
72,104,104012,1,2
120,104,104236,2,2,B|336:104,3,210
368,64,108490,6,4,B|409:108|412:170|376:232,1,175
328,240,109833,2,0,B|270:242|222:213|208:144,2,157.5
328,296,112071,2,2,B|471:268|482:124|402:11|216:104,1,455
40,168,130428,6,2,B|49:74|168:40,2,175
128,224,133339,2,2,B|157:273|200:240,2,70
128,144,134682,1,2
128,64,135129,1,4
240,160,136920,6,2,B|219:199|256:232,2,70
280,160,138040,1,2
320,160,138264,2,2,B|341:121|304:88,2,70
392,240,140054,6,2,B|392:296,2,52.5
392,136,141174,1,2
392,136,141398,1,2
288,136,141845,2,4,B|234:256|80:224,1,245
72,64,144308,5,0
152,64,144756,1,2
200,64,144979,2,2,B|352:64,1,140
376,96,146099,5,0
312,136,146547,1,2
272,136,146770,2,2,B|120:136,1,140
96,168,147890,5,0
168,200,148338,1,2
208,200,148561,2,2,B|360:200,1,140
384,232,149681,5,0
312,272,150129,1,2
272,272,150352,2,2,B|120:272,1,140
24,312,152815,6,0,B|39:262|68:242|112:248,1,105
120,288,153710,1,0
152,320,153934,2,2,B|208:376|304:328|390:264|344:160,2,315
120,232,158411,6,2,B|144:144|224:120|328:128,1,245
320,176,160202,1,2
280,176,160426,2,2,B|288:256|362:324|496:312,2,280
328,96,164679,1,2
232,96,165127,1,4
96,192,165799,6,2,B|97:273|184:312,3,140
256,192,169381,6,2,B|269:97|368:80,2,157.5
256,280,171843,1,4
456,296,172962,6,0,B|461:201|336:184,1,175
240,160,174529,2,2,B|248:128|304:91|360:160,3,140
448,128,177664,2,2,B|322:118|299:257|336:296,1,245
408,232,179678,1,4
392,88,180126,6,2,B|311:86|264:136,2,140
392,200,182812,1,2
72,280,183708,6,2,B|158:295|208:224,2,140
72,176,186170,1,4
120,72,187290,6,2,B|120:224,2,140
208,112,189528,1,2
208,112,189752,1,2
288,152,190200,2,0,B|280:255|392:272,3,175
464,208,194453,6,2,B|453:110|328:96,2,175
376,296,197587,6,0,B|264:320|168:232,2,210
376,240,200722,1,4
256,192,201617,5,2
120,88,202512,1,2
168,216,203408,1,2
240,120,204303,1,2
288,224,205199,1,2
168,144,206094,1,2
192,256,206990,1,2
96,184,207885,1,2
112,80,208333,1,2
152,64,208557,1,2
192,80,208781,1,4
312,136,209676,5,2
352,256,210572,1,2
224,200,211467,1,2
344,120,212362,1,2
272,240,213258,1,2
224,104,214153,1,2
128,216,215049,1,2
256,312,215944,5,2
392,224,216840,1,2
272,280,217735,1,2
256,144,218631,1,2
360,56,219526,1,2
304,200,220422,1,2
200,160,221317,1,2
184,56,221765,1,2
120,112,222212,1,2
152,192,222660,1,2
224,104,223108,1,2
120,64,223556,1,2
64,160,224003,1,2
184,184,224451,1,2
312,200,224899,1,2
248,280,225347,1,2
128,248,225794,1,4
240,96,241017,6,2,B|152:104|-2:240|208:344,1,350
288,336,243703,1,4
336,336,243927,2,2,B|329:266|266:178|184:152,2,245
288,336,247285,1,2
240,336,247509,1,2
120,256,248181,6,2,B|264:256,1,140
344,256,249524,1,2
424,256,249972,2,2,B|406:174|320:168,1,140
424,72,251763,6,0,B|328:144,2,105
424,136,253330,1,2
424,200,253553,2,4,B|336:128,1,105
296,104,254449,1,6
248,128,254673,1,4
152,184,255344,6,0,B|187:256|280:256,1,140
312,256,256464,1,0
368,256,256688,2,2,B|333:177|208:176,3,175
168,176,260269,2,2,B|168:256|232:312,2,140
200,184,262508,6,2,B|196:124|272:128,4,105
256,248,265642,2,2,B|368:248,1,105
32,200,269672,6,2,B|56:54|256:64,1,280
344,72,271910,1,0
344,160,272358,1,0
344,240,272806,2,2,B|322:345|224:352,1,175
256,192,274149,12,4,276611
