osu file format v14

[General]
AudioFilename: Huo Shao Yun.mp3
AudioLeadIn: 1500
PreviewTime: 59550
Countdown: 0
SampleSet: Soft
StackLeniency: 0.7
Mode: 0
LetterboxInBreaks: 0
EpilepsyWarning: 1
WidescreenStoryboard: 0

[Editor]
DistanceSpacing: 1
BeatDivisor: 4
GridSize: 4
TimelineZoom: 1

[Metadata]
Title:Huo Shao Yun
TitleUnicode:Huo Shao Yun
Artist:JUSF Zhou Cun
ArtistUnicode:JUSF Zhou Cun
Creator:moonlightleaf
Version:Normal
Source:
Tags:洛天依 vocaloid china luo tian yi
BeatmapID:739578
BeatmapSetID:334240

[Difficulty]
HPDrainRate:5
CircleSize:3
OverallDifficulty:4
ApproachRate:5
SliderMultiplier:1.6
SliderTickRate:2

[Events]
//Background and Video events
0,0,"bg3.jpg",0,0
//Break Periods
2,137150,145350
2,213949,221550
//Storyboard Layer 0 (Background)
//Storyboard Layer 1 (Fail)
//Storyboard Layer 2 (Pass)
//Storyboard Layer 3 (Foreground)
//Storyboard Sound Samples

[TimingPoints]
150,600,4,2,1,55,1,0
11850,-100,4,2,2,35,0,0
12150,-100,4,2,1,40,0,0
12450,-100,4,2,1,55,0,0
16050,-100,4,2,2,35,0,0
16350,-100,4,2,1,55,0,0
21450,-100,4,2,2,35,0,0
21750,-100,4,2,1,55,0,0
26250,-100,4,2,2,35,0,0
26550,-100,4,2,1,55,0,0
30450,-100,4,2,2,35,0,0
30750,-100,4,2,1,55,0,0
31050,-100,4,2,2,35,0,0
31350,-100,4,2,1,55,0,0
35850,-100,4,2,2,55,0,0
36150,-100,4,2,1,55,0,0
37050,-100,4,2,2,35,0,0
39750,-100,4,2,1,30,0,0
40950,-100,4,2,1,55,0,0
45450,-100,4,2,2,35,0,0
45750,-100,4,2,1,55,0,0
49650,-100,4,2,2,35,0,0
49950,-100,4,2,1,55,0,0
50550,-100,4,2,1,30,0,0
59550,-100,4,2,1,45,0,0
60150,-100,4,2,1,55,0,1
74250,-100,4,2,2,35,0,1
74550,-100,4,2,1,55,0,1
79350,-100,4,2,1,40,0,0
98250,-100,4,2,2,35,0,0
98550,-100,4,2,1,55,0,0
107250,-100,4,2,2,35,0,0
107550,-100,4,2,1,55,0,0
107850,-100,4,2,2,35,0,0
108150,-100,4,2,1,30,0,0
115350,-100,4,2,1,55,0,0
116550,-100,4,2,1,55,0,0
117750,-100,4,2,1,55,0,1
121650,-100,4,2,2,35,0,1
121950,-100,4,2,1,55,0,1
122250,-100,4,2,2,35,0,1
122550,-100,4,2,1,55,0,1
126450,-100,4,2,2,35,0,1
126750,-100,4,2,1,55,0,1
131850,-100,4,2,2,35,0,1
132150,-100,4,2,1,55,0,1
136950,-100,4,2,1,55,0,0
155850,-100,4,2,2,35,0,0
156150,-100,4,2,1,55,0,0
160050,-100,4,2,2,35,0,0
160350,-100,4,2,1,55,0,0
165150,-100,4,2,1,55,0,1
165450,-100,4,2,1,55,0,0
165750,-100,4,2,1,30,0,1
166050,-100,4,2,1,55,0,0
170250,-100,4,2,2,35,0,0
170550,-100,4,2,1,55,0,0
174450,-100,4,2,2,30,0,0
174750,-100,4,2,1,55,0,0
175350,-100,4,2,1,30,0,1
175650,-100,4,2,1,30,0,0
184050,-100,4,2,1,55,0,0
184950,-100,4,2,1,55,0,1
185250,-100,4,2,1,55,0,0
194250,-100,4,2,1,55,0,0
194550,-100,4,2,1,55,0,1
213750,-100,4,2,1,55,0,0
223050,-100,4,2,2,35,0,0
223350,-100,4,2,1,55,0,1
223650,-100,4,2,1,55,0,0
227850,-100,4,2,2,35,0,0
228150,-100,4,2,1,55,0,0
234750,-100,4,2,1,5,0,0

[Colours]
Combo1 : 137,80,58
Combo2 : 255,111,40
Combo3 : 229,31,12
Combo4 : 202,202,0

[HitObjects]
108,192,1350,6,0,L|220:68,1,160,2|0,0:0|0:0,0:0:0:0:
360,144,2550,6,0,P|364:222|329:293,2,160,4|0|0,0:0|0:0|0:0,0:0:0:0:
208,192,4350,1,0,0:0:0:0:
130,330,4950,2,0,P|50:199|116:61,1,320,2|0,0:0|0:0,0:0:0:0:
276,32,6750,1,2,0:0:0:0:
432,68,7350,6,0,L|455:226,1,160,4|0,0:0|0:0,0:0:0:0:
352,348,8550,2,0,L|328:189,1,160,2|2,0:0|0:1,0:0:0:0:
304,32,9750,1,2,0:0:0:0:
232,176,10350,1,2,0:0:0:0:
143,44,10950,2,0,L|52:44,1,80,2|8,0:0|0:0,0:0:0:0:
16,108,11550,6,0,L|16:272,1,160,8|4,0:0|0:0,0:0:0:0:
156,344,12750,1,12,0:1:0:0:
236,340,13050,1,0,0:0:0:0:
312,315,13350,2,0,P|385:284|464:277,1,160,8|8,0:0|0:0,0:0:0:0:
460,116,14550,5,10,0:1:0:0:
396,68,14850,1,0,0:0:0:0:
319,48,15150,2,0,L|244:76,1,80,8|0,0:0|0:0,0:0:0:0:
168,56,15750,2,0,P|88:48|12:69,1,160,0|8,0:0|0:0,0:0:0:0:
8,148,16650,1,8,0:0:0:0:
36,224,16950,6,0,L|36:308,1,80,12|0,0:1|0:0,0:0:0:0:
116,320,17550,2,0,L|116:240,1,80,8|0,0:0|0:0,0:0:0:0:
120,160,18150,2,0,P|199:155|270:120,1,160,10|8,0:1|0:0,0:0:0:0:
408,40,19350,2,0,P|448:107|471:184,1,160,10|8,0:1|0:0,0:0:0:0:
448,263,20250,1,0,0:0:0:0:
400,328,20550,2,0,L|312:348,1,80,8|8,0:0|0:0,0:0:0:0:
244,324,21150,6,0,P|213:251|162:190,1,160,8|4,0:0|0:1,0:0:0:0:
16,120,22350,2,0,L|4:20,2,80,8|0|2,0:0|0:0|0:0,0:0:0:0:
32,280,23550,1,8,0:0:0:0:
104,316,23850,1,0,0:0:0:0:
184,328,24150,2,0,P|246:279|275:205,1,160,2|8,0:1|0:0,0:0:0:0:
316,52,25350,2,0,L|396:52,1,80,8|8,0:0|0:0,0:0:0:0:
452,108,25950,6,0,P|475:183|472:263,1,160,8|4,0:0|0:1,0:0:0:0:
315,303,27150,2,0,P|236:303|160:328,1,160,8|10,0:0|0:1,0:0:0:0:
51,207,28350,2,0,P|47:128|62:49,1,160,8|2,0:0|0:1,0:0:0:0:
224,40,29550,2,0,P|235:78|239:117,1,80,8|0,0:0|0:0,0:0:0:0:
239,200,30150,6,0,P|228:278|251:354,2,160,10|8|4,0:0|0:0|0:1,0:0:0:0:
348,80,31950,2,0,L|425:59,2,80,10|2|2,0:1|0:1|0:0,0:0:0:0:
196,124,33150,2,0,L|119:147,2,80,8|2|2,0:0|0:1|0:0,0:0:0:0:
344,184,34350,2,0,L|418:212,2,80,8|2|10,0:0|0:1|0:1,0:0:0:0:
267,160,35250,1,8,0:0:0:0:
188,180,35550,6,0,P|132:235|111:312,1,160,8|12,0:0|0:1,0:0:0:0:
20,180,36750,2,0,P|4:102|28:27,1,160,8|2,0:0|0:0,0:0:0:0:
164,112,37950,1,2,0:0:0:0:
312,48,38550,1,2,0:0:0:0:
312,48,39750,6,0,P|385:20|461:41,2,160,2|2|4,0:1|0:1|0:0,0:0:0:0:
251,196,41550,2,0,P|266:274|248:352,2,160,8|2|8,0:0|0:0|0:0,0:0:0:0:
220,120,43050,1,8,0:0:0:0:
164,60,43350,2,0,P|108:115|85:191,1,160,2|8,0:0|0:0,0:0:0:0:
88,352,44550,2,0,L|176:352,1,80,10|8,0:0|0:0,0:0:0:0:
248,352,45150,6,0,P|324:330|400:351,1,160,8|12,0:0|0:1,0:0:0:0:
488,220,46350,1,8,0:0:0:0:
464,144,46650,1,0,0:0:0:0:
436,68,46950,1,2,0:0:0:0:
280,100,47550,1,8,0:0:0:0:
121,74,48150,2,0,P|53:114|7:179,1,160,2|8,0:0|0:0,0:0:0:0:
100,308,49350,6,0,P|192:308|268:340,2,160,10|8|10,0:0|0:0|0:1,0:0:0:0:
8,180,51150,2,0,L|4:100,1,80,10|10,0:1|0:1,0:0:0:0:
68,52,51750,2,0,P|146:63|224:47,1,160,2|2,0:1|0:1,0:0:0:0:
298,80,52650,1,2,0:1:0:0:
362,128,52950,1,2,0:1:0:0:
368,287,53550,2,0,P|402:307|441:318,1,80,0|2,0:1|0:1,0:0:0:0:
496,260,54150,6,0,L|502:100,2,160,2|2|2,0:1|0:1|0:1,0:0:0:0:
348,324,55950,2,0,L|240:352,1,80,2|2,0:1|0:1,0:0:0:0:
191,352,56550,2,0,P|113:343|47:299,2,160,2|2|0,0:1|0:1|0:1,0:0:0:0:
348,324,58350,1,0,0:0:0:0:
471,221,58950,2,0,L|431:133,1,80,10|10,0:1|0:1,0:0:0:0:
396,80,59550,1,8,0:0:0:0:
324,40,59850,1,8,0:0:0:0:
243,44,60150,6,0,P|167:64|88:52,1,160,12|8,0:1|0:0,0:0:0:0:
40,204,61350,2,0,P|67:278|68:358,1,160,10|8,0:0|0:0,0:0:0:0:
228,343,62550,2,0,P|303:318|382:322,2,160,10|8|10,0:0|0:0|0:0,0:0:0:0:
172,286,64050,1,8,0:0:0:0:
139,211,64350,2,0,P|132:172|131:132,1,80,8|8,0:0|0:0,0:0:0:0:
172,63,64950,6,0,P|251:56|330:66,1,160,12|8,0:1|0:0,0:0:0:0:
448,174,66150,6,0,P|486:106|484:26,2,160,10|8|10,0:0|0:0|0:0,0:0:0:0:
336,288,67950,1,8,0:0:0:0:
176,296,68550,2,0,L|84:284,1,80,8|8,0:0|0:0,0:0:0:0:
40,228,69150,2,0,L|17:151,1,80,8|8,0:0|0:0,0:0:0:0:
24,72,69750,6,0,P|103:71|174:36,1,160,12|8,0:1|0:0,0:0:0:0:
222,189,70950,2,0,L|331:72,1,160,10|8,0:0|0:0,0:0:0:0:
376,224,72150,2,0,B|369:276|437:312|425:372,2,160,2|8|8,0:0|0:0|0:0,0:0:0:0:
368,144,73650,1,8,0:0:0:0:
331,72,73950,6,0,P|252:72|175:52,1,160,8|12,0:0|0:1,0:0:0:0:
16,52,75150,2,0,L|22:131,1,80,8|0,0:0|0:0,0:0:0:0:
36,212,75750,2,0,P|106:245|139:316,1,160,2|8,0:0|0:0,0:0:0:0:
300,317,76950,2,0,P|332:245|403:211,1,160,2|8,0:0|0:0,0:0:0:0:
500,84,78150,2,0,L|496:4,2,80,8|8|8,0:0|0:0|0:0,0:0:0:0:
500,164,79050,1,8,0:0:0:0:
496,244,79350,5,4,0:0:0:0:
496,244,81150,1,2,0:0:0:0:
496,244,81750,2,0,P|343:216|217:307,1,320,2|2,0:1|0:1,0:0:0:0:
68,244,83550,1,2,0:1:0:0:
44,84,84150,6,0,P|200:103|347:43,1,320,4|2,0:0|0:1,0:0:0:0:
476,136,85950,1,2,0:0:0:0:
416,284,86550,2,0,B|356:332|356:332|273:338,1,160,2|2,0:1|0:0,0:0:0:0:
112,320,87750,2,0,L|64:255,1,80,2|8,0:0|0:0,0:0:0:0:
40,180,88350,2,0,L|87:115,1,80,8|8,0:0|0:0,0:0:0:0:
167,104,88950,6,0,L|275:236,1,160,12|8,0:1|0:0,0:0:0:0:
340,264,89850,1,0,0:0:0:0:
417,249,90150,2,0,P|472:168|464:96,1,160,8|8,0:0|0:0,0:0:0:0:
400,64,91050,1,8,0:0:0:0:
320,74,91350,2,0,P|246:103|167:103,1,160,12|8,0:1|0:0,0:0:0:0:
12,148,92550,2,0,L|22:227,1,80,8|8,0:0|0:0,0:0:0:0:
95,256,93150,2,0,L|105:335,1,80,8|8,0:0|0:0,0:0:0:0:
182,361,93750,6,0,P|244:312|323:306,1,160,12|8,0:1|0:0,0:0:0:0:
400,288,94650,1,0,0:0:0:0:
444,220,94950,2,0,L|465:143,1,80,8|0,0:0|0:0,0:0:0:0:
416,80,95550,2,0,L|340:48,1,80,8|8,0:0|0:0,0:0:0:0:
264,60,96150,2,0,L|180:56,1,80,2|0,0:1|0:0,0:0:0:0:
104,60,96750,1,8,0:0:0:0:
52,120,97050,1,0,0:0:0:0:
36,200,97350,2,0,L|26:279,1,80,8|8,0:0|0:0,0:0:0:0:
100,316,97950,6,0,L|123:157,1,160,8|12,0:0|0:1,0:0:0:0:
248,60,99150,1,0,0:3:0:0:
324,84,99450,1,0,0:0:0:0:
404,68,99750,2,0,P|457:125|476:202,1,160,2|8,0:0|0:0,0:0:0:0:
436,272,100650,1,0,0:0:0:0:
388,338,100950,1,2,0:0:0:0:
228,344,101550,2,0,P|225:264|262:195,1,160,8|8,0:0|0:0,0:0:0:0:
300,124,102450,1,8,0:0:0:0:
276,48,102750,2,0,L|184:32,1,80,8|8,0:0|0:0,0:0:0:0:
116,32,103350,6,0,B|76:44|76:44|64:100|16:144,1,160,12|8,0:1|0:0,0:0:0:0:
16,224,104250,1,0,0:0:0:0:
35,302,104550,2,0,B|94:350|94:350|130:314|170:329,2,160,10|8|12,0:0|0:0|0:1,0:0:0:0:
140,180,106350,2,0,L|184:108,1,80,8|8,0:0|0:0,0:0:0:0:
248,68,106950,6,0,P|326:79|404:61,2,160,8|8|6,0:0|0:0|0:1,0:0:0:0:
140,180,108750,1,10,0:1:0:0:
164,256,109050,1,10,0:1:0:0:
236,287,109350,2,0,P|314:294|381:337,1,160,10|10,0:0|0:1,0:0:0:0:
460,312,110250,1,2,0:1:0:0:
484,236,110550,2,0,L|500:64,2,160,10|2|2,0:0|0:1|0:1,0:0:0:0:
403,251,112050,2,0,P|339:206|308:134,1,160,2|2,0:1|0:1,0:0:0:0:
252,76,112950,6,0,L|76:64,2,160,2|2|2,0:1|0:1|0:1,0:0:0:0:
328,212,114750,2,0,P|344:290|347:370,2,160,2|2|0,0:1|0:0|0:0,0:0:0:0:
192,128,116550,2,0,L|104:144,1,80,10|10,0:1|0:1,0:0:0:0:
40,176,117150,6,0,P|67:250|62:329,1,160,8|12,0:0|0:1,0:0:0:0:
224,328,118350,2,0,L|383:343,1,160,8|10,0:0|0:0,0:0:0:0:
488,224,119550,2,0,L|328:208,1,160,8|12,0:0|0:1,0:0:0:0:
168,188,120750,1,8,0:0:0:0:
168,188,121350,6,0,B|132:176|100:152|100:152|64:176|25:186,2,160,8|8|12,0:0|0:0|0:1,0:0:0:0:
304,104,123150,2,0,B|340:116|372:140|372:140|408:116|446:105,1,160,8|10,0:0|0:0,0:0:0:0:
496,260,124350,2,0,L|471:336,1,80,8|0,0:0|0:0,0:0:0:0:
395,311,124950,2,0,P|319:292|242:310,1,160,10|8,0:0|0:0,0:0:0:0:
164,336,125850,1,8,0:0:0:0:
83,331,126150,6,0,P|36:269|30:190,2,160,8|8|12,0:0|0:0|0:1,0:0:0:0:
188,212,127950,1,8,0:0:0:0:
272,76,128550,2,0,B|348:60|348:60|429:71,1,160,10|8,0:0|0:0,0:0:0:0:
480,136,129450,1,8,0:0:0:0:
459,212,129750,2,0,P|437:288|446:367,2,160,8|8|8,0:0|0:0|0:0,0:0:0:0:
480,136,131250,1,8,0:0:0:0:
400,140,131550,6,0,B|320:164|320:164|244:153,1,160,8|12,0:0|0:1,0:0:0:0:
132,268,132750,2,0,B|212:244|212:244|287:254,2,160,8|10|8,0:0|0:0|0:0,0:0:0:0:
12,159,134550,2,0,P|40:86|101:35,2,160,2|8|2,0:0|0:0|0:0,0:0:0:0:
16,240,136050,2,0,L|19:319,1,80,8|4,0:0|0:0,0:0:0:0:
180,340,136950,5,12,0:0:0:0:
120,72,146550,6,0,P|190:35|269:40,2,160,6|2|2,0:1|0:1|0:1,0:0:0:0:
92,148,148050,1,0,0:0:0:0:
120,224,148350,2,0,P|172:282|248:306,1,160,2|6,0:1|0:1,0:0:0:0:
408,328,149550,2,0,L|431:169,2,160,2|2|2,0:1|0:1|0:1,0:0:0:0:
328,344,151050,2,0,L|248:344,2,80,2|2|2,0:1|0:1|0:1,0:0:0:0:
339,263,151950,6,0,P|286:206|208:192,1,160,2|2,0:1|0:1,0:0:0:0:
132,212,152850,1,2,0:1:0:0:
68,164,153150,2,0,B|40:116|40:116|56:60|56:60|40:17,2,160,2|6|2,0:1|0:1|0:0,0:0:0:0:
72,244,154650,1,2,0:0:0:0:
100,320,154950,2,0,L|192:328,1,80,2|0,0:0|0:0,0:0:0:0:
260,319,155550,6,0,P|307:256|377:218,1,160,2|12,0:0|0:1,0:0:0:0:
492,108,156750,2,0,L|400:60,1,80,10|2,0:1|0:1,0:0:0:0:
348,108,157350,2,0,L|260:72,1,80,10|2,0:1|0:1,0:0:0:0:
200,108,157950,2,0,P|188:186|144:252,1,160,10|14,0:1|0:1,0:0:0:0:
108,96,159150,2,0,P|151:31|228:19,2,160,8|10|8,0:0|0:1|0:0,0:0:0:0:
100,176,160650,6,0,L|93:255,2,80,8|12|0,0:0|0:1|0:0,0:0:0:0:
172,140,161550,2,0,L|264:104,1,80,8|8,0:0|0:0,0:0:0:0:
312,160,162150,2,0,L|463:108,2,160,8|8|10,0:0|0:0|0:0,0:0:0:0:
268,227,163650,1,0,0:0:0:0:
235,300,163950,2,0,L|165:335,1,80,8|8,0:0|0:0,0:0:0:0:
84,324,164550,2,0,L|63:246,1,80,10|10,0:1|0:1,0:0:0:0:
52,167,165150,6,0,P|126:140|190:93,1,160,8|4,0:0|0:0,0:0:0:0:
348,60,166350,1,8,0:0:0:0:
416,104,166650,1,0,0:0:0:0:
460,172,166950,2,0,L|476:276,1,80,8|8,0:0|0:0,0:0:0:0:
436,324,167550,2,0,B|364:356|364:356|284:340,2,160,8|12|8,0:0|0:1|0:0,0:0:0:0:
408,248,169050,2,0,L|366:179,1,80,8|10,0:0|0:1,0:0:0:0:
324,112,169650,1,8,0:0:0:0:
248,88,169950,6,0,P|212:156|208:260,1,160,8|12,0:0|0:1,0:0:0:0:
184,316,170850,1,0,0:0:0:0:
108,344,171150,2,0,L|49:195,1,160,8|8,0:0|0:0,0:0:0:0:
20,120,172050,1,0,0:0:0:0:
48,44,172350,2,0,B|125:60|125:60|203:40,1,160,8|8,0:0|0:0,0:0:0:0:
284,36,173250,1,8,0:0:0:0:
360,56,173550,2,0,P|430:89|453:163,2,160,8|8|8,0:0|0:0|0:0,0:0:0:0:
300,112,175050,1,10,0:1:0:0:
263,184,175350,6,0,P|239:257|282:321,1,160,6|2,0:1|0:0,0:0:0:0:
443,333,176550,2,0,P|394:271|320:244,1,160,2|2,0:0|0:0,0:0:0:0:
164,248,177750,2,0,B|112:256|112:256|48:244|48:244|5:247,2,160,6|2|2,0:1|0:0|0:1,0:0:0:0:
300,160,179550,2,0,P|339:157|374:138,1,80,2|0,0:0|0:0,0:0:0:0:
315,79,180150,6,0,P|244:100|220:176,2,160,4|2|2,0:1|0:0|0:0,0:0:0:0:
376,232,181950,1,2,0:0:0:0:
376,232,182550,2,0,P|328:294|254:321,2,160,6|0|8,0:1|0:0|0:0,0:0:0:0:
408,160,184050,1,8,0:0:0:0:
416,80,184350,2,0,L|351:32,1,80,8|8,0:0|0:0,0:0:0:0:
276,59,184950,6,0,B|197:73|197:73|118:63,1,160,6|0,0:1|0:0,0:0:0:0:
52,112,185850,1,0,0:0:0:0:
24,188,186150,2,0,B|52:264|52:264|52:343,1,160,10|8,0:0|0:0,0:0:0:0:
132,348,187050,1,8,0:0:0:0:
200,303,187350,2,0,P|278:292|352:319,1,160,14|0,0:1|0:0,0:0:0:0:
428,348,188250,1,0,0:0:0:0:
456,272,188550,2,0,L|473:193,1,80,10|8,0:0|0:0,0:0:0:0:
480,112,189150,2,0,L|468:20,1,80,8|8,0:0|0:0,0:0:0:0:
387,32,189750,6,0,P|309:44|230:32,1,160,6|10,0:1|0:0,0:0:0:0:
152,28,190650,1,0,0:0:0:0:
108,92,190950,2,0,B|96:144|96:144|112:192|87:248,2,160,8|8|2,0:0|0:0|0:0,0:0:0:0:
256,36,192750,1,2,0:0:0:0:
380,136,193350,2,0,P|383:175|380:215,2,80,2|2|8,0:1|0:0|0:0,0:0:0:0:
408,60,194250,1,8,0:0:0:0:
480,96,194550,6,0,L|495:255,1,160,12|10,0:1|0:0,0:0:0:0:
359,343,195750,2,0,P|282:327|204:342,1,160,8|10,0:0|0:0,0:0:0:0:
75,275,196950,2,0,B|60:196|60:196|23:126,2,160,12|8|8,0:1|0:0|0:0,0:0:0:0:
124,340,198450,1,8,0:0:0:0:
168,272,198750,2,0,L|173:192,1,80,8|8,0:0|0:0,0:0:0:0:
116,134,199350,6,0,P|189:112|246:162,1,160,12|10,0:1|0:0,0:0:0:0:
264,240,200250,1,0,0:0:0:0:
304,308,200550,2,0,B|344:352|344:352|392:324|441:345,1,160,8|8,0:0|0:0,0:0:0:0:
480,276,201450,1,0,0:0:0:0:
484,196,201750,2,0,L|491:36,1,160,10|8,0:0|0:0,0:0:0:0:
412,40,202650,1,0,0:0:0:0:
336,60,202950,2,0,L|256:50,1,80,10|8,0:0|0:0,0:0:0:0:
175,35,203550,6,0,P|102:61|67:131,1,160,8|12,0:0|0:1,0:0:0:0:
72,292,204750,1,8,0:0:0:0:
220,355,205350,2,0,P|231:277|208:201,1,160,10|8,0:0|0:0,0:0:0:0:
164,132,206250,1,8,0:0:0:0:
232,88,206550,2,0,P|308:60|400:44,1,160,12|8,0:1|0:0,0:0:0:0:
464,56,207450,1,8,0:0:0:0:
496,128,207750,2,0,L|502:207,1,80,8|8,0:0|0:0,0:0:0:0:
424,220,208350,2,0,L|424:300,1,80,8|8,0:0|0:0,0:0:0:0:
356,344,208950,6,0,B|276:328|276:328|180:344,1,160,12|8,0:1|0:0,0:0:0:0:
120,324,209850,1,0,0:0:0:0:
88,248,210150,2,0,B|56:200|72:144|46:94,1,160,10|8,0:0|0:0,0:0:0:0:
204,112,211350,2,0,B|252:80|307:95|357:70,2,160,2|8|8,0:0|0:0|0:0,0:0:0:0:
152,172,212850,1,8,0:0:0:0:
128,248,213150,6,0,B|108:312|108:312|152:320|176:369,1,160,8|12,0:0|0:1,0:0:0:0:
416,183,222750,6,0,P|397:108|325:81,1,160,8|12,0:0|0:1,0:0:0:0:
204,192,223950,2,0,P|277:213|336:164,1,160,8|8,0:0|0:0,0:0:0:0:
300,4,225150,2,0,P|245:56|258:132,1,160,8|12,0:0|0:1,0:0:0:0:
248,292,226350,2,0,B|216:340|216:340|164:320|115:339,1,160,8|8,0:0|0:0,0:0:0:0:
44,304,227250,1,8,0:0:0:0:
19,227,227550,6,0,P|12:148|30:71,1,160,8|12,0:0|0:1,0:0:0:0:
108,48,228450,1,0,0:0:0:0:
188,36,228750,2,0,L|280:44,1,80,8|0,0:0|0:0,0:0:0:0:
348,52,229350,2,0,P|376:104|468:164,1,160,8|8,0:0|0:0,0:0:0:0:
472,240,230250,1,8,0:0:0:0:
440,316,230550,6,0,L|360:344,1,80,12|0,0:1|0:0,0:0:0:0:
292,308,231150,2,0,L|192:300,1,80,8|0,0:0|0:0,0:0:0:0:
132,304,231750,2,0,L|59:338,2,80,8|0|8,0:0|0:0|0:1,0:0:0:0:
256,192,232500,12,0,234750,0:0:0:0:
