osu file format v14

[General]
AudioFilename: Huo Shao Yun.mp3
AudioLeadIn: 1500
PreviewTime: 59550
Countdown: 0
SampleSet: Soft
StackLeniency: 0.7
Mode: 0
LetterboxInBreaks: 0
EpilepsyWarning: 1
WidescreenStoryboard: 0

[Editor]
Bookmarks: 191193
DistanceSpacing: 1.4
BeatDivisor: 4
GridSize: 4
TimelineZoom: 1.6

[Metadata]
Title:Huo Shao Yun
TitleUnicode:Huo Shao Yun
Artist:JUSF Zhou Cun
ArtistUnicode:JUSF Zhou Cun
Creator:moonlightleaf
Version:Hard
Source:
Tags:洛天依 vocaloid china luo tian yi
BeatmapID:739577
BeatmapSetID:334240

[Difficulty]
HPDrainRate:6
CircleSize:4
OverallDifficulty:6
ApproachRate:8
SliderMultiplier:2
SliderTickRate:1

[Events]
//Background and Video events
0,0,"bg3.jpg",0,0
//Break Periods
2,137150,145800
2,213950,222600
//Storyboard Layer 0 (Background)
//Storyboard Layer 1 (Fail)
//Storyboard Layer 2 (Pass)
//Storyboard Layer 3 (Foreground)
//Storyboard Sound Samples

[TimingPoints]
150,600,4,2,1,55,1,0
12150,-100,4,2,1,40,0,0
12450,-100,4,2,1,55,0,0
37050,-100,4,2,2,30,0,0
38550,-100,4,2,1,55,0,0
40200,-100,4,2,1,30,0,0
40350,-100,4,2,1,55,0,0
50550,-100,4,2,1,30,0,0
58950,-100,4,2,1,45,0,0
60150,-100,4,2,1,55,0,1
79350,-100,4,2,1,40,0,0
98550,-100,4,2,1,55,0,0
108150,-100,4,2,1,30,0,0
115350,-166.666666666667,4,2,1,55,0,0
116550,-100,4,2,1,55,0,0
117750,-100,4,2,1,55,0,1
136950,-100,4,2,1,55,0,0
137250,-100,4,2,2,40,0,0
139350,-100,4,2,1,40,0,0
140250,-100,4,2,2,40,0,0
142350,-100,4,2,1,40,0,0
165150,-100,4,2,1,55,0,1
165450,-100,4,2,1,55,0,0
165750,-100,4,2,1,30,0,1
166050,-100,4,2,1,55,0,0
175350,-100,4,1,1,30,0,1
175650,-100,4,2,1,30,0,0
182550,-200,4,2,1,30,0,0
184050,-100,4,2,1,55,0,0
184950,-100,4,2,1,55,0,1
185250,-100,4,2,1,55,0,0
194250,-100,4,2,1,55,0,0
194550,-100,4,2,1,55,0,1
213750,-100,4,2,1,55,0,0
223350,-100,4,2,1,55,0,1
223650,-100,4,2,1,55,0,0
234750,-100,4,2,1,5,0,0

[Colours]
Combo1 : 137,80,58
Combo2 : 255,111,40
Combo3 : 229,31,12
Combo4 : 202,202,0

[HitObjects]
32,36,1350,6,0,P|76:123|50:217,1,200,2|0,0:0|0:0,0:0:0:0:
212,336,2550,2,0,P|167:248|193:154,1,200,4|0,0:0|0:0,0:0:0:0:
356,192,4350,6,0,P|390:156|438:143,1,100
451,264,4950,2,0,P|367:312|275:280,1,200,2|0,0:0|0:0,0:0:0:0:
232,108,6150,2,0,L|224:208,1,100
304,284,6750,2,0,L|312:184,1,100,2|0,0:0|0:0,0:0:0:0:
269,34,7350,6,0,P|176:47|155:138,1,200,4|0,0:0|0:0,0:0:0:0:
264,360,8550,2,0,P|357:347|378:256,2,200,2|2|2,0:0|0:1|0:0,0:0:0:0:
44,260,10350,1,2,0:0:0:0:
116,32,10950,6,0,L|116:82,1,50,2|0,0:0|0:0,0:0:0:0:
188,140,11250,2,0,L|188:90,1,50,8|0,0:0|0:0,0:0:0:0:
260,164,11550,2,0,L|260:214,1,50,8|0,0:0|0:0,0:0:0:0:
332,272,11850,2,0,L|332:222,1,50,8|8,0:0|0:0,0:0:0:0:
332,152,12150,5,4,0:0:0:0:
424,76,12450,1,0,0:0:0:0:
464,188,12750,2,0,L|488:292,1,100,12|0,0:1|0:0,0:0:0:0:
404,144,13350,1,8,0:0:0:0:
328,52,13650,1,0,0:0:0:0:
260,152,13950,1,8,0:0:0:0:
152,72,14250,2,0,L|178:30,1,50,8|8,0:0|0:0,0:0:0:0:
66,64,14550,6,0,L|12:148,1,100,10|0,0:1|0:0,0:0:0:0:
16,267,15150,2,0,P|63:283|113:286,1,100,8|0,0:0|0:0,0:0:0:0:
324,244,15750,1,0,0:0:0:0:
216,196,16050,1,8,0:0:0:0:
236,316,16350,2,0,L|249:267,1,50,8|0,0:0|0:0,0:0:0:0:
292,172,16650,2,0,L|341:162,1,50,8|8,0:0|0:0,0:0:0:0:
444,200,16950,6,0,L|392:292,1,100,12|0,0:1|0:0,0:0:0:0:
300,360,17550,1,8,0:0:0:0:
268,244,17850,1,0,0:0:0:0:
180,324,18150,2,0,L|96:216,1,100,10|0,0:1|0:0,0:0:0:0:
84,128,18750,1,8,0:0:0:0:
144,24,19050,1,0,0:0:0:0:
212,124,19350,6,0,P|260:136|308:126,1,100,10|0,0:1|0:0,0:0:0:0:
384,32,19950,1,8,0:0:0:0:
264,16,20250,1,0,0:0:0:0:
212,124,20550,2,0,L|212:240,1,100,8|8,0:0|0:0,0:0:0:0:
240,344,21150,2,0,L|289:338,1,50,8|0,0:0|0:0,0:0:0:0:
360,320,21450,2,0,L|412:312,1,50,8|8,0:0|0:0,0:0:0:0:
464,267,21750,6,0,P|472:169|424:83,1,200,4|8,0:1|0:0,0:0:0:0:
304,40,22650,1,0,0:0:0:0:
187,76,22950,2,0,P|98:115|4:87,1,200,2|8,0:0|0:0,0:0:0:0:
8,208,23850,2,0,L|3:257,1,50
27,312,24150,6,0,P|75:296|112:263,1,100,2|8,0:1|0:0,0:0:0:0:
132,144,24750,1,8,0:0:0:0:
224,220,25050,1,2,0:0:0:0:
196,104,25350,1,8,0:0:0:0:
288,180,25650,1,8,0:0:0:0:
328,68,25950,2,0,L|375:51,1,50,8|0,0:0|0:0,0:0:0:0:
464,88,26250,2,0,L|418:107,1,50,8|8,0:0|0:0,0:0:0:0:
364,156,26550,6,0,L|364:256,1,100,4|0,0:1|0:0,0:0:0:0:
271,331,27150,2,0,P|222:324|174:334,2,100,8|0|10,0:0|0:0|0:1,0:0:0:0:
271,331,28350,2,0,L|288:224,1,100,8|0,0:0|0:0,0:0:0:0:
303,112,28950,6,0,P|210:141|118:106,1,200,2|8,0:1|0:0,0:0:0:0:
32,24,29850,1,0,0:0:0:0:
28,144,30150,2,0,L|31:243,1,100,10|8,0:0|0:0,0:0:0:0:
120,324,30750,1,8,0:0:0:0:
116,204,31050,1,8,0:0:0:0:
116,144,31200,1,8,0:0:0:0:
120,84,31350,6,0,P|165:61|214:50,1,100,4|0,0:1|0:0,0:0:0:0:
320,108,31950,1,10,0:1:0:0:
392,204,32250,1,2,0:1:0:0:
460,104,32550,2,0,B|472:60|472:60|392:64|322:28,1,200,2|8,0:0|0:0,0:0:0:0:
204,36,33450,1,2,0:1:0:0:
176,152,33750,6,0,P|226:234|187:322,1,200,2|8,0:0|0:0,0:0:0:0:
68,324,34650,1,2,0:1:0:0:
68,324,34800,1,2,0:1:0:0:
68,324,34950,2,0,L|40:280,1,50,10|0,0:1|0:0,0:0:0:0:
32,168,35250,2,0,L|68:224,1,50,8|8,0:0|0:0,0:0:0:0:
124,256,35550,2,0,L|248:252,1,100,8|8,0:0|0:0,0:0:0:0:
280,252,36000,1,8,0:0:0:0:
339,252,36150,6,0,P|388:239|437:247,2,100,12|0|8,0:1|0:0|0:0,0:0:0:0:
240,184,37050,1,2,0:0:0:0:
240,184,37200,1,2,0:0:0:0:
240,184,37350,1,2,0:0:0:0:
124,160,37650,1,2,0:0:0:0:
100,48,37950,1,2,0:0:0:0:
216,76,38250,1,2,0:0:0:0:
216,76,38400,1,2,0:0:0:0:
216,75,38550,6,0,P|314:64|413:79,1,200,2|0,0:0|0:0,0:0:0:0:
476,184,39450,1,2,0:0:0:0:
420,288,39750,2,0,L|410:337,1,50,2|0,0:1|0:0,0:0:0:0:
328,344,40050,2,0,L|340:288,1,50,2|0,0:1|0:0,0:0:0:0:
360,224,40350,1,2,0:1:0:0:
396,108,40650,1,2,0:1:0:0:
303,28,40950,6,0,P|208:52|111:31,1,200,4|8,0:0|0:0,0:0:0:0:
36,124,41850,1,0,0:0:0:0:
140,184,42150,2,0,P|131:279|48:336,1,200,2|8,0:0|0:0,0:0:0:0:
24,216,43050,2,0,L|72:168,1,50,8|8,0:0|0:0,0:0:0:0:
104,124,43350,6,0,L|200:98,1,100,2|0,0:0|0:0,0:0:0:0:
320,100,43950,2,0,L|416:125,1,100,8|0,0:0|0:0,0:0:0:0:
472,232,44550,1,10,0:0:0:0:
392,320,44850,1,8,0:0:0:0:
344,212,45150,2,0,L|319:255,1,50,8|0,0:0|0:0,0:0:0:0:
228,264,45450,2,0,L|252:220,1,50,8|8,0:0|0:0,0:0:0:0:
279,152,45750,6,0,P|321:125|370:128,1,100,12|0,0:1|0:0,0:0:0:0:
488,152,46350,1,8,0:0:0:0:
452,36,46650,1,0,0:0:0:0:
332,32,46950,2,0,B|268:56|200:16|133:37,1,200,2|8,0:0|0:0,0:0:0:0:
36,104,47850,1,0,0:0:0:0:
88,212,48150,6,0,B|152:252|160:324|228:352,1,200,2|8,0:0|0:0,0:0:0:0:
348,343,49050,2,0,P|379:304|419:275,1,100,0|10,0:0|0:0,0:0:0:0:
428,156,49650,1,8,0:0:0:0:
348,64,49950,2,0,L|307:34,1,50,8|0,0:0|0:0,0:0:0:0:
220,72,50250,2,0,L|260:101,1,50,8|8,0:0|0:0,0:0:0:0:
328,139,50550,6,0,P|319:189|327:238,1,100,10|0,0:1|0:0,0:0:0:0:
428,304,51150,1,10,0:1:0:0:
484,196,51450,1,10,0:1:0:0:
440,84,51750,2,0,B|384:60|384:60|316:64|249:29,1,200,2|2,0:1|0:1,0:0:0:0:
132,48,52650,1,2,0:1:0:0:
52,134,52950,6,0,P|40:184|51:233,2,100,2|0|0,0:1|0:0|0:1,0:0:0:0:
161,185,53850,2,0,L|221:201,2,50,2|0|2,0:1|0:0|0:1,0:0:0:0:
112,296,54450,2,0,L|88:348,2,50,2|0|2,0:1|0:0|0:1,0:0:0:0:
161,185,55050,1,2,0:1:0:0:
208,76,55350,5,2,0:1:0:0:
316,132,55650,1,2,0:1:0:0:
264,240,55950,1,2,0:1:0:0:
161,185,56250,2,0,L|116:162,2,50,2|0|2,0:1|0:0|0:1,0:0:0:0:
212,294,56850,1,2,0:1:0:0:
232,176,57150,1,2,0:1:0:0:
300,76,57450,2,0,L|331:114,1,50,2|2,0:0|0:1,0:0:0:0:
372,172,57750,6,0,P|391:268|348:356,1,200,0|0,0:1|0:0,0:0:0:0:
228,348,58650,1,2,0:0:0:0:
140,268,58950,2,0,L|90:268,1,50,10|0,0:1|0:0,0:0:0:0:
32,196,59250,2,0,L|82:196,1,50,10|8,0:1|0:0,0:0:0:0:
156,192,59550,1,8,0:0:0:0:
252,120,59850,1,8,0:0:0:0:
312,108,60000,1,8,0:0:0:0:
371,111,60150,6,0,P|417:132|453:167,1,100,12|0,0:1|0:0,0:0:0:0:
456,316,60750,2,0,P|410:295|374:260,1,100,8|0,0:0|0:0,0:0:0:0:
243,187,61350,2,0,P|195:177|148:192,1,100,10|0,0:0|0:0,0:0:0:0:
80,328,61950,2,0,P|128:338|175:323,1,100,8|0,0:0|0:0,0:0:0:0:
304,243,62550,6,0,P|326:200|321:150,1,100,10|0,0:0|0:0,0:0:0:0:
204,56,63150,2,0,P|181:99|186:149,1,100,8|0,0:0|0:0,0:0:0:0:
240,288,63750,1,10,0:0:0:0:
185,148,64050,1,8,0:0:0:0:
112,280,64350,2,0,L|63:267,1,50,8|0,0:0|0:0,0:0:0:0:
32,180,64650,2,0,L|80:192,1,50,8|8,0:0|0:0,0:0:0:0:
148,212,64950,6,0,P|197:216|246:207,1,100,12|0,0:1|0:0,0:0:0:0:
344,84,65550,2,0,P|294:80|245:89,1,100,8|0,0:0|0:0,0:0:0:0:
108,147,66150,2,0,P|82:190|82:239,1,100,10|0,0:0|0:0,0:0:0:0:
180,356,66750,2,0,P|205:313|205:264,1,100,8|0,0:0|0:0,0:0:0:0:
180,116,67350,5,10,0:0:0:0:
36,68,67650,1,2,0:0:0:0:
168,140,67950,1,8,0:0:0:0:
24,172,68250,1,8,0:0:0:0:
176,168,68550,1,8,0:0:0:0:
68,272,68850,2,0,L|58:321,1,50,8|8,0:0|0:0,0:0:0:0:
139,264,69150,2,0,P|186:247|236:249,1,100,8|8,0:0|0:0,0:0:0:0:
304,284,69600,1,8,0:0:0:0:
375,308,69750,6,0,P|424:298|467:272,1,100,12|0,0:1|0:0,0:0:0:0:
484,124,70350,2,0,P|435:133|392:159,1,100,8|0,0:0|0:0,0:0:0:0:
256,224,70950,2,0,P|207:222|164:197,1,100,10|0,0:0|0:0,0:0:0:0:
128,52,71550,2,0,P|177:53|220:78,1,100,8|0,0:0|0:0,0:0:0:0:
256,224,72150,5,2,0:0:0:0:
256,224,72750,2,0,L|264:112,1,100,8|0,0:0|0:0,0:0:0:0:
388,40,73350,1,8,0:0:0:0:
492,148,73650,1,8,0:0:0:0:
352,200,73950,2,0,L|322:160,1,50,8|0,0:0|0:0,0:0:0:0:
280,100,74250,2,0,L|250:60,1,50,8|8,0:0|0:0,0:0:0:0:
179,28,74550,6,0,P|90:68|35:151,1,200,12|8,0:1|0:0,0:0:0:0:
28,300,75450,1,0,0:0:0:0:
172,347,75750,2,0,P|259:301|358:300,1,200,2|8,0:0|0:0,0:0:0:0:
492,228,76650,2,0,L|492:160,1,50,2|0,0:0|0:0,0:0:0:0:
492,104,76950,5,2,0:0:0:0:
344,88,77250,1,0,0:0:0:0:
484,32,77550,1,8,0:0:0:0:
388,148,77850,1,0,0:0:0:0:
324,12,78150,1,8,0:0:0:0:
212,112,78450,2,0,L|176:147,1,50,8|0,0:0|0:0,0:0:0:0:
92,128,78750,2,0,L|127:92,1,50,8|0,0:0|0:0,0:0:0:0:
124,192,79050,2,0,L|88:227,1,50,8|8,0:0|0:0,0:0:0:0:
32,280,79350,6,0,P|101:348|199:350,2,200,4|2|2,0:0|0:0|0:1,0:0:0:0:
108,52,81150,1,2,0:0:0:0:
348,52,81750,6,0,P|430:103|454:198,2,200,2|2|2,0:1|0:0|0:1,0:0:0:0:
144,176,83550,2,0,L|144:376,1,200,2|4,0:1|0:0,0:0:0:0:
144,376,85350,5,2,0:1:0:0:
384,352,85950,1,2,0:0:0:0:
452,120,86550,2,0,P|320:100|244:92,1,200,2|2,0:1|0:0,0:0:0:0:
56,212,87750,6,0,L|40:259,1,50,2|0,0:0|0:0,0:0:0:0:
96,328,88050,2,0,L|111:280,1,50,8|0,0:0|0:0,0:0:0:0:
200,244,88350,2,0,L|184:291,1,50,8|0,0:0|0:0,0:0:0:0:
240,360,88650,2,0,L|255:312,1,50,8|8,0:0|0:0,0:0:0:0:
276,228,88950,5,12,0:1:0:0:
340,115,89250,1,0,0:0:0:0:
452,180,89550,1,8,0:0:0:0:
387,293,89850,1,0,0:0:0:0:
312,172,90150,1,8,0:0:0:0:
248,59,90450,1,8,0:0:0:0:
136,124,90750,2,0,L|159:168,1,50,8|0,0:0|0:0,0:0:0:0:
116,236,91050,2,0,L|92:191,1,50,8|8,0:0|0:0,0:0:0:0:
64,128,91350,5,12,0:1:0:0:
8,245,91650,1,0,0:0:0:0:
126,301,91950,1,8,0:0:0:0:
179,182,92250,1,0,0:0:0:0:
308,132,92550,1,8,0:0:0:0:
308,132,92850,1,8,0:0:0:0:
308,132,93150,2,0,L|355:146,1,50,8|0,0:0|0:0,0:0:0:0:
400,236,93450,2,0,L|352:221,1,50,8|8,0:0|0:0,0:0:0:0:
284,204,93750,6,0,B|228:232|228:232|240:304|184:356,1,200,12|8,0:1|0:0,0:0:0:0:
92,252,94650,1,0,0:0:0:0:
176,140,94950,2,0,B|219:77|292:79|292:79|312:19,1,200,8|8,0:0|0:0,0:0:0:0:
447,62,95850,2,0,L|471:114,1,50,8|8,0:0|0:0,0:0:0:0:
496,172,96150,5,2,0:1:0:0:
423,299,96450,1,0,0:0:0:0:
407,153,96750,1,8,0:0:0:0:
504,261,97050,1,0,0:0:0:0:
362,231,97350,2,0,L|262:251,1,100,8|8,0:0|0:0,0:0:0:0:
136,288,97950,1,8,0:0:0:0:
40,188,98250,1,8,0:0:0:0:
24,120,98400,1,8,0:0:0:0:
52,56,98550,6,0,P|151:61|245:29,1,200,12|0,0:1|0:3,0:0:0:0:
384,40,99450,1,0,0:0:0:0:
483,140,99750,2,0,P|394:179|300:151,1,200,2|8,0:0|0:0,0:0:0:0:
168,100,100650,1,0,0:0:0:0:
44,164,100950,6,0,B|84:208|84:208|40:272|68:340,1,200,2|8,0:0|0:0,0:0:0:0:
200,292,101850,1,0,0:0:0:0:
260,168,102150,2,0,P|300:196|327:238,1,100,8|8,0:0|0:0,0:0:0:0:
401,356,102750,2,0,L|441:320,1,50,8|0,0:0|0:0,0:0:0:0:
476,264,103050,2,0,L|500:196,1,50,8|8,0:0|0:0,0:0:0:0:
500,148,103350,6,0,L|458:57,1,100,12|0,0:1|0:0,0:0:0:0:
320,36,103950,2,0,L|361:126,1,100,8|0,0:0|0:0,0:0:0:0:
388,264,104550,2,0,B|324:252|324:252|292:316|218:328,1,200,10|8,0:0|0:0,0:0:0:0:
80,300,105450,2,0,L|69:251,1,50,8|8,0:0|0:0,0:0:0:0:
56,180,105750,6,0,P|48:130|21:89,2,100,12|0|8,0:1|0:0|0:0,0:0:0:0:
11,311,106650,2,0,P|37:353|83:370,1,100,8|8,0:0|0:0,0:0:0:0:
220,328,107250,2,0,L|261:299,1,50,8|0,0:0|0:0,0:0:0:0:
328,236,107550,2,0,L|333:286,1,50,8|0,0:0|0:0,0:0:0:0:
353,372,107850,2,0,L|307:350,1,50,8|8,0:0|0:0,0:0:0:0:
256,232,108150,6,0,L|276:116,1,100,6|0,0:1|0:0,0:0:0:0:
380,44,108750,1,10,0:1:0:0:
476,148,109050,1,10,0:1:0:0:
440,284,109350,2,0,B|344:328|344:328|249:334,1,200,10|10,0:0|0:1,0:0:0:0:
112,320,110250,1,2,0:1:0:0:
32,204,110550,6,0,B|8:120|8:120|58:19,1,200,10|2,0:0|0:1,0:0:0:0:
156,120,111450,2,0,L|172:167,1,50,2|2,0:1|0:1,0:0:0:0:
204,228,111750,2,0,P|232:280|300:312,1,100,2|2,0:1|0:1,0:0:0:0:
332,320,112200,1,2,0:1:0:0:
396,295,112350,2,0,P|431:261|477:242,1,100,2|2,0:1|0:1,0:0:0:0:
496,104,112950,5,2,0:1:0:0:
364,56,113250,1,2,0:1:0:0:
448,168,113550,1,2,0:1:0:0:
444,28,113850,2,0,L|428:88,1,50,2|2,0:1|0:1,0:0:0:0:
384,128,114150,1,2,0:1:0:0:
256,184,114450,1,2,0:1:0:0:
388,224,114750,1,2,0:1:0:0:
300,116,115050,2,0,L|274:73,1,50,2|2,0:1|0:1,0:0:0:0:
211,35,115350,6,0,P|125:50|74:122,1,179.999994506836,2|2,0:0|0:0,0:0:0:0:
56,292,116550,2,0,L|56:342,1,50,10|0,0:1|0:0,0:0:0:0:
132,308,116850,2,0,L|132:258,1,50,10|0,0:1|0:0,0:0:0:0:
132,188,117150,1,8,0:0:0:0:
220,84,117450,1,8,0:0:0:0:
288,64,117600,1,8,0:0:0:0:
360,63,117750,6,0,P|409:72|453:95,1,100,12|0,0:1|0:0,0:0:0:0:
460,244,118350,2,0,P|411:235|367:212,1,100,8|0,0:0|0:0,0:0:0:0:
228,156,118950,2,0,P|212:203|215:252,1,100,10|0,0:0|0:0,0:0:0:0:
312,368,119550,2,0,P|327:320|324:271,1,100,8|8,0:0|0:0,0:0:0:0:
280,210,120000,1,8,0:0:0:0:
227,155,120150,6,0,P|139:112|43:130,1,200,12|8,0:1|0:0,0:0:0:0:
8,276,121050,1,0,0:0:0:0:
140,344,121350,1,8,0:0:0:0:
288,348,121650,1,8,0:0:0:0:
222,214,121950,1,8,0:0:0:0:
88,280,122250,2,0,L|76:231,1,50,8|8,0:0|0:0,0:0:0:0:
136,168,122550,6,0,L|160:265,1,100,12|0,0:1|0:0,0:0:0:0:
300,208,123150,2,0,P|282:162|239:137,1,100,8|0,0:0|0:0,0:0:0:0:
276,284,123750,2,0,P|325:284|365:256,1,100,10|0,0:0|0:0,0:0:0:0:
220,223,124350,2,0,P|197:268|201:317,1,100,8|0,0:0|0:0,0:0:0:0:
352,308,124950,5,10,0:0:0:0:
488,232,125250,1,0,0:0:0:0:
353,154,125550,1,8,0:0:0:0:
442,309,125850,1,8,0:0:0:0:
443,154,126150,1,8,0:0:0:0:
307,231,126450,1,10,0:0:0:0:
488,232,126750,2,0,L|473:184,1,50,8|0,0:0|0:0,0:0:0:0:
444,112,127050,2,0,L|429:64,1,50,8|8,0:0|0:0,0:0:0:0:
356,44,127350,6,0,P|308:57|272:91,1,100,12|0,0:1|0:0,0:0:0:0:
260,239,127950,2,0,P|307:225|343:191,1,100,8|0,0:0|0:0,0:0:0:0:
207,127,128550,2,0,P|162:108|112:109,1,100,10|0,0:0|0:0,0:0:0:0:
16,224,129150,2,0,P|61:243|111:242,1,100,8|8,0:0|0:0,0:0:0:0:
186,240,129600,1,8,0:0:0:0:
260,239,129750,5,8,0:0:0:0:
260,239,130350,2,0,L|260:360,2,100,8|0|8,0:0|0:0|0:0,0:0:0:0:
260,88,131250,1,8,0:0:0:0:
388,164,131550,1,8,0:0:0:0:
236,164,131850,1,8,0:0:0:0:
160,172,132000,1,8,0:0:0:0:
88,156,132150,6,0,P|51:122|30:77,1,100,12|0,0:1|0:0,0:0:0:0:
176,47,132750,2,0,P|223:32|273:29,1,100,8|0,0:0|0:0,0:0:0:0:
400,108,133350,2,0,P|392:157|394:207,1,100,10|0,0:0|0:0,0:0:0:0:
356,352,133950,2,0,P|310:332|260:331,1,100,8|0,0:0|0:0,0:0:0:0:
112,320,134550,5,2,0:0:0:0:
16,204,134850,1,0,0:0:0:0:
136,112,135150,1,8,0:0:0:0:
240,220,135450,1,0,0:0:0:0:
92,216,135750,1,2,0:0:0:0:
76,68,136050,1,8,0:0:0:0:
76,68,136350,1,4,0:0:0:0:
184,160,136650,1,8,0:0:0:0:
184,160,136800,1,8,0:0:0:0:
184,160,136950,5,12,0:0:0:0:
16,320,146550,5,6,0:1:0:0:
16,320,147150,1,2,0:1:0:0:
116,224,147450,1,0,0:0:0:0:
220,320,147750,1,2,0:1:0:0:
324,224,148050,1,0,0:0:0:0:
420,328,148350,2,0,P|449:289|464:241,1,100,2|0,0:1|0:0,0:0:0:0:
463,99,148950,6,0,P|367:88|291:150,1,200,6|2,0:1|0:1,0:0:0:0:
128,280,150000,1,2,0:1:0:0:
128,280,150150,2,0,L|94:185,1,100,2|0,0:1|0:0,0:0:0:0:
128,48,150750,2,0,L|161:142,1,100,2|2,0:1|0:1,0:0:0:0:
188,208,151200,1,2,0:1:0:0:
216,272,151350,6,0,B|240:320|240:320|280:342,1,100,2|2,0:1|0:1,0:0:0:0:
420,336,151950,2,0,L|440:290,1,50,2|0,0:1|0:0,0:0:0:0:
468,224,152250,2,0,L|488:178,1,50,2|0,0:1|0:0,0:0:0:0:
488,108,152550,2,0,L|443:85,1,50,2|0,0:1|0:0,0:0:0:0:
384,51,152850,2,0,P|336:65|286:68,1,100,2|2,0:1|0:1,0:0:0:0:
148,44,153450,1,2,0:1:0:0:
148,44,153600,1,2,0:1:0:0:
148,44,153750,5,6,0:1:0:0:
40,136,154050,1,2,0:1:0:0:
50,206,154200,1,2,0:0:0:0:
60,276,154350,2,0,L|60:344,3,50,2|2|2|2,0:0|0:0|0:0|0:0,0:0:0:0:
132,327,154950,2,0,P|199:297|274:299,1,150,2|2,0:0|0:0,0:0:0:0:
341,320,155550,2,0,L|386:339,3,50,2|2|2|2,0:0|0:0|0:0|0:0,0:0:0:0:
456,355,156150,6,0,P|479:312|494:264,1,100,12|0,0:1|0:0,0:0:0:0:
348,224,156750,1,10,0:1:0:0:
224,292,157050,1,2,0:1:0:0:
152,172,157350,1,10,0:1:0:0:
272,100,157650,1,2,0:1:0:0:
276,240,157950,1,10,0:1:0:0:
204,120,158250,1,2,0:1:0:0:
204,120,158400,1,2,0:1:0:0:
204,120,158550,6,0,P|113:112|87:201,1,200,14|8,0:1|0:0,0:0:0:0:
87,202,159600,1,2,0:1:0:0:
87,202,159750,2,0,L|108:300,1,100,10|8,0:1|0:0,0:0:0:0:
244,328,160350,2,0,L|233:279,1,50,8|8,0:0|0:0,0:0:0:0:
216,208,160650,1,8,0:0:0:0:
200,136,160800,1,8,0:0:0:0:
184,64,160950,6,0,P|136:49|86:50,1,100,12|0,0:1|0:0,0:0:0:0:
20,184,161550,2,0,L|8:232,1,50,8|0,0:0|0:0,0:0:0:0:
68,276,161850,2,0,L|80:228,1,50,8|0,0:0|0:0,0:0:0:0:
140,276,162150,2,0,L|128:324,1,50,8|0,0:0|0:0,0:0:0:0:
188,372,162450,2,0,L|200:324,1,50,8|0,0:0|0:0,0:0:0:0:
264,368,162750,2,0,P|313:355|363:357,1,100,8|8,0:0|0:0,0:0:0:0:
436,352,163200,1,8,0:0:0:0:
483,296,163350,6,0,P|487:246|481:196,1,100,10|0,0:0|0:0,0:0:0:0:
424,68,163950,2,0,P|374:64|324:70,1,100,8|8,0:0|0:0,0:0:0:0:
256,80,164400,1,8,0:0:0:0:
188,100,164550,2,0,L|141:119,3,50,10|2|10|0,0:1|0:1|0:1|0:0,0:0:0:0:
100,176,165150,2,0,L|76:220,1,50,8|0,0:0|0:0,0:0:0:0:
120,292,165450,2,0,L|144:248,1,50,8|8,0:0|0:0,0:0:0:0:
176,184,165750,5,4,0:0:0:0:
176,184,166350,1,8,0:0:0:0:
264,296,166650,1,0,0:0:0:0:
319,168,166950,2,0,P|367:153|417:151,1,100,8|8,0:0|0:0,0:0:0:0:
488,272,167550,1,8,0:0:0:0:
384,364,167850,1,8,0:0:0:0:
328,324,168000,1,8,0:0:0:0:
264,296,168150,6,0,P|215:288|167:302,1,100,12|0,0:1|0:0,0:0:0:0:
28,292,168750,2,0,P|39:243|70:205,1,100,8|8,0:0|0:0,0:0:0:0:
124,160,169200,1,10,0:1:0:0:
184,128,169350,1,10,0:1:0:0:
292,40,169650,1,8,0:0:0:0:
292,180,169950,1,8,0:0:0:0:
288,320,170250,1,8,0:0:0:0:
288,320,170400,1,8,0:0:0:0:
288,319,170550,6,0,P|336:308|386:307,1,100,12|0,0:1|0:0,0:0:0:0:
488,212,171150,2,0,L|491:162,1,50,8|0,0:0|0:0,0:0:0:0:
420,164,171450,2,0,L|423:114,1,50,8|0,0:0|0:0,0:0:0:0:
351,107,171750,2,0,P|261:68|162:75,1,200,8|8,0:0|0:0,0:0:0:0:
36,136,172650,1,8,0:0:0:0:
52,204,172800,1,8,0:0:0:0:
59,272,172950,6,0,P|39:317|28:366,1,100,8|8,0:0|0:0,0:0:0:0:
168,344,173550,1,8,0:0:0:0:
236,324,173700,1,8,0:0:0:0:
292,280,173850,1,8,0:0:0:0:
380,172,174150,1,8,0:0:0:0:
443,204,174300,1,8,0:0:0:0:
480,264,174450,1,8,0:0:0:0:
368,344,174750,1,8,0:0:0:0:
300,352,174900,1,8,0:0:0:0:
236,323,175050,1,10,0:1:0:0:
202,261,175200,1,10,0:1:0:0:
196,192,175350,6,0,L|196:92,1,100,6|0,0:1|0:0,0:0:0:0:
60,64,175950,2,0,L|60:164,1,100,2|0,0:0|0:0,0:0:0:0:
52,304,176550,2,0,P|99:291|147:305,1,100,2|0,0:0|0:0,0:0:0:0:
284,336,177150,2,0,P|331:348|379:334,1,100,2|0,0:0|0:0,0:0:0:0:
452,216,177750,6,0,B|480:164|448:76|467:17,2,200,6|2|2,0:1|0:0|0:1,0:0:0:0:
452,216,179550,1,2,0:0:0:0:
324,268,179850,1,0,0:0:0:0:
200,204,180150,6,0,P|171:163|159:115,1,100,4|0,0:1|0:0,0:0:0:0:
300,100,180750,2,0,P|328:140|340:188,1,100,2|0,0:0|0:0,0:0:0:0:
228,270,181350,2,0,P|178:272|139:243,1,100,2|0,0:0|0:0,0:0:0:0:
112,108,181950,2,0,P|161:106|200:135,1,100,2|0,0:0|0:0,0:0:0:0:
228,271,182550,6,0,B|284:304|364:256|424:279,1,200,6|8,0:1|0:0,0:0:0:0:
452,140,184050,1,8,0:0:0:0:
424,76,184200,1,8,0:0:0:0:
364,44,184350,2,0,L|315:33,1,50,8|0,0:0|0:0,0:0:0:0:
251,93,184650,2,0,L|300:104,1,50,8|8,0:0|0:0,0:0:0:0:
359,148,184950,6,0,P|330:187|310:233,1,100,6|0,0:1|0:0,0:0:0:0:
220,344,185550,2,0,P|200:298|170:258,1,100
36,220,186150,2,0,L|22:120,1,100,10|0,0:0|0:0,0:0:0:0:
148,64,186750,2,0,L|247:69,1,100,8|8,0:0|0:0,0:0:0:0:
320,72,187200,1,8,0:0:0:0:
387,95,187350,6,0,P|421:132|445:176,1,100,14|0,0:1|0:0,0:0:0:0:
392,308,187950,2,0,P|358:271|334:227,1,100
252,104,188550,1,10,0:0:0:0:
208,236,188850,1,8,0:0:0:0:
76,184,189150,1,8,0:0:0:0:
116,48,189450,1,8,0:0:0:0:
116,48,189600,1,8,0:0:0:0:
116,48,189750,6,0,L|140:160,1,100,6|0,0:1|0:0,0:0:0:0:
271,184,190350,2,0,P|320:172|369:176,1,100,10|0,0:0|0:0,0:0:0:0:
432,304,190950,2,0,P|383:315|334:311,1,100,8|0,0:0|0:0,0:0:0:0:
212,240,191550,2,0,P|192:194|200:145,1,100,8|0,0:0|0:0,0:0:0:0:
296,44,192150,6,0,P|342:28|392:33,1,100,2|0,0:0|0:0,0:0:0:0:
456,160,192750,2,0,P|409:175|359:170,1,100,2|0,0:0|0:0,0:0:0:0:
240,96,193350,2,0,L|192:80,1,50,2|2,0:1|0:0,0:0:0:0:
124,60,193650,2,0,L|106:106,1,50,2|2,0:0|0:0,0:0:0:0:
100,176,193950,1,8,0:0:0:0:
112,244,194100,1,8,0:0:0:0:
160,292,194250,1,8,0:0:0:0:
228,308,194400,1,8,0:0:0:0:
295,288,194550,6,0,P|343:273|393:272,1,100,12|0,0:1|0:0,0:0:0:0:
488,156,195150,2,0,P|472:108|471:58,1,100,10|0,0:0|0:0,0:0:0:0:
320,44,195750,2,0,P|270:48|221:38,1,100,8|0,0:0|0:0,0:0:0:0:
72,68,196350,2,0,L|75:167,1,100,10|8,0:0|0:0,0:0:0:0:
80,244,196800,1,8,0:0:0:0:
88,319,196950,6,0,P|187:314|278:353,1,200,12|8,0:1|0:0,0:0:0:0:
412,368,197850,1,8,0:0:0:0:
460,243,198150,1,8,0:0:0:0:
448,96,198450,1,8,0:0:0:0:
324,184,198750,1,8,0:0:0:0:
472,168,199050,1,8,0:0:0:0:
472,168,199200,1,8,0:0:0:0:
472,168,199350,6,0,P|424:177|392:214,1,100,12|0,0:1|0:0,0:0:0:0:
288,324,199950,1,10,0:0:0:0:
144,276,200250,1,0,0:0:0:0:
232,153,200550,2,0,P|282:157|324:184,1,100,8|0,0:0|0:0,0:0:0:0:
364,328,201150,1,8,0:0:0:0:
216,348,201450,1,0,0:0:0:0:
168,204,201750,6,0,P|144:161|99:144,1,100,10|0,0:0|0:0,0:0:0:0:
16,272,202350,2,0,P|39:314|84:331,1,100,8|0,0:0|0:0,0:0:0:0:
168,204,202950,1,10,0:0:0:0:
196,56,203250,1,8,0:0:0:0:
260,192,203550,2,0,L|285:234,1,50,8|0,0:0|0:0,0:0:0:0:
324,300,203850,2,0,L|349:342,1,50,8|8,0:0|0:0,0:0:0:0:
423,352,204150,6,0,P|456:314|479:270,1,100,12|0,0:1|0:0,0:0:0:0:
484,119,204750,2,0,P|434:121|385:109,1,100,8|0,0:0|0:0,0:0:0:0:
260,192,205350,2,0,P|247:241|219:281,1,100,10|0,0:0|0:0,0:0:0:0:
80,340,205950,2,0,P|60:294|52:244,1,100,8|8,0:0|0:0,0:0:0:0:
48,170,206400,1,8,0:0:0:0:
64,96,206550,6,0,P|112:84|162:82,1,100,12|0,0:1|0:0,0:0:0:0:
308,120,207150,1,8,0:0:0:0:
308,120,207450,1,8,0:0:0:0:
308,120,207750,2,0,L|322:218,1,100,8|8,0:0|0:0,0:0:0:0:
416,336,208350,1,8,0:0:0:0:
468,196,208650,1,8,0:0:0:0:
392,196,208800,1,8,0:0:0:0:
322,218,208950,6,0,P|274:234|236:266,1,100,12|0,0:1|0:0,0:0:0:0:
112,348,209550,1,8,0:0:0:0:
20,228,209850,1,0,0:0:0:0:
68,84,210150,2,0,P|110:109|135:152,1,100,10|0,0:0|0:0,0:0:0:0:
200,287,210750,2,0,P|291:249|390:252,1,200,8|2,0:0|0:0,0:0:0:0:
448,112,211650,5,0,0:0:0:0:
319,36,211950,2,0,P|274:55|224:63,1,100,8|0,0:0|0:0,0:0:0:0:
100,148,212550,2,0,P|104:197|102:247,1,100,8|8,0:0|0:0,0:0:0:0:
76,320,213000,1,8,0:0:0:0:
139,360,213150,2,0,L|208:356,1,50,8|0,0:0|0:0,0:0:0:0:
228,292,213450,2,0,L|277:288,1,50,8|8,0:0|0:0,0:0:0:0:
352,280,213750,5,12,0:1:0:0:
248,52,223350,6,0,L|223:148,1,100,12|0,0:1|0:0,0:0:0:0:
156,284,223950,1,8,0:0:0:0:
24,216,224250,1,8,0:0:0:0:
175,206,224550,2,0,P|214:236|233:281,1,100,8|0,0:0|0:0,0:0:0:0:
92,332,225150,2,0,P|79:283|92:235,1,100,8|0,0:0|0:0,0:0:0:0:
113,164,225600,1,8,0:0:0:0:
171,116,225750,6,0,P|219:100|269:94,1,100,12|0,0:1|0:0,0:0:0:0:
412,148,226350,1,8,0:0:0:0:
476,284,226650,1,0,0:0:0:0:
456,140,226950,1,8,0:0:0:0:
428,288,227250,1,8,0:0:0:0:
428,288,227550,2,0,L|360:248,1,50,8|8,0:0|0:0,0:0:0:0:
320,224,227850,1,8,0:0:0:0:
246,235,228000,1,8,0:0:0:0:
171,227,228150,6,0,P|121:218|76:197,1,100,12|0,0:1|0:0,0:0:0:0:
32,56,228750,2,0,P|81:64|126:85,1,100,8|0,0:0|0:0,0:0:0:0:
171,227,229350,1,8,0:0:0:0:
260,348,229650,1,8,0:0:0:0:
260,348,229950,1,8,0:0:0:0:
352,227,230250,2,0,L|367:179,1,50,8|8,0:0|0:0,0:0:0:0:
392,108,230550,5,12,0:1:0:0:
260,36,230850,1,0,0:0:0:0:
204,176,231150,2,0,L|160:288,2,100,8|0|8,0:0|0:0|0:0,0:0:0:0:
320,84,232050,1,0,0:0:0:0:
352,228,232350,1,8,0:1:0:0:
256,192,232500,12,0,234750,0:0:0:0:
