osu file format v9

[General]
AudioFilename: HEAVEN IS A PLACE ON EARTH (German Election Mix).mp3
AudioLeadIn: 496
PreviewTime: 13720
Countdown: 0
SampleSet: Normal
StackLeniency: 0.7
Mode: 0
LetterboxInBreaks: 1

[Editor]
DistanceSpacing: 0.8
BeatDivisor: 4
GridSize: 8

[Metadata]
Title:HEAVEN IS A PLACE ON EARTH (German Election Mix)
Artist:JULIA
Creator:Leorda
Version:Earth
Source:Dance Dance Revolution STRIKE
Tags:dancing stage ddr supernova konami wmfchris

[Difficulty]
HPDrainRate:6
CircleSize:4
OverallDifficulty:6
ApproachRate:6
SliderMultiplier:1.2
SliderTickRate:1

[Events]
//Background and Video events
0,0,"Rukia.jpg"
//Break Periods
//Storyboard Layer 0 (Background)
//Storyboard Layer 1 (Fail)
//Storyboard Layer 2 (Pass)
//Storyboard Layer 3 (Foreground)
//Storyboard Sound Samples
//Background Colour Transformations
3,100,163,162,255

[TimingPoints]
90,425.531914893617,4,2,0,100,1,0
23818,-100,4,1,0,50,0,0
27327,-100,4,1,0,70,0,0
56263,-100,4,1,0,70,0,1
69882,-100,4,1,0,70,0,0

[Colours]
Combo1 : 255,128,128
Combo2 : 128,255,128
Combo3 : 255,255,0
Combo4 : 128,128,255

[HitObjects]
176,48,13707,2,0,B|96:48|96:128,1,120,0|8
64,200,14558,1,0
72,248,14770,1,0
104,280,14983,1,8
152,288,15196,1,0
200,280,15409,1,0
232,248,15621,1,0
248,200,15834,1,8
248,104,16260,1,0
320,40,16685,1,8
416,56,17111,6,0,B|416:136,1,60
416,168,17536,2,0,B|368:232,1,60,8|0
344,248,17962,2,0,B|264:248,1,60
235,248,18387,2,0,B|176:208,1,60,8|0
160,176,18813,1,0
240,128,19238,1,8
328,120,19664,1,0
408,176,20089,1,8
464,256,20515,5,0
424,280,20728,1,0
376,280,20941,1,8
288,288,21366,1,0
192,280,21792,1,8
104,248,22217,2,0,B|32:216|56:128,3,120,0|8|0|8
112,72,23919,5,0
80,104,24132,1,0
64,152,24345,1,8
80,200,24558,1,0
112,232,24770,1,0
160,240,24983,1,0
208,224,25196,1,8
240,192,25409,1,0
240,144,25621,5,0
224,96,25834,1,0
176,80,26047,1,8
136,104,26260,1,0
120,152,26472,1,0
136,200,26685,1,0
176,224,26898,1,8
224,208,27111,1,0
256,192,27324,12,0,29026
216,88,29451,6,0,B|216:168,3,60
167,148,30302,1,8
119,164,30515,1,0
103,212,30728,1,0
170,279,31153,1,8
266,279,31579,2,0,B|344:280,1,60
368,256,32004,2,0,B|408:208,1,60,8|0
406,161,32430,6,0,B|408:72|320:72,3,120,0|8|0|8
246,73,34132,1,0
160,120,34558,1,8
160,216,34983,1,0
184,256,35196,1,8
224,280,35409,1,0
272,288,35621,1,8
320,280,35834,5,0
387,212,36260,1,8
387,116,36685,1,0
319,48,37111,1,8
223,48,37536,1,0
155,115,37962,1,8
152,208,38387,1,0
222,277,38813,1,8
317,277,39238,6,0,B|456:277,1,120,0|8
437,180,40089,2,0,B|437:50,1,120,0|8
256,192,40941,12,4,42643
256,80,43068,5,8
256,271,43919,1,8
429,189,44770,1,8
332,189,45196,1,0
283,189,45409,1,0
235,189,45621,1,8
186,189,45834,1,0
137,189,46047,6,0,B|136:112|48:112,1,120,0|8
130,44,46898,2,0,B|263:44,1,120,0|8
346,44,47749,2,0,B|344:120|424:120,1,120,0|8
418,216,48600,1,0
402,261,48813,1,0
368,294,49026,1,8
320,312,49238,1,0
271,312,49451,6,0,B|272:232|192:232,3,120,0|8|0|8
105,232,51153,2,0,B|104:160|192:160,3,120,0|8|0|8
278,160,52855,5,0
374,160,53281,1,8
470,160,53707,1,0
470,112,53919,1,0
470,63,54132,1,8
256,192,54558,12,4,56260
72,144,56685,6,0,B|72:72|160:72,1,120,8|0
198,72,57324,1,0
245,72,57536,1,8
293,72,57749,1,0
341,72,57962,5,0
341,167,58387,1,8
341,263,58813,1,0
341,358,59238,1,8
244,358,59664,6,0,B|160:360|160:272,1,120,0|8
161,194,60515,2,0,B|240:192|240:280,1,120,0|8
335,265,61366,1,0
431,265,61792,1,8
431,169,62217,1,0
382,169,62430,1,0
333,169,62643,1,8
285,169,62855,1,0
236,169,63068,6,0,B|152:168|152:88,3,120,0|8|0|8
112,192,64770,2,0,B|32:195|32:272,3,120,0|8|0|8
26,356,66472,5,0
122,356,66898,1,8
218,356,67324,1,0
313,356,67749,1,8
256,192,68175,12,4,69877
