osu file format v14

[General]
AudioFilename: Tytt tykk.mp3
AudioLeadIn: 0
PreviewTime: 20414
Countdown: 0
SampleSet: Normal
StackLeniency: 0.7
Mode: 3
LetterboxInBreaks: 0
SpecialStyle: 0
WidescreenStoryboard: 0

[Editor]
DistanceSpacing: 0.8
BeatDivisor: 16
GridSize: 8
TimelineZoom: 2.999999

[Metadata]
Title:JS666 EI TYKKAA
TitleUnicode:JS666 EI TYKKAA
Artist:JS666
ArtistUnicode:JS666
Creator:Spidu
Version:SPIDU TYKKAA [4K]
Source:
Tags:js666
BeatmapID:464509
BeatmapSetID:195811

[Difficulty]
HPDrainRate:9
CircleSize:4
OverallDifficulty:5
ApproachRate:5
SliderMultiplier:1.4
SliderTickRate:1

[Events]
//Background and Video events
0,0,"js666.png",0,0
//Break Periods
//Storyboard Layer 0 (Background)
//Storyboard Layer 1 (Fail)
//Storyboard Layer 2 (Pass)
//Storyboard Layer 3 (Foreground)
//Storyboard Sound Samples

[TimingPoints]
0,320,4,1,0,75,1,0

[HitObjects]
64,192,0,5,0,0:0:0:0:
320,192,0,1,0,0:0:0:0:
320,192,160,5,0,0:0:0:0:
448,192,160,1,0,0:0:0:0:
192,192,160,1,0,0:0:0:0:
448,192,480,1,0,0:0:0:0:
320,192,480,1,0,0:0:0:0:
320,192,640,1,0,0:0:0:0:
192,192,640,1,0,0:0:0:0:
64,192,640,1,0,0:0:0:0:
192,192,960,1,0,0:0:0:0:
448,192,960,1,0,0:0:0:0:
64,192,960,1,0,0:0:0:0:
192,192,1120,1,0,0:0:0:0:
320,192,1120,1,0,0:0:0:0:
448,192,1120,1,0,0:0:0:0:
448,192,1280,1,0,0:0:0:0:
192,192,1280,1,0,0:0:0:0:
192,192,1440,1,0,0:0:0:0:
320,192,1440,1,0,0:0:0:0:
64,192,1440,1,0,0:0:0:0:
192,192,1760,1,0,0:0:0:0:
64,192,1760,1,0,0:0:0:0:
320,192,1920,1,0,0:0:0:0:
64,192,1920,1,0,0:0:0:0:
192,192,1920,1,0,0:0:0:0:
64,192,2240,1,0,0:0:0:0:
320,192,2240,1,0,0:0:0:0:
448,192,2240,1,0,0:0:0:0:
320,192,2400,1,0,0:0:0:0:
192,192,2400,1,0,0:0:0:0:
448,192,2400,128,0,5140:0:0:0:0:
64,192,2400,128,0,3860:0:0:0:0:
192,192,3860,1,0,0:0:0:0:
320,192,3860,1,0,0:0:0:0:
64,192,4820,1,0,0:0:0:0:
192,192,4820,1,0,0:0:0:0:
64,192,4900,1,0,0:0:0:0:
192,192,4900,1,0,0:0:0:0:
64,192,4980,1,0,0:0:0:0:
192,192,4980,1,0,0:0:0:0:
64,192,5060,1,0,0:0:0:0:
192,192,5060,1,0,0:0:0:0:
64,192,5140,1,0,0:0:0:0:
192,192,5140,1,0,0:0:0:0:
320,192,5300,1,0,0:0:0:0:
448,192,5300,1,0,0:0:0:0:
192,192,5620,1,0,0:0:0:0:
320,192,5620,1,0,0:0:0:0:
64,192,5620,1,0,0:0:0:0:
192,192,5780,1,0,0:0:0:0:
320,192,5780,1,0,0:0:0:0:
192,192,6100,1,0,0:0:0:0:
448,192,6100,1,0,0:0:0:0:
64,192,6100,1,0,0:0:0:0:
192,192,6260,1,0,0:0:0:0:
320,192,6260,1,0,0:0:0:0:
64,192,6420,1,0,0:0:0:0:
192,192,6420,1,0,0:0:0:0:
320,192,6420,1,0,0:0:0:0:
192,192,6580,1,0,0:0:0:0:
448,192,6580,1,0,0:0:0:0:
192,192,6900,1,0,0:0:0:0:
320,192,6900,1,0,0:0:0:0:
448,192,6900,1,0,0:0:0:0:
64,192,7060,1,0,0:0:0:0:
320,192,7060,1,0,0:0:0:0:
64,192,7380,1,0,0:0:0:0:
192,192,7380,1,0,0:0:0:0:
448,192,7380,1,0,0:0:0:0:
192,192,7540,1,0,0:0:0:0:
320,192,7540,1,0,0:0:0:0:
448,192,7540,1,0,0:0:0:0:
64,192,7700,1,0,0:0:0:0:
192,192,7700,1,0,0:0:0:0:
320,192,7700,1,0,0:0:0:0:
448,192,7700,1,0,0:0:0:0:
64,192,7860,1,0,0:0:0:0:
192,192,7860,1,0,0:0:0:0:
320,192,7860,1,0,0:0:0:0:
448,192,7860,1,0,0:0:0:0:
64,192,8020,1,0,0:0:0:0:
192,192,8020,1,0,0:0:0:0:
320,192,8020,1,0,0:0:0:0:
448,192,8020,1,0,0:0:0:0:
64,192,8180,1,0,0:0:0:0:
192,192,8180,1,0,0:0:0:0:
320,192,8180,1,0,0:0:0:0:
448,192,8180,1,0,0:0:0:0:
64,192,8340,1,0,0:0:0:0:
192,192,8340,1,0,0:0:0:0:
320,192,8340,1,0,0:0:0:0:
448,192,8340,1,0,0:0:0:0:
64,192,8500,1,0,0:0:0:0:
192,192,8500,1,0,0:0:0:0:
320,192,8500,1,0,0:0:0:0:
448,192,8500,1,0,0:0:0:0:
64,192,8660,1,0,0:0:0:0:
192,192,8660,1,0,0:0:0:0:
320,192,8660,1,0,0:0:0:0:
448,192,8660,1,0,0:0:0:0:
64,192,8820,1,0,0:0:0:0:
192,192,8820,1,0,0:0:0:0:
320,192,8820,1,0,0:0:0:0:
448,192,8820,1,0,0:0:0:0:
64,192,8980,1,0,0:0:0:0:
192,192,8980,1,0,0:0:0:0:
320,192,8980,1,0,0:0:0:0:
448,192,8980,1,0,0:0:0:0:
64,192,9140,1,0,0:0:0:0:
192,192,9140,1,0,0:0:0:0:
320,192,9140,1,0,0:0:0:0:
448,192,9140,1,0,0:0:0:0:
64,192,9300,1,0,0:0:0:0:
192,192,9300,1,0,0:0:0:0:
320,192,9300,1,0,0:0:0:0:
448,192,9300,1,0,0:0:0:0:
64,192,9460,1,0,0:0:0:0:
192,192,9460,1,0,0:0:0:0:
320,192,9460,1,0,0:0:0:0:
448,192,9460,1,0,0:0:0:0:
64,192,9620,1,0,0:0:0:0:
192,192,9620,1,0,0:0:0:0:
320,192,9620,1,0,0:0:0:0:
448,192,9620,1,0,0:0:0:0:
64,192,9780,1,0,0:0:0:0:
192,192,9780,1,0,0:0:0:0:
320,192,9780,1,0,0:0:0:0:
448,192,9780,1,0,0:0:0:0:
64,192,9940,1,0,0:0:0:0:
192,192,9940,1,0,0:0:0:0:
320,192,9940,1,0,0:0:0:0:
448,192,9940,1,0,0:0:0:0:
64,192,10100,1,0,0:0:0:0:
192,192,10100,1,0,0:0:0:0:
320,192,10100,1,0,0:0:0:0:
448,192,10100,1,0,0:0:0:0:
64,192,10260,1,0,0:0:0:0:
192,192,10260,1,0,0:0:0:0:
320,192,10260,1,0,0:0:0:0:
448,192,10260,1,0,0:0:0:0:
64,192,10420,1,0,0:0:0:0:
448,192,10420,1,0,0:0:0:0:
64,192,10580,1,0,0:0:0:0:
320,192,10580,1,0,0:0:0:0:
192,192,10580,1,0,0:0:0:0:
192,192,10740,1,0,0:0:0:0:
448,192,10740,1,0,0:0:0:0:
320,192,10900,1,0,0:0:0:0:
64,192,10900,1,0,0:0:0:0:
448,192,10900,1,0,0:0:0:0:
448,192,11060,1,0,0:0:0:0:
64,192,11060,1,0,0:0:0:0:
320,192,11220,1,0,0:0:0:0:
64,192,11220,1,0,0:0:0:0:
192,192,11220,1,0,0:0:0:0:
448,192,11220,1,0,0:0:0:0:
64,192,11380,1,0,0:0:0:0:
320,192,11380,1,0,0:0:0:0:
448,192,11380,1,0,0:0:0:0:
64,192,11540,1,0,0:0:0:0:
192,192,11540,1,0,0:0:0:0:
320,192,11540,1,0,0:0:0:0:
64,192,11700,1,0,0:0:0:0:
448,192,11700,1,0,0:0:0:0:
64,192,11860,1,0,0:0:0:0:
320,192,11860,1,0,0:0:0:0:
448,192,11860,1,0,0:0:0:0:
192,192,12020,1,0,0:0:0:0:
448,192,12020,1,0,0:0:0:0:
64,192,12180,1,0,0:0:0:0:
320,192,12180,1,0,0:0:0:0:
448,192,12180,1,0,0:0:0:0:
64,192,12340,1,0,0:0:0:0:
320,192,12340,1,0,0:0:0:0:
192,192,12340,1,0,0:0:0:0:
192,192,12520,1,0,0:0:0:0:
320,192,12520,1,0,0:0:0:0:
64,192,12520,1,0,0:0:0:0:
448,192,12520,1,0,0:0:0:0:
192,192,12680,1,0,0:0:0:0:
320,192,12680,1,0,0:0:0:0:
192,192,12840,1,0,0:0:0:0:
320,192,12840,1,0,0:0:0:0:
448,192,12840,1,0,0:0:0:0:
64,192,12840,1,0,0:0:0:0:
64,192,12980,1,0,0:0:0:0:
448,192,12980,1,0,0:0:0:0:
64,192,13140,1,0,0:0:0:0:
192,192,13140,1,0,0:0:0:0:
320,192,13140,1,0,0:0:0:0:
64,192,13300,1,0,0:0:0:0:
448,192,13300,1,0,0:0:0:0:
64,192,13460,1,0,0:0:0:0:
448,192,13460,1,0,0:0:0:0:
320,192,13460,1,0,0:0:0:0:
64,192,13620,1,0,0:0:0:0:
448,192,13620,1,0,0:0:0:0:
320,192,13780,1,0,0:0:0:0:
192,192,13780,1,0,0:0:0:0:
64,192,13780,1,0,0:0:0:0:
448,192,13780,1,0,0:0:0:0:
192,192,13920,1,0,0:0:0:0:
320,192,13920,1,0,0:0:0:0:
448,192,13920,1,0,0:0:0:0:
320,192,14100,1,0,0:0:0:0:
64,192,14100,1,0,0:0:0:0:
64,192,14260,1,0,0:0:0:0:
192,192,14260,1,0,0:0:0:0:
320,192,14260,1,0,0:0:0:0:
192,192,14420,1,0,0:0:0:0:
448,192,14420,1,0,0:0:0:0:
192,192,14580,1,0,0:0:0:0:
320,192,14580,1,0,0:0:0:0:
448,192,14580,1,0,0:0:0:0:
320,192,14740,1,0,0:0:0:0:
192,192,14740,1,0,0:0:0:0:
64,192,14900,1,0,0:0:0:0:
448,192,14900,1,0,0:0:0:0:
64,192,15060,1,0,0:0:0:0:
192,192,15060,1,0,0:0:0:0:
64,192,15140,1,0,0:0:0:0:
192,192,15140,1,0,0:0:0:0:
64,192,15220,1,0,0:0:0:0:
192,192,15220,1,0,0:0:0:0:
448,192,15220,1,0,0:0:0:0:
64,192,15300,1,0,0:0:0:0:
192,192,15300,1,0,0:0:0:0:
64,192,15380,1,0,0:0:0:0:
192,192,15380,1,0,0:0:0:0:
320,192,15380,1,0,0:0:0:0:
448,192,15540,1,0,0:0:0:0:
64,192,15540,1,0,0:0:0:0:
64,192,15700,1,0,0:0:0:0:
320,192,15700,1,0,0:0:0:0:
448,192,15700,1,0,0:0:0:0:
192,192,15860,1,0,0:0:0:0:
448,192,15860,1,0,0:0:0:0:
320,192,16020,1,0,0:0:0:0:
192,192,16020,1,0,0:0:0:0:
320,192,16180,1,0,0:0:0:0:
64,192,16180,1,0,0:0:0:0:
192,192,16180,1,0,0:0:0:0:
320,192,16340,1,0,0:0:0:0:
448,192,16340,1,0,0:0:0:0:
320,192,16440,1,0,0:0:0:0:
448,192,16440,1,0,0:0:0:0:
320,192,16560,1,0,0:0:0:0:
448,192,16560,1,0,0:0:0:0:
192,192,16560,1,0,0:0:0:0:
320,192,16660,1,0,0:0:0:0:
448,192,16660,1,0,0:0:0:0:
192,192,16660,1,0,0:0:0:0:
448,192,16820,1,0,0:0:0:0:
192,192,16820,1,0,0:0:0:0:
64,192,16980,1,0,0:0:0:0:
320,192,16980,1,0,0:0:0:0:
192,192,17120,1,0,0:0:0:0:
320,192,17120,1,0,0:0:0:0:
192,192,17280,1,0,0:0:0:0:
448,192,17280,1,0,0:0:0:0:
192,192,17440,1,0,0:0:0:0:
320,192,17440,1,0,0:0:0:0:
64,192,17620,1,0,0:0:0:0:
192,192,17620,1,0,0:0:0:0:
448,192,17620,1,0,0:0:0:0:
320,192,17760,1,0,0:0:0:0:
192,192,17760,1,0,0:0:0:0:
64,192,17940,1,0,0:0:0:0:
192,192,17940,1,0,0:0:0:0:
320,192,17940,1,0,0:0:0:0:
448,192,17940,1,0,0:0:0:0:
448,192,18080,1,0,0:0:0:0:
64,192,18240,1,0,0:0:0:0:
192,192,18240,1,0,0:0:0:0:
320,192,18240,1,0,0:0:0:0:
320,192,18400,1,0,0:0:0:0:
64,192,18580,1,0,0:0:0:0:
192,192,18580,1,0,0:0:0:0:
320,192,18580,1,0,0:0:0:0:
192,192,18720,1,0,0:0:0:0:
448,192,18720,1,0,0:0:0:0:
64,192,18880,1,0,0:0:0:0:
192,192,18880,1,0,0:0:0:0:
320,192,18880,1,0,0:0:0:0:
64,192,19040,1,0,0:0:0:0:
320,192,19040,1,0,0:0:0:0:
64,192,19220,1,0,0:0:0:0:
192,192,19220,1,0,0:0:0:0:
320,192,19300,1,0,0:0:0:0:
448,192,19300,1,0,0:0:0:0:
64,192,19380,1,0,0:0:0:0:
192,192,19380,1,0,0:0:0:0:
320,192,19460,1,0,0:0:0:0:
448,192,19460,1,0,0:0:0:0:
64,192,19540,1,0,0:0:0:0:
192,192,19540,1,0,0:0:0:0:
320,192,19620,1,0,0:0:0:0:
448,192,19620,1,0,0:0:0:0:
64,192,19700,1,0,0:0:0:0:
192,192,19700,1,0,0:0:0:0:
320,192,19780,1,0,0:0:0:0:
448,192,19780,1,0,0:0:0:0:
64,192,19860,1,0,0:0:0:0:
192,192,19860,1,0,0:0:0:0:
320,192,19920,1,0,0:0:0:0:
448,192,19920,1,0,0:0:0:0:
64,192,19980,1,0,0:0:0:0:
192,192,19980,1,0,0:0:0:0:
320,192,20040,1,0,0:0:0:0:
448,192,20040,1,0,0:0:0:0:
64,192,20100,1,0,0:0:0:0:
192,192,20100,1,0,0:0:0:0:
320,192,20160,1,0,0:0:0:0:
448,192,20160,1,0,0:0:0:0:
64,192,20220,1,0,0:0:0:0:
192,192,20240,1,0,0:0:0:0:
320,192,20260,1,0,0:0:0:0:
448,192,20280,1,0,0:0:0:0:
64,192,20300,1,0,0:0:0:0:
192,192,20320,1,0,0:0:0:0:
320,192,20340,1,0,0:0:0:0:
448,192,20360,1,0,0:0:0:0:
64,192,20380,1,0,0:0:0:0:
192,192,20400,1,0,0:0:0:0:
320,192,20420,1,0,0:0:0:0:
448,192,20440,1,0,0:0:0:0:
64,192,20460,1,0,0:0:0:0:
192,192,20480,1,0,0:0:0:0:
320,192,20500,1,0,0:0:0:0:
448,192,20520,1,0,0:0:0:0:
448,192,20760,1,0,0:0:0:0:
320,192,20780,1,0,0:0:0:0:
192,192,20800,1,0,0:0:0:0:
64,192,20820,1,0,0:0:0:0:
320,192,21100,1,0,0:0:0:0:
448,192,21120,1,0,0:0:0:0:
64,192,21140,1,0,0:0:0:0:
192,192,21160,1,0,0:0:0:0:
320,192,21180,1,0,0:0:0:0:
448,192,21200,1,0,0:0:0:0:
64,192,21220,1,0,0:0:0:0:
192,192,21240,1,0,0:0:0:0:
320,192,21260,1,0,0:0:0:0:
448,192,21280,1,0,0:0:0:0:
64,192,21300,1,0,0:0:0:0:
192,192,21320,1,0,0:0:0:0:
320,192,21340,1,0,0:0:0:0:
448,192,21360,1,0,0:0:0:0:
64,192,21380,1,0,0:0:0:0:
192,192,21400,1,0,0:0:0:0:
448,192,21420,1,0,0:0:0:0:
320,192,21440,1,0,0:0:0:0:
192,192,21460,1,0,0:0:0:0:
64,192,21480,1,0,0:0:0:0:
448,192,21500,1,0,0:0:0:0:
320,192,21520,1,0,0:0:0:0:
192,192,21540,1,0,0:0:0:0:
64,192,21560,1,0,0:0:0:0:
448,192,21580,1,0,0:0:0:0:
192,192,21600,1,0,0:0:0:0:
320,192,21620,1,0,0:0:0:0:
448,192,21640,1,0,0:0:0:0:
64,192,21660,1,0,0:0:0:0:
192,192,21680,1,0,0:0:0:0:
320,192,21700,1,0,0:0:0:0:
448,192,21720,1,0,0:0:0:0:
64,192,21740,1,0,0:0:0:0:
192,192,21760,1,0,0:0:0:0:
320,192,21780,1,0,0:0:0:0:
448,192,21800,1,0,0:0:0:0:
64,192,22060,1,0,0:0:0:0:
192,192,22080,1,0,0:0:0:0:
320,192,22100,128,0,23020:0:0:0:0:
448,192,22120,128,0,23020:0:0:0:0:
64,192,23020,1,0,0:0:0:0:
192,192,23020,1,0,0:0:0:0:
448,192,23100,1,0,0:0:0:0:
320,192,23180,1,0,0:0:0:0:
64,192,23180,1,0,0:0:0:0:
448,192,23260,1,0,0:0:0:0:
64,192,23340,1,0,0:0:0:0:
320,192,23340,1,0,0:0:0:0:
192,192,23340,1,0,0:0:0:0:
448,192,23420,1,0,0:0:0:0:
192,192,23500,1,0,0:0:0:0:
320,192,23500,1,0,0:0:0:0:
64,192,23580,1,0,0:0:0:0:
448,192,23660,1,0,0:0:0:0:
192,192,23660,1,0,0:0:0:0:
320,192,23660,1,0,0:0:0:0:
64,192,23740,1,0,0:0:0:0:
448,192,23820,1,0,0:0:0:0:
192,192,23820,1,0,0:0:0:0:
320,192,23900,1,0,0:0:0:0:
64,192,23980,1,0,0:0:0:0:
448,192,23980,1,0,0:0:0:0:
192,192,23980,1,0,0:0:0:0:
320,192,24060,1,0,0:0:0:0:
448,192,24140,1,0,0:0:0:0:
64,192,24140,1,0,0:0:0:0:
320,192,24220,1,0,0:0:0:0:
64,192,24300,1,0,0:0:0:0:
192,192,24300,1,0,0:0:0:0:
448,192,24300,1,0,0:0:0:0:
320,192,24380,1,0,0:0:0:0:
192,192,24460,1,0,0:0:0:0:
448,192,24460,1,0,0:0:0:0:
64,192,24540,1,0,0:0:0:0:
320,192,24620,1,0,0:0:0:0:
448,192,24620,1,0,0:0:0:0:
192,192,24620,1,0,0:0:0:0:
64,192,24700,1,0,0:0:0:0:
320,192,24780,1,0,0:0:0:0:
192,192,24780,1,0,0:0:0:0:
448,192,24860,1,0,0:0:0:0:
64,192,24940,1,0,0:0:0:0:
320,192,24940,1,0,0:0:0:0:
192,192,24940,1,0,0:0:0:0:
448,192,25020,1,0,0:0:0:0:
192,192,25100,1,0,0:0:0:0:
64,192,25100,1,0,0:0:0:0:
320,192,25180,1,0,0:0:0:0:
64,192,25260,1,0,0:0:0:0:
448,192,25260,1,0,0:0:0:0:
192,192,25260,1,0,0:0:0:0:
320,192,25340,1,0,0:0:0:0:
448,192,25420,1,0,0:0:0:0:
64,192,25500,1,0,0:0:0:0:
192,192,25580,1,0,0:0:0:0:
448,192,25580,1,0,0:0:0:0:
320,192,25580,1,0,0:0:0:0:
64,192,25660,1,0,0:0:0:0:
192,192,25740,1,0,0:0:0:0:
448,192,25820,1,0,0:0:0:0:
321,192,25900,1,0,0:0:0:0:
64,192,25900,1,0,0:0:0:0:
192,192,25900,1,0,0:0:0:0:
449,192,25980,1,0,0:0:0:0:
321,192,26060,1,0,0:0:0:0:
193,192,26140,1,0,0:0:0:0:
449,192,26220,1,0,0:0:0:0:
321,192,26220,1,0,0:0:0:0:
65,192,26220,1,0,0:0:0:0:
193,192,26300,1,0,0:0:0:0:
321,192,26380,1,0,0:0:0:0:
449,192,26460,1,0,0:0:0:0:
321,192,26540,1,0,0:0:0:0:
65,192,26540,1,0,0:0:0:0:
193,192,26540,1,0,0:0:0:0:
448,192,26620,1,0,0:0:0:0:
64,192,26700,1,0,0:0:0:0:
192,192,26740,1,0,0:0:0:0:
448,192,26780,1,0,0:0:0:0:
320,192,26820,1,0,0:0:0:0:
192,192,26860,1,0,0:0:0:0:
64,192,26860,1,0,0:0:0:0:
448,192,26860,1,0,0:0:0:0:
320,192,26940,1,0,0:0:0:0:
64,192,27020,1,0,0:0:0:0:
192,192,27020,1,0,0:0:0:0:
448,192,27100,1,0,0:0:0:0:
192,192,27180,1,0,0:0:0:0:
320,192,27180,1,0,0:0:0:0:
64,192,27180,1,0,0:0:0:0:
448,192,27260,1,0,0:0:0:0:
320,192,27340,1,0,0:0:0:0:
192,192,27420,1,0,0:0:0:0:
64,192,27500,1,0,0:0:0:0:
320,192,27500,1,0,0:0:0:0:
448,192,27500,1,0,0:0:0:0:
192,192,27580,1,0,0:0:0:0:
448,192,27660,1,0,0:0:0:0:
64,192,27660,1,0,0:0:0:0:
320,192,27700,1,0,0:0:0:0:
192,192,27740,1,0,0:0:0:0:
64,192,27780,1,0,0:0:0:0:
320,192,27820,1,0,0:0:0:0:
448,192,27820,1,0,0:0:0:0:
192,192,27820,1,0,0:0:0:0:
64,192,27900,1,0,0:0:0:0:
64,192,27980,1,0,0:0:0:0:
448,192,27980,1,0,0:0:0:0:
192,192,28020,1,0,0:0:0:0:
320,192,28060,1,0,0:0:0:0:
448,192,28100,1,0,0:0:0:0:
64,192,28140,1,0,0:0:0:0:
320,192,28140,1,0,0:0:0:0:
192,192,28140,1,0,0:0:0:0:
448,192,28220,1,0,0:0:0:0:
192,192,28300,1,0,0:0:0:0:
320,192,28380,1,0,0:0:0:0:
448,192,28460,1,0,0:0:0:0:
64,192,28460,1,0,0:0:0:0:
192,192,28460,1,0,0:0:0:0:
320,192,28540,1,0,0:0:0:0:
64,192,28620,1,0,0:0:0:0:
448,192,28620,1,0,0:0:0:0:
192,192,28700,1,0,0:0:0:0:
64,192,28780,1,0,0:0:0:0:
320,192,28780,1,0,0:0:0:0:
448,192,28780,1,0,0:0:0:0:
192,192,28860,1,0,0:0:0:0:
64,192,28940,1,0,0:0:0:0:
320,192,28940,1,0,0:0:0:0:
448,192,29020,1,0,0:0:0:0:
192,192,29100,1,0,0:0:0:0:
320,192,29100,1,0,0:0:0:0:
64,192,29100,1,0,0:0:0:0:
448,192,29180,1,0,0:0:0:0:
192,192,29260,1,0,0:0:0:0:
320,192,29260,1,0,0:0:0:0:
64,192,29340,1,0,0:0:0:0:
192,192,29420,1,0,0:0:0:0:
448,192,29420,1,0,0:0:0:0:
320,192,29420,1,0,0:0:0:0:
64,192,29500,1,0,0:0:0:0:
320,192,29580,1,0,0:0:0:0:
448,192,29580,1,0,0:0:0:0:
192,192,29660,1,0,0:0:0:0:
64,192,29740,1,0,0:0:0:0:
320,192,29740,1,0,0:0:0:0:
448,192,29740,1,0,0:0:0:0:
192,192,29820,1,0,0:0:0:0:
64,192,29900,1,0,0:0:0:0:
448,192,29900,1,0,0:0:0:0:
320,192,29980,1,0,0:0:0:0:
64,192,30060,1,0,0:0:0:0:
448,192,30060,1,0,0:0:0:0:
192,192,30060,1,0,0:0:0:0:
320,192,30140,1,0,0:0:0:0:
448,192,30220,1,0,0:0:0:0:
192,192,30220,1,0,0:0:0:0:
64,192,30300,1,0,0:0:0:0:
192,192,30380,1,0,0:0:0:0:
320,192,30380,1,0,0:0:0:0:
448,192,30380,1,0,0:0:0:0:
64,192,30460,1,0,0:0:0:0:
192,192,30540,1,0,0:0:0:0:
320,192,30540,1,0,0:0:0:0:
448,192,30620,1,0,0:0:0:0:
64,192,30700,1,0,0:0:0:0:
320,192,30700,1,0,0:0:0:0:
448,192,30780,1,0,0:0:0:0:
192,192,30780,1,0,0:0:0:0:
64,192,30860,1,0,0:0:0:0:
320,192,30860,1,0,0:0:0:0:
448,192,30940,1,0,0:0:0:0:
192,192,30940,1,0,0:0:0:0:
192,192,31020,1,0,0:0:0:0:
64,192,31020,1,0,0:0:0:0:
320,192,31100,1,0,0:0:0:0:
448,192,31100,1,0,0:0:0:0:
192,192,31180,1,0,0:0:0:0:
64,192,31180,1,0,0:0:0:0:
448,192,31260,1,0,0:0:0:0:
320,192,31260,1,0,0:0:0:0:
64,192,31340,1,0,0:0:0:0:
448,192,31340,1,0,0:0:0:0:
192,192,31420,1,0,0:0:0:0:
320,192,31420,1,0,0:0:0:0:
448,192,31500,1,0,0:0:0:0:
64,192,31500,1,0,0:0:0:0:
320,192,31580,1,0,0:0:0:0:
192,192,31580,1,0,0:0:0:0:
448,192,31660,1,0,0:0:0:0:
64,192,31660,1,0,0:0:0:0:
320,192,31780,128,0,31860:0:0:0:0:
192,192,31780,128,0,31860:0:0:0:0:
64,0,31980,128,0,32060:1:0:0:0:
192,0,31980,128,0,32060:1:0:0:0:
320,192,31980,1,0,0:0:0:0:
448,192,31980,1,0,0:0:0:0:
448,0,32140,128,0,32220:1:0:0:0:
320,0,32140,128,0,32220:1:0:0:0:
448,0,32300,128,0,32380:1:0:0:0:
320,0,32300,128,0,32380:1:0:0:0:
192,192,32300,1,0,0:0:0:0:
64,192,32300,1,0,0:0:0:0:
64,0,32460,128,0,32540:1:0:0:0:
192,0,32460,128,0,32540:1:0:0:0:
448,0,32620,128,0,32700:1:0:0:0:
320,0,32620,128,0,32700:1:0:0:0:
192,192,32620,1,0,0:0:0:0:
64,192,32620,1,0,0:0:0:0:
64,192,32780,1,0,0:0:0:0:
448,192,32780,1,0,0:0:0:0:
192,192,32820,1,0,0:0:0:0:
320,192,32860,1,0,0:0:0:0:
448,192,32900,1,0,0:0:0:0:
320,192,32940,1,0,0:0:0:0:
192,192,32940,1,0,0:0:0:0:
64,192,32940,1,0,0:0:0:0:
448,192,33100,1,0,0:0:0:0:
64,192,33100,1,0,0:0:0:0:
320,192,33140,1,0,0:0:0:0:
192,192,33180,1,0,0:0:0:0:
64,192,33220,1,0,0:0:0:0:
192,192,33260,1,0,0:0:0:0:
448,192,33260,1,0,0:0:0:0:
320,192,33260,1,0,0:0:0:0:
64,192,33340,1,0,0:0:0:0:
320,192,33420,1,0,0:0:0:0:
192,192,33500,1,0,0:0:0:0:
64,192,33580,1,0,0:0:0:0:
320,192,33580,1,0,0:0:0:0:
448,192,33580,1,0,0:0:0:0:
192,192,33660,1,0,0:0:0:0:
448,192,33740,1,0,0:0:0:0:
320,192,33820,1,0,0:0:0:0:
192,192,33900,1,0,0:0:0:0:
448,192,33900,1,0,0:0:0:0:
64,192,33980,1,0,0:0:0:0:
448,192,34060,1,0,0:0:0:0:
320,192,34060,1,0,0:0:0:0:
192,192,34140,1,0,0:0:0:0:
320,192,34220,1,0,0:0:0:0:
64,192,34220,1,0,0:0:0:0:
448,192,34220,1,0,0:0:0:0:
192,192,34300,1,0,0:0:0:0:
320,192,34380,1,0,0:0:0:0:
64,192,34380,1,0,0:0:0:0:
448,192,34460,1,0,0:0:0:0:
320,192,34540,1,0,0:0:0:0:
192,192,34540,1,0,0:0:0:0:
64,192,34540,1,0,0:0:0:0:
448,192,34620,1,0,0:0:0:0:
64,192,34700,1,0,0:0:0:0:
320,192,34700,1,0,0:0:0:0:
192,192,34780,1,0,0:0:0:0:
64,192,34860,1,0,0:0:0:0:
320,192,34860,1,0,0:0:0:0:
448,192,34860,1,0,0:0:0:0:
192,192,34940,1,0,0:0:0:0:
64,192,35020,1,0,0:0:0:0:
448,192,35020,1,0,0:0:0:0:
320,192,35100,1,0,0:0:0:0:
64,192,35180,1,0,0:0:0:0:
448,192,35180,1,0,0:0:0:0:
192,192,35260,1,0,0:0:0:0:
320,192,35260,1,0,0:0:0:0:
448,192,35340,1,0,0:0:0:0:
320,192,35420,1,0,0:0:0:0:
192,192,35500,1,0,0:0:0:0:
64,192,35500,1,0,0:0:0:0:
448,192,35500,1,0,0:0:0:0:
320,192,35580,1,0,0:0:0:0:
192,192,35660,1,0,0:0:0:0:
320,192,35740,1,0,0:0:0:0:
64,192,35820,1,0,0:0:0:0:
192,192,35820,1,0,0:0:0:0:
448,192,35820,128,0,36140:0:0:0:0:
320,192,35900,1,0,0:0:0:0:
64,192,35980,1,0,0:0:0:0:
192,192,36060,1,0,0:0:0:0:
320,192,36140,128,0,36460:0:0:0:0:
64,192,36140,1,0,0:0:0:0:
448,192,36220,1,0,0:0:0:0:
192,192,36300,1,0,0:0:0:0:
448,192,36380,1,0,0:0:0:0:
192,192,36460,128,0,36700:0:0:0:0:
64,192,36460,1,0,0:0:0:0:
448,192,36540,1,0,0:0:0:0:
320,192,36620,1,0,0:0:0:0:
64,192,36700,1,0,0:0:0:0:
192,192,36780,1,0,0:0:0:0:
320,192,36780,1,0,0:0:0:0:
448,192,36780,1,0,0:0:0:0:
64,192,36860,1,0,0:0:0:0:
320,192,36940,1,0,0:0:0:0:
192,192,36940,1,0,0:0:0:0:
448,192,37020,1,0,0:0:0:0:
192,192,37100,1,0,0:0:0:0:
320,192,37100,1,0,0:0:0:0:
64,192,37100,1,0,0:0:0:0:
448,192,37180,1,0,0:0:0:0:
320,192,37260,1,0,0:0:0:0:
64,192,37260,1,0,0:0:0:0:
192,192,37340,1,0,0:0:0:0:
448,192,37420,1,0,0:0:0:0:
64,192,37420,1,0,0:0:0:0:
320,192,37420,1,0,0:0:0:0:
192,192,37500,1,0,0:0:0:0:
320,192,37580,1,0,0:0:0:0:
192,192,37660,1,0,0:0:0:0:
448,192,37740,1,0,0:0:0:0:
64,192,37740,1,0,0:0:0:0:
320,192,37740,1,0,0:0:0:0:
192,192,37820,1,0,0:0:0:0:
448,192,37900,1,0,0:0:0:0:
64,192,37900,1,0,0:0:0:0:
192,192,37940,1,0,0:0:0:0:
320,192,37980,1,0,0:0:0:0:
448,192,38020,1,0,0:0:0:0:
192,192,38060,1,0,0:0:0:0:
320,192,38060,1,0,0:0:0:0:
64,192,38060,1,0,0:0:0:0:
448,192,38100,1,0,0:0:0:0:
448,192,38220,1,0,0:0:0:0:
64,192,38220,1,0,0:0:0:0:
320,192,38260,1,0,0:0:0:0:
192,192,38300,1,0,0:0:0:0:
64,192,38340,1,0,0:0:0:0:
320,192,38380,1,0,0:0:0:0:
192,192,38380,1,0,0:0:0:0:
448,192,38380,1,0,0:0:0:0:
64,192,38460,1,0,0:0:0:0:
192,192,38540,1,0,0:0:0:0:
320,192,38620,1,0,0:0:0:0:
64,192,38700,1,0,0:0:0:0:
448,192,38700,1,0,0:0:0:0:
192,192,38700,1,0,0:0:0:0:
320,192,38780,1,0,0:0:0:0:
64,192,38860,1,0,0:0:0:0:
192,192,38940,1,0,0:0:0:0:
448,192,39020,1,0,0:0:0:0:
320,192,39020,1,0,0:0:0:0:
64,192,39020,1,0,0:0:0:0:
320,192,39160,1,0,0:0:0:0:
448,192,39160,1,0,0:0:0:0:
64,192,39240,1,0,0:0:0:0:
448,192,39340,1,0,0:0:0:0:
320,192,39340,1,0,0:0:0:0:
192,192,39340,1,0,0:0:0:0:
64,192,39500,1,0,0:0:0:0:
192,192,39500,1,0,0:0:0:0:
448,192,39580,1,0,0:0:0:0:
192,192,39660,1,0,0:0:0:0:
320,192,39660,1,0,0:0:0:0:
64,192,39660,1,0,0:0:0:0:
448,192,39820,1,0,0:0:0:0:
320,192,39820,1,0,0:0:0:0:
64,192,39900,1,0,0:0:0:0:
320,192,39980,128,0,40140:0:0:0:0:
448,192,39980,128,0,40140:0:0:0:0:
64,192,40140,1,0,0:0:0:0:
192,192,40220,1,0,0:0:0:0:
320,192,40300,1,0,0:0:0:0:
448,192,40300,1,0,0:0:0:0:
64,192,40300,1,0,0:0:0:0:
448,192,40460,1,0,0:0:0:0:
192,192,40460,1,0,0:0:0:0:
320,192,40540,1,0,0:0:0:0:
192,192,40620,1,0,0:0:0:0:
64,192,40620,1,0,0:0:0:0:
448,192,40620,1,0,0:0:0:0:
64,192,40780,1,0,0:0:0:0:
320,192,40780,1,0,0:0:0:0:
192,192,40820,1,0,0:0:0:0:
448,192,40860,1,0,0:0:0:0:
192,192,40940,1,0,0:0:0:0:
448,192,40940,1,0,0:0:0:0:
320,192,40980,1,0,0:0:0:0:
64,192,41020,1,0,0:0:0:0:
192,192,41100,1,0,0:0:0:0:
320,192,41100,1,0,0:0:0:0:
64,192,41180,1,0,0:0:0:0:
320,192,41260,1,0,0:0:0:0:
192,192,41260,1,0,0:0:0:0:
448,192,41260,1,0,0:0:0:0:
64,192,41340,1,0,0:0:0:0:
320,192,41420,1,0,0:0:0:0:
448,192,41420,1,0,0:0:0:0:
64,192,41580,1,0,0:0:0:0:
448,192,41580,1,0,0:0:0:0:
320,192,41580,1,0,0:0:0:0:
64,192,41720,1,0,0:0:0:0:
320,192,41800,1,0,0:0:0:0:
192,192,41880,1,0,0:0:0:0:
448,192,41960,1,0,0:0:0:0:
320,192,41960,1,0,0:0:0:0:
64,192,42040,1,0,0:0:0:0:
320,192,42080,1,0,0:0:0:0:
192,192,42120,1,0,0:0:0:0:
448,192,42160,1,0,0:0:0:0:
64,192,42360,1,0,0:0:0:0:
320,192,42440,1,0,0:0:0:0:
192,192,42520,1,0,0:0:0:0:
320,192,42600,1,0,0:0:0:0:
448,192,42600,1,0,0:0:0:0:
64,192,42680,1,0,0:0:0:0:
320,192,42720,1,0,0:0:0:0:
192,192,42760,1,0,0:0:0:0:
448,192,42800,1,0,0:0:0:0:
64,192,43000,1,0,0:0:0:0:
320,192,43080,1,0,0:0:0:0:
448,192,43080,1,0,0:0:0:0:
192,192,43160,1,0,0:0:0:0:
448,192,43240,1,0,0:0:0:0:
64,192,43320,1,0,0:0:0:0:
320,192,43360,1,0,0:0:0:0:
192,192,43400,1,0,0:0:0:0:
448,192,43440,1,0,0:0:0:0:
64,192,43480,1,0,0:0:0:0:
320,192,43560,1,0,0:0:0:0:
448,192,43560,1,0,0:0:0:0:
64,192,43640,1,0,0:0:0:0:
320,192,43680,1,0,0:0:0:0:
192,192,43720,1,0,0:0:0:0:
448,192,43760,1,0,0:0:0:0:
64,192,43800,1,0,0:0:0:0:
320,192,43880,1,0,0:0:0:0:
448,192,43880,1,0,0:0:0:0:
64,192,43960,1,0,0:0:0:0:
320,192,44000,1,0,0:0:0:0:
192,192,44040,1,0,0:0:0:0:
448,192,44080,1,0,0:0:0:0:
64,192,44120,1,0,0:0:0:0:
320,192,44200,1,0,0:0:0:0:
448,192,44200,1,0,0:0:0:0:
64,192,44280,1,0,0:0:0:0:
320,192,44320,1,0,0:0:0:0:
192,192,44360,1,0,0:0:0:0:
448,192,44400,1,0,0:0:0:0:
64,192,44440,1,0,0:0:0:0:
320,192,44520,1,0,0:0:0:0:
448,192,44520,1,0,0:0:0:0:
64,192,44600,1,0,0:0:0:0:
320,192,44640,1,0,0:0:0:0:
192,192,44680,1,0,0:0:0:0:
448,192,44720,1,0,0:0:0:0:
64,192,44760,1,0,0:0:0:0:
192,192,44760,1,0,0:0:0:0:
320,192,44840,1,0,0:0:0:0:
448,192,44840,1,0,0:0:0:0:
64,192,44920,1,0,0:0:0:0:
320,192,44960,1,0,0:0:0:0:
192,192,45000,1,0,0:0:0:0:
448,192,45040,1,0,0:0:0:0:
64,192,45080,1,0,0:0:0:0:
192,192,45080,1,0,0:0:0:0:
320,192,45160,1,0,0:0:0:0:
448,192,45160,1,0,0:0:0:0:
64,192,45240,1,0,0:0:0:0:
320,192,45280,1,0,0:0:0:0:
192,192,45320,1,0,0:0:0:0:
448,192,45360,1,0,0:0:0:0:
64,192,45400,1,0,0:0:0:0:
192,192,45400,1,0,0:0:0:0:
320,192,45480,1,0,0:0:0:0:
448,192,45480,1,0,0:0:0:0:
64,192,45560,1,0,0:0:0:0:
320,192,45600,1,0,0:0:0:0:
192,192,45640,1,0,0:0:0:0:
448,192,45680,1,0,0:0:0:0:
64,192,45720,1,0,0:0:0:0:
192,192,45720,1,0,0:0:0:0:
320,192,45800,1,0,0:0:0:0:
448,192,45800,1,0,0:0:0:0:
64,192,45880,1,0,0:0:0:0:
320,192,45920,1,0,0:0:0:0:
192,192,45960,1,0,0:0:0:0:
448,192,46000,1,0,0:0:0:0:
64,0,46040,128,0,46360:1:0:0:0:
192,192,46360,128,0,46760:0:0:0:0:
448,0,46360,128,0,46760:1:0:0:0:
320,192,46760,128,0,47080:0:0:0:0:
64,192,46760,128,0,47080:0:0:0:0:
192,192,47120,1,0,0:0:0:0:
320,192,47160,1,0,0:0:0:0:
448,192,47200,128,0,47380:0:0:0:0:
64,192,47380,1,0,0:0:0:0:
192,192,47380,1,0,0:0:0:0:
320,192,47380,1,0,0:0:0:0:
64,192,47540,1,0,0:0:0:0:
192,192,47540,1,0,0:0:0:0:
448,192,47540,1,0,0:0:0:0:
64,192,47700,1,0,0:0:0:0:
192,192,47700,1,0,0:0:0:0:
320,192,47700,1,0,0:0:0:0:
64,192,47860,1,0,0:0:0:0:
192,192,47860,1,0,0:0:0:0:
448,192,47860,1,0,0:0:0:0:
64,192,48020,1,0,0:0:0:0:
192,192,48020,1,0,0:0:0:0:
320,192,48020,1,0,0:0:0:0:
64,192,48180,1,0,0:0:0:0:
192,192,48180,1,0,0:0:0:0:
320,192,48180,1,0,0:0:0:0:
64,192,48340,1,0,0:0:0:0:
192,192,48340,1,0,0:0:0:0:
448,192,48340,1,0,0:0:0:0:
320,192,48340,1,0,0:0:0:0:
64,192,48500,1,0,0:0:0:0:
192,192,48500,1,0,0:0:0:0:
448,192,48500,1,0,0:0:0:0:
64,192,48660,1,0,0:0:0:0:
192,192,48660,1,0,0:0:0:0:
320,192,48660,1,0,0:0:0:0:
64,192,48820,1,0,0:0:0:0:
192,192,48820,1,0,0:0:0:0:
320,192,48820,1,0,0:0:0:0:
64,192,48980,1,0,0:0:0:0:
192,192,48980,1,0,0:0:0:0:
448,192,48980,1,0,0:0:0:0:
64,192,49140,1,0,0:0:0:0:
192,192,49140,1,0,0:0:0:0:
320,192,49140,1,0,0:0:0:0:
64,192,49300,1,0,0:0:0:0:
192,192,49300,1,0,0:0:0:0:
448,192,49300,1,0,0:0:0:0:
64,192,49460,1,0,0:0:0:0:
192,192,49460,1,0,0:0:0:0:
448,192,49460,1,0,0:0:0:0:
64,192,49620,1,0,0:0:0:0:
192,192,49620,1,0,0:0:0:0:
320,192,49700,1,0,0:0:0:0:
448,192,49700,1,0,0:0:0:0:
64,192,49780,1,0,0:0:0:0:
192,192,49780,1,0,0:0:0:0:
320,192,49860,1,0,0:0:0:0:
448,192,49860,1,0,0:0:0:0:
64,192,49960,1,0,0:0:0:0:
192,192,49960,1,0,0:0:0:0:
320,192,49960,1,0,0:0:0:0:
448,192,49960,1,0,0:0:0:0:
320,192,50100,1,0,0:0:0:0:
448,192,50100,1,0,0:0:0:0:
192,192,50100,1,0,0:0:0:0:
320,192,50260,1,0,0:0:0:0:
448,192,50260,1,0,0:0:0:0:
64,192,50260,1,0,0:0:0:0:
320,192,50420,1,0,0:0:0:0:
448,192,50420,1,0,0:0:0:0:
64,192,50420,1,0,0:0:0:0:
320,192,50500,1,0,0:0:0:0:
448,192,50500,1,0,0:0:0:0:
320,192,50580,1,0,0:0:0:0:
448,192,50580,1,0,0:0:0:0:
192,192,50580,1,0,0:0:0:0:
320,192,50760,1,0,0:0:0:0:
448,192,50760,1,0,0:0:0:0:
64,192,50760,1,0,0:0:0:0:
320,192,50920,1,0,0:0:0:0:
448,192,50920,1,0,0:0:0:0:
192,192,50920,1,0,0:0:0:0:
64,192,50920,1,0,0:0:0:0:
320,192,51080,1,0,0:0:0:0:
448,192,51080,1,0,0:0:0:0:
192,192,51080,1,0,0:0:0:0:
320,192,51220,1,0,0:0:0:0:
448,192,51220,1,0,0:0:0:0:
64,192,51220,1,0,0:0:0:0:
320,192,51380,1,0,0:0:0:0:
448,192,51380,1,0,0:0:0:0:
64,192,51380,1,0,0:0:0:0:
320,192,51540,1,0,0:0:0:0:
448,192,51540,1,0,0:0:0:0:
192,192,51540,1,0,0:0:0:0:
320,192,51700,1,0,0:0:0:0:
448,192,51700,1,0,0:0:0:0:
64,192,51700,1,0,0:0:0:0:
320,192,51860,1,0,0:0:0:0:
448,192,51860,1,0,0:0:0:0:
192,192,51860,1,0,0:0:0:0:
320,192,52020,1,0,0:0:0:0:
448,192,52020,1,0,0:0:0:0:
192,192,52020,1,0,0:0:0:0:
320,192,52180,1,0,0:0:0:0:
448,192,52180,1,0,0:0:0:0:
64,192,52180,1,0,0:0:0:0:
192,192,52180,1,0,0:0:0:0:
320,192,52340,1,0,0:0:0:0:
448,192,52340,1,0,0:0:0:0:
64,192,52400,1,0,0:0:0:0:
192,192,52400,1,0,0:0:0:0:
320,192,52460,1,0,0:0:0:0:
448,192,52460,1,0,0:0:0:0:
192,192,52500,1,0,0:0:0:0:
64,192,52500,1,0,0:0:0:0:
320,192,52660,1,0,0:0:0:0:
448,192,52660,1,0,0:0:0:0:
64,192,52720,1,0,0:0:0:0:
192,192,52720,1,0,0:0:0:0:
320,192,52780,1,0,0:0:0:0:
448,192,52780,1,0,0:0:0:0:
192,192,52820,1,0,0:0:0:0:
64,192,52820,1,0,0:0:0:0:
320,192,52980,1,0,0:0:0:0:
448,192,52980,1,0,0:0:0:0:
64,192,53140,1,0,0:0:0:0:
192,192,53140,1,0,0:0:0:0:
320,192,53140,1,0,0:0:0:0:
448,192,53140,1,0,0:0:0:0:
64,192,53300,1,0,0:0:0:0:
192,192,53300,1,0,0:0:0:0:
320,192,53300,1,0,0:0:0:0:
448,192,53300,1,0,0:0:0:0:
192,192,53420,1,0,0:0:0:0:
448,192,53420,1,0,0:0:0:0:
64,192,53520,1,0,0:0:0:0:
320,192,53520,1,0,0:0:0:0:
192,192,53620,1,0,0:0:0:0:
448,192,53620,1,0,0:0:0:0:
64,192,53780,1,0,0:0:0:0:
448,192,53780,1,0,0:0:0:0:
192,192,53900,1,0,0:0:0:0:
320,192,53900,1,0,0:0:0:0:
64,192,54000,1,0,0:0:0:0:
448,192,54000,1,0,0:0:0:0:
192,192,54100,1,0,0:0:0:0:
320,192,54100,1,0,0:0:0:0:
320,192,54260,1,0,0:0:0:0:
448,192,54260,1,0,0:0:0:0:
64,192,54420,1,0,0:0:0:0:
192,192,54420,1,0,0:0:0:0:
448,192,54540,1,0,0:0:0:0:
320,192,54540,1,0,0:0:0:0:
64,192,54640,1,0,0:0:0:0:
192,192,54640,1,0,0:0:0:0:
448,192,54740,1,0,0:0:0:0:
320,192,54740,1,0,0:0:0:0:
64,192,54860,1,0,0:0:0:0:
192,192,54860,1,0,0:0:0:0:
448,192,54960,1,0,0:0:0:0:
320,192,54960,1,0,0:0:0:0:
64,192,55080,1,0,0:0:0:0:
192,192,55080,1,0,0:0:0:0:
448,192,55180,1,0,0:0:0:0:
320,192,55180,1,0,0:0:0:0:
64,192,55280,1,0,0:0:0:0:
192,192,55280,1,0,0:0:0:0:
448,192,55400,1,0,0:0:0:0:
320,192,55400,1,0,0:0:0:0:
64,192,55500,1,0,0:0:0:0:
192,192,55500,1,0,0:0:0:0:
448,192,55600,1,0,0:0:0:0:
320,192,55600,1,0,0:0:0:0:
64,192,55720,1,0,0:0:0:0:
192,192,55720,1,0,0:0:0:0:
320,192,55800,1,0,0:0:0:0:
448,192,55800,1,0,0:0:0:0:
64,192,55880,1,0,0:0:0:0:
192,192,55880,1,0,0:0:0:0:
320,192,55960,1,0,0:0:0:0:
448,192,55960,1,0,0:0:0:0:
192,192,56040,1,0,0:0:0:0:
64,192,56040,1,0,0:0:0:0:
320,192,56120,1,0,0:0:0:0:
448,192,56120,1,0,0:0:0:0:
192,192,56200,1,0,0:0:0:0:
64,192,56200,1,0,0:0:0:0:
320,192,56280,1,0,0:0:0:0:
448,192,56280,1,0,0:0:0:0:
192,192,56360,1,0,0:0:0:0:
64,192,56360,1,0,0:0:0:0:
320,192,56440,1,0,0:0:0:0:
448,192,56440,1,0,0:0:0:0:
192,192,56520,1,0,0:0:0:0:
64,192,56520,1,0,0:0:0:0:
320,192,56600,1,0,0:0:0:0:
448,192,56600,1,0,0:0:0:0:
192,192,56680,1,0,0:0:0:0:
64,192,56680,1,0,0:0:0:0:
320,192,56760,1,0,0:0:0:0:
448,192,56760,1,0,0:0:0:0:
192,192,56840,1,0,0:0:0:0:
64,192,56840,1,0,0:0:0:0:
320,192,56920,1,0,0:0:0:0:
448,192,56920,1,0,0:0:0:0:
64,192,56986,1,0,0:0:0:0:
192,192,57040,1,0,0:0:0:0:
320,192,57093,1,0,0:0:0:0:
448,192,57146,1,0,0:0:0:0:
64,192,57200,1,0,0:0:0:0:
192,192,57253,1,0,0:0:0:0:
320,192,57306,1,0,0:0:0:0:
448,192,57360,1,0,0:0:0:0:
64,192,57413,1,0,0:0:0:0:
192,192,57466,1,0,0:0:0:0:
320,192,57520,1,0,0:0:0:0:
448,192,57573,1,0,0:0:0:0:
64,192,57626,1,0,0:0:0:0:
192,192,57680,1,0,0:0:0:0:
320,192,57733,1,0,0:0:0:0:
448,192,57786,1,0,0:0:0:0:
64,192,57840,1,0,0:0:0:0:
192,192,57893,1,0,0:0:0:0:
320,192,57946,1,0,0:0:0:0:
448,192,58000,1,0,0:0:0:0:
64,192,58053,1,0,0:0:0:0:
192,192,58106,1,0,0:0:0:0:
320,192,58160,1,0,0:0:0:0:
448,192,58213,1,0,0:0:0:0:
64,192,58266,1,0,0:0:0:0:
192,192,58293,1,0,0:0:0:0:
320,192,58320,1,0,0:0:0:0:
448,192,58346,1,0,0:0:0:0:
64,192,58373,1,0,0:0:0:0:
192,192,58400,1,0,0:0:0:0:
320,192,58426,1,0,0:0:0:0:
448,192,58453,1,0,0:0:0:0:
64,192,58480,1,0,0:0:0:0:
192,192,58506,1,0,0:0:0:0:
320,192,58533,1,0,0:0:0:0:
448,192,58560,1,0,0:0:0:0:
64,192,58586,1,0,0:0:0:0:
192,192,58613,1,0,0:0:0:0:
320,192,58640,1,0,0:0:0:0:
448,192,58666,1,0,0:0:0:0:
64,192,58693,1,0,0:0:0:0:
192,192,58720,1,0,0:0:0:0:
320,192,58746,1,0,0:0:0:0:
448,192,58773,1,0,0:0:0:0:
64,192,58800,1,0,0:0:0:0:
192,192,58826,1,0,0:0:0:0:
320,192,58853,1,0,0:0:0:0:
448,192,58880,1,0,0:0:0:0:
64,192,58906,1,0,0:0:0:0:
192,192,58933,1,0,0:0:0:0:
320,192,58960,1,0,0:0:0:0:
448,192,58986,1,0,0:0:0:0:
64,192,59013,1,0,0:0:0:0:
192,192,59040,1,0,0:0:0:0:
320,192,59066,1,0,0:0:0:0:
448,192,59093,1,0,0:0:0:0:
64,192,59120,1,0,0:0:0:0:
192,192,59146,1,0,0:0:0:0:
320,192,59173,1,0,0:0:0:0:
448,192,59200,1,0,0:0:0:0:
64,192,59226,1,0,0:0:0:0:
192,192,59253,1,0,0:0:0:0:
320,192,59280,1,0,0:0:0:0:
448,192,59306,1,0,0:0:0:0:
64,192,59333,1,0,0:0:0:0:
192,192,59360,1,0,0:0:0:0:
320,192,59386,1,0,0:0:0:0:
448,192,59413,1,0,0:0:0:0:
64,192,59440,1,0,0:0:0:0:
192,192,59466,1,0,0:0:0:0:
320,192,59493,1,0,0:0:0:0:
448,192,59520,128,0,60773:0:0:0:0:
64,192,59546,128,0,60773:0:0:0:0:
192,192,59546,128,0,60773:0:0:0:0:
320,192,59546,128,0,60773:0:0:0:0:
