osu file format v5

[General]
AudioFilename: July Euromix.mp3
AudioLeadIn: 0
PreviewTime: -1
Countdown: 1
SampleSet: Normal
StackLeniency: 0.7
Mode: 0
LetterboxInBreaks: 1

[Editor]
DistanceSpacing: 0.699999988079071
BeatDivisor: 4
GridSize: 8

[Metadata]
Title:July (Euromix!)
Artist:JS14
Creator:Skyripper
Version:Medium
Source:ITG2, In the Groove 2
Tags:july euro euromix mix js14 itg itg2 groove

[Difficulty]
HPDrainRate:5
CircleSize:4
OverallDifficulty:3
SliderMultiplier:1.4
SliderTickRate:2

[Events]
//Background and Video events
0,0,"July -Euromix--bg.png"
//Break Periods
2,56498,64790
//Storyboard Layer 0 (Background)
//Storyboard Layer 1 (Fail)
//Storyboard Layer 2 (Pass)
//Storyboard Layer 3 (Foreground)
//Storyboard Sound Samples
//Background Colour Transformations
3,100,163,162,255

[TimingPoints]
2920,413.793103448276,4,1,0,60,1,0
79436,-100,4,1,0,69,0,0
79630,-100,4,1,0,76,0,0
80043,-100,4,1,0,83,0,0
80250,-100,4,1,0,79,0,0
80457,-100,4,1,0,78,0,0
80768,-100,4,1,0,78,0,0
81181,-100,4,1,0,84,0,0
82782,-100,4,1,0,84,0,1

[Colours]
Combo1 : 255,150,0
Combo2 : 128,0,128
Combo3 : 5,5,240
Combo4 : 240,5,5

[HitObjects]
48,32,3126,2,0,B|32:96|80:112,1,70
144,144,3747,1,0
336,168,4575,1,0
192,304,5402,1,0
336,168,6230,1,2
256,112,6644,5,4
192,80,6954,1,0
136,192,7471,1,0
216,248,7885,1,0
312,232,8299,1,0
400,192,8713,1,0
376,96,9126,2,0,B|216:168|96:40,1,280
40,120,10368,5,8
104,192,10782,1,0
176,256,11195,1,8
224,176,11609,5,0
288,248,12023,1,8
376,200,12437,2,0,B|472:120|344:16|240:104,1,280
176,152,13678,5,2
224,248,14092,1,0
272,344,14506,1,2
328,248,14919,5,0
368,208,15126,1,0
320,176,15333,1,0
360,136,15540,1,0
312,104,15747,1,4
224,144,16161,1,4
256,248,16575,5,2
184,328,16988,1,0
88,264,17402,1,2
48,224,17609,1,0
80,176,17816,1,0
72,64,18230,5,2
120,40,18437,1,0
168,64,18644,1,0
216,96,18851,1,0
264,64,19057,1,2
272,176,19471,1,2
376,200,19885,5,0
472,136,20299,1,2
384,88,20713,1,0
288,64,21126,1,2
184,120,21540,1,0
144,160,21747,1,0
184,192,21954,1,0
152,232,22161,1,0
192,264,22368,1,0
304,288,22782,1,2
296,176,23195,5,0
408,200,23609,1,2
376,88,24023,1,0
264,64,24437,1,6
184,144,24851,1,0
128,48,25264,1,0
96,88,25471,1,6
88,200,25885,5,0
128,232,26092,1,6
232,272,26506,1,2
272,312,26713,1,2
360,240,27126,1,0
416,240,27333,1,2
448,192,27540,1,2
344,152,27954,5,2
392,96,28264,1,2
336,48,28575,1,2
256,104,28988,1,6
88,136,29816,5,4
40,240,30230,1,0
112,328,30644,1,4
160,224,31057,1,0
224,312,31471,1,4
320,264,31885,1,0
376,256,32092,1,0
432,248,32299,2,4,B|432:136|480:104,1,140,6|6
384,32,33126,5,0
296,96,33540,1,4
208,160,33954,1,0
200,48,34368,1,4
104,104,34782,2,0,B|24:104,4,70
176,184,36023,1,2
72,224,36437,5,4
136,312,36851,1,0
176,280,37057,1,0
216,312,37264,1,0
280,272,37575,2,0,B|376:344,1,105,0|0
456,296,38299,5,2
440,200,38713,1,0
432,128,39023,1,2
368,96,39333,1,4
264,72,39747,6,0,B|264:152,1,70,0|2
208,224,40368,1,0
160,200,40575,2,0,B|160:120,1,70,0|2
97,59,41195,2,0,B|17:75|17:155,1,105,0|2
72,192,41816,1,2
72,304,42230,2,0,B|168:368|360:320,1,280,4|4
432,56,44092,5,0
312,176,44713,1,4
80,16,45747,2,0,B|32:48|32:128,2,105,0|0|4
216,264,47402,5,0
384,256,48023,1,4
432,88,49057,2,0,B|400:40|320:40,2,105,0|0|4
176,208,50713,5,0
40,104,51333,1,4
320,72,52368,2,0,B|352:120|432:120,2,105,0|0|4
344,352,54023,5,0
160,264,54644,1,4
160,208,54851,6,0,B|64:208,2,70
160,152,55471,2,0,B|160:96,8,35,4|4|0|0|0|0|0|0|4
256,192,66230,12,4,69540
400,64,69954,5,8
400,176,70368,1,0
400,288,70782,1,8
304,224,71195,1,0
304,112,71609,1,8
208,168,72023,1,8
152,168,72230,1,0
152,224,72437,1,8
40,224,72851,5,0
40,112,73264,1,8
136,48,73678,1,4
248,48,74092,1,8
304,48,74299,1,0
360,48,74506,2,0,B|440:48,7,70,0|0|8|0|0|0|8|4
432,48,76161,5,4
432,160,76575,1,8
432,272,76988,1,0
344,208,77402,1,8
288,208,77609,1,0
232,208,77816,1,0
120,208,78230,1,8
56,112,78644,1,0
160,136,79057,5,12
208,104,79264,1,0
264,104,79471,2,0,B|264:8,11,70,0|0|8|0|4|0|8|0|4|4|8|8
368,80,82161,1,6
424,80,82368,1,2
336,152,82782,6,0,B|400:216|336:296,1,140,4|8
240,312,83609,2,0,B|176:376|96:312,1,140,4|8
104,208,84437,2,0,B|40:144|104:64,1,140,4|8
200,88,85264,2,0,B|264:24|344:88,1,140,6|6
416,144,86092,6,0,B|464:208|416:256,1,105
344,248,86713,2,0,B|280:232|296:136,1,105
320,88,87333,1,2
208,56,87747,5,0
152,72,87954,1,0
104,96,88161,1,2
128,144,88368,1,0
152,192,88575,1,0
48,232,88988,1,2
128,312,89402,5,4
232,272,89816,1,0
272,168,90230,1,4
336,256,90644,1,0
376,152,91057,1,4
488,168,91471,1,2
480,112,91678,1,0
376,72,92092,1,0
320,64,92299,1,2
208,64,92713,6,2,B|112:96,1,70
56,160,93333,2,0,B|88:240,1,70,0|2
136,224,93747,1,2
192,248,93954,1,0
240,272,94161,1,2
288,248,94368,2,0,B|352:200,4,70,2|0|2|0|6
272,56,96023,5,4
312,120,96333,1,0
248,160,96644,1,0
200,144,96851,2,0,B|136:112|104:176,1,105,4|0
56,216,97471,2,0,B|24:280|72:312|136:312,1,140,4|0
224,280,98299,1,0
280,264,98506,1,2
384,216,98920,1,2
416,112,99333,5,8
344,88,99644,1,2
272,96,99954,1,8
200,120,100264,1,2
128,104,100575,1,8
112,208,100988,5,0
64,232,101195,1,8
96,272,101402,1,0
48,296,101609,1,8
80,336,101816,1,0
184,304,102230,1,2
280,248,102644,5,0
320,312,102954,1,0
408,288,103264,1,0
376,240,103471,1,2
432,192,103782,1,0
400,120,104092,1,2
320,64,104506,1,0
224,56,104920,1,6
160,88,105230,1,0
112,144,105540,1,6
168,272,105954,6,0,B|200:336|264:336,1,105
328,328,106575,1,2
344,272,106782,2,0,B|280:240|280:176,1,105
256,120,107402,1,2
192,80,107713,1,2
128,120,108023,1,2
128,240,108437,6,4,B|160:336|256:336|304:320|336:224,1,280,0|4
