osu file format v5

[General]
AudioFilename: July Euromix.mp3
AudioLeadIn: 1026
PreviewTime: -1
Countdown: 1
SampleSet: Normal
StackLeniency: 0.7
Mode: 0
LetterboxInBreaks: 1

[Editor]
DistanceSpacing: 0.699999988079071
BeatDivisor: 4
GridSize: 8

[Metadata]
Title:July (Euromix!)
Artist:JS14
Creator:Skyripper
Version:Expert
Source:ITG2, In the Groove 2
Tags:

[Difficulty]
HPDrainRate:8
CircleSize:5
OverallDifficulty:7
SliderMultiplier:1.9
SliderTickRate:4

[Events]
//Background and Video events
0,0,"July -Euromix--bg.png"
//Break Periods
2,3844,4916
2,7154,8847
//Storyboard Layer 0 (Background)
//Storyboard Layer 1 (Fail)
//Storyboard Layer 2 (Pass)
//Storyboard Layer 3 (Foreground)
//Storyboard Sound Samples
//Background Colour Transformations
3,100,163,162,255

[TimingPoints]
2920,413.793103448276,4,1,0,90,1,0
15718,-100,4,1,0,41,0,0
15821,-100,4,1,0,46,0,0
15925,-100,4,1,0,52,0,0
16028,-100,4,1,0,56,0,0
16131,-100,4,1,0,62,0,0
16235,-100,4,1,0,66,0,0
16338,-100,4,1,0,75,0,0
16442,-100,4,1,0,83,0,0
16545,-100,4,1,0,92,0,0
16649,-100,4,1,0,100,0,0
48699,-100,4,1,0,55,0,0
48906,-100,4,1,0,78,0,0
49112,-100,4,1,0,100,0,0
58940,-100,4,1,0,62,0,0
59043,-100,4,1,0,79,0,0
59147,-100,4,1,0,100,0,0
61216,-100,4,1,0,84,0,0
61319,-100,4,1,0,69,0,0
61423,-100,4,1,0,61,0,0
62043,-100,4,1,0,76,0,0
62147,-100,4,1,0,89,0,0
62250,-100,4,1,0,100,0,0
62457,-100,4,1,0,62,0,0
62768,-100,4,1,0,100,0,0
66191,-100,4,1,0,100,0,0
66285,-100,4,1,0,79,0,0
66492,-100,4,1,0,56,0,0
66802,-100,4,1,0,74,0,0
67009,-100,4,1,0,100,0,0
67216,-100,4,1,0,74,0,0
67630,-100,4,1,0,87,0,0
67837,-100,4,1,0,100,0,0
79630,-100,4,1,0,66,0,0
80043,-100,4,1,0,83,0,0
80250,-100,4,1,0,100,0,0
80457,-100,4,1,0,78,0,0
80768,-100,4,1,0,100,0,0
81181,-100,4,1,0,84,0,0
82743,-100,4,1,0,84,0,1

[Colours]
Combo1 : 255,150,0
Combo2 : 128,0,128
Combo3 : 5,5,240
Combo4 : 240,5,5

[HitObjects]
64,48,3126,5,0
112,96,3333,1,0
176,24,3644,1,0
432,48,5816,5,0
360,160,6230,1,2
312,32,6644,1,0
248,112,6954,1,0
64,336,9747,5,0
112,176,10264,1,0
168,256,10575,1,0
200,312,10782,1,2
296,312,11092,1,0
240,224,11402,1,2
184,144,11713,1,0
120,64,12023,1,2
183,144,12437,6,0,B|296:24|338:78|360:136|424:176|216:232,1,380,0|0
120,280,13678,5,0
48,168,14092,1,0
160,104,14506,1,0
224,216,14919,5,0
280,176,15126,1,0
320,232,15333,1,0
264,272,15540,1,0
224,216,15747,2,0,B|200:184,16,23.75
136,256,16885,5,0
136,152,17195,1,0
184,104,17402,1,0
280,88,17713,1,0
232,176,18023,1,0
232,304,18437,1,0
352,240,18851,1,0
416,240,19057,1,2
288,240,19471,1,2
152,224,19885,5,0
152,320,20195,1,0
152,224,20506,1,0
152,320,20816,1,0
152,224,21126,1,0
264,296,21540,5,0
312,248,21747,1,0
248,224,21954,1,0
304,184,22161,1,0
240,160,22368,1,0
240,24,22782,1,2
128,72,23195,5,0
40,120,23506,1,0
104,200,23816,1,0
48,240,24023,1,0
112,320,24333,1,0
48,240,24644,1,0
128,136,25057,1,0
16,56,25471,1,4
112,40,25782,1,0
200,80,26092,1,4
264,192,26506,5,2
360,184,26816,1,2
304,104,27126,1,0
304,40,27333,1,6
392,80,27644,1,0
304,104,27954,1,6
208,80,28264,5,2
304,104,28575,1,2
304,240,28988,2,0,B|304:368|168:368,1,190,0|4
192,232,29816,5,0
88,232,30126,1,0
144,144,30437,1,0
144,80,30644,1,2
240,112,30954,1,0
144,144,31264,1,2
144,280,31678,5,0
264,216,32092,1,0
328,216,32299,1,2
296,88,32713,1,2
264,216,33126,5,2
176,168,33437,1,2
128,256,33747,1,0
216,304,34057,1,2
264,216,34368,1,6
376,280,34782,5,0
432,248,34988,1,0
376,216,35195,1,0
432,184,35402,1,0
376,152,35609,1,0
400,24,36023,1,2
280,80,36437,5,0
192,128,36747,1,0
224,216,37057,1,0
280,184,37264,1,2
280,80,37575,1,0
360,144,37885,5,2
408,264,38299,1,0
480,152,38713,1,0
424,72,39023,1,4
360,144,39333,1,4
280,256,39747,5,0
176,256,40057,1,6
88,208,40368,1,0
136,160,40575,1,6
224,208,40885,1,0
224,104,41195,1,2
136,160,41506,1,2
224,104,41816,1,2
320,200,42230,6,0,B|504:232|512:160|400:64|352:344,1,380,0|0
264,288,43368,1,0
320,200,43678,1,0
376,120,43988,1,0
336,64,44195,1,0
336,64,44299,1,0
224,136,44713,5,0
136,184,45023,1,2
184,272,45333,1,0
160,336,45540,1,2
248,296,45851,1,0
336,256,46161,1,2
336,120,46575,5,0
232,120,46885,1,2
280,208,47195,1,0
232,120,47506,1,2
184,208,47816,1,2
232,328,48230,5,0
320,288,48540,1,0
376,336,48747,1,0
376,336,48851,1,0
376,336,48954,1,0
376,336,49057,1,0
376,336,49161,1,0
416,248,49471,1,0
408,112,49885,5,0
312,136,50195,1,0
216,112,50506,1,2
216,208,50816,1,2
312,208,51126,1,0
312,72,51540,1,0
248,72,51747,1,0
248,72,51851,1,0
184,72,52057,1,0
184,72,52161,1,0
184,136,52368,1,0
184,136,52471,1,0
88,104,52782,1,0
88,240,53195,5,0
184,240,53506,1,0
136,328,53816,1,0
232,328,54126,1,0
280,240,54437,1,0
392,168,54851,5,0
448,88,55161,1,0
352,64,55471,2,0,L|240:48|169:111|256:136,1,285
312,152,56299,5,2
272,240,56609,1,0
184,192,56920,1,2
88,152,57230,1,0
104,248,57540,1,8
160,288,57747,1,0
104,248,57954,1,0
88,152,58264,5,8
160,80,58575,1,0
200,136,58782,1,0
240,80,58988,1,0
240,80,59092,1,0
240,80,59195,1,8
272,136,59402,5,0
272,200,59609,1,8
368,168,59920,1,0
368,264,60230,1,0
368,168,60540,1,0
464,168,60851,1,0
464,232,61057,1,0
464,296,61264,5,0
464,296,61368,1,0
464,296,61471,1,8
408,336,61678,1,0
272,336,62092,1,0
272,336,62195,1,0
272,336,62299,1,8
224,288,62506,1,0
224,288,62609,1,0
224,288,62713,1,0
224,288,62816,1,0
224,288,62920,1,8
160,360,63230,5,2
112,272,63540,1,0
160,184,63851,1,2
56,184,64161,1,0
16,128,64368,1,2
72,96,64575,1,0
136,120,64782,1,0
168,64,64988,1,2
296,72,65402,5,0
296,72,65506,1,0
360,48,65713,1,0
360,48,65816,1,0
424,24,66023,1,0
480,64,66230,5,6
448,80,66333,1,0
416,96,66437,1,0
384,112,66540,1,0
400,144,66644,1,0
416,176,66747,1,0
432,208,66851,1,0
448,240,66954,1,0
416,256,67057,5,6
384,272,67161,1,0
352,288,67264,1,0
320,296,67368,1,0
304,264,67471,1,0
288,232,67575,1,0
272,200,67678,1,0
256,168,67782,1,0
224,176,67885,5,6
192,192,67988,1,0
160,208,68092,1,4
128,224,68195,1,4
128,120,68506,5,2
216,80,68816,1,2
216,80,68920,1,2
280,56,69126,1,2
344,168,69540,5,0
264,232,69851,1,0
184,288,70161,1,0
192,184,70471,1,0
272,120,70782,1,2
224,72,70988,1,0
160,48,71195,1,0
96,120,71506,1,0
48,208,71816,1,0
104,240,72023,1,2
168,216,72230,1,0
168,216,72333,1,0
168,216,72437,1,2
216,264,72644,5,0
272,224,72851,1,0
328,304,73161,1,0
392,224,73471,1,0
328,144,73782,1,0
328,40,74092,1,2
264,40,74299,1,0
200,40,74506,5,0
200,40,74609,1,0
200,40,74713,1,0
200,104,74920,1,8
328,104,75333,1,0
328,104,75437,1,0
328,104,75540,1,0
328,168,75747,1,8
328,168,75851,1,0
328,168,75954,1,0
328,168,76057,1,0
328,168,76161,1,0
424,144,76471,5,2
424,240,76782,1,0
328,240,77092,1,0
376,328,77402,1,2
312,328,77609,1,0
264,280,77816,1,0
216,232,78023,1,2
200,296,78230,1,2
88,224,78644,1,0
88,224,78747,1,0
120,168,78954,1,0
120,168,79057,1,0
152,112,79264,1,0
192,56,79471,5,2
216,80,79575,1,0
240,104,79678,1,0
264,128,79782,1,0
288,152,79885,1,0
312,176,79988,1,0
336,200,80092,1,0
360,224,80195,1,0
384,200,80299,5,2
408,176,80402,1,0
432,152,80506,1,0
456,128,80609,1,0
424,112,80713,1,0
392,96,80816,1,0
360,80,80920,1,0
328,64,81023,5,2
312,88,81126,1,2
296,112,81230,1,2
280,136,81333,1,2
264,160,81437,1,2
248,184,81540,1,2
208,240,81747,5,6
264,320,82057,2,2,B|288:272,1,47.5
344,304,82368,1,6
400,184,82782,5,0
400,80,83092,1,0
296,80,83402,1,0
248,120,83609,1,2
152,80,83920,1,0
152,176,84230,1,4
256,256,84644,1,0
120,280,85057,1,0
64,240,85264,1,6
64,104,85678,1,6
192,104,86092,5,0
288,104,86402,1,0
384,104,86713,1,0
472,152,87023,1,0
384,200,87333,1,6
256,224,87747,1,4
312,256,87954,1,0
256,296,88161,1,4
200,264,88368,1,0
200,328,88575,1,4
72,296,88988,1,2
144,184,89402,5,0
224,128,89713,1,4
136,80,90023,1,0
200,56,90230,1,6
296,64,90540,1,0
336,152,90851,1,4
448,80,91264,1,0
480,208,91678,1,4
384,248,91988,1,2
296,288,92299,1,6
240,168,92713,5,2
192,80,93023,1,2
104,128,93333,1,2
56,176,93540,1,2
144,216,93851,1,2
240,168,94161,1,2
232,264,94471,1,2
320,224,94782,1,2
432,296,95195,2,0,B|496:184|400:88|328:40|192:72,1,380,0|4
184,152,96333,5,0
272,200,96644,1,0
304,136,96851,1,6
384,200,97161,1,0
336,288,97471,1,4
200,272,97885,1,0
72,312,98299,1,0
88,248,98506,1,6
192,336,98920,1,6
216,200,99333,5,0
120,160,99644,1,4
200,104,99954,1,0
216,200,100264,1,6
120,160,100575,1,6
64,280,100988,1,4
120,240,101195,1,0
128,304,101402,1,4
184,264,101609,1,0
192,328,101816,1,4
320,304,102230,1,2
360,176,102644,5,0
264,144,102954,1,0
336,80,103264,1,4
400,96,103471,1,4
464,176,103782,1,0
416,264,104092,1,0
280,240,104506,1,0
176,320,104920,1,2
168,216,105230,1,6
96,144,105540,1,6
200,64,105954,5,0
288,112,106264,1,6
376,64,106575,1,0
376,128,106782,1,4
472,104,107092,1,2
472,200,107402,1,6
384,248,107713,1,6
384,344,108023,1,6
264,288,108437,1,6
256,192,108540,12,4,109264
