osu file format v11

[General]
AudioFilename: JS - Flower and Sword.mp3
AudioLeadIn: 2000
PreviewTime: 80720
Countdown: 0
SampleSet: Soft
StackLeniency: 0.7
Mode: 0
LetterboxInBreaks: 0

[Editor]
DistanceSpacing: 0.5
BeatDivisor: 4
GridSize: 4

[Metadata]
Title:Flower and Sword
TitleUnicode:花与剑
Artist:JS
ArtistUnicode:JS
Creator:Breeze
Version:Hard
Source:Chinese Paladin
Tags:sherrie__fay cmn_891127
BeatmapID:185779
BeatmapSetID:59830

[Difficulty]
HPDrainRate:7
CircleSize:4
OverallDifficulty:6
ApproachRate:8
SliderMultiplier:1.8
SliderTickRate:2

[Events]
//Background and Video events
0,0,"bg.jpg"
//Break Periods
2,16919,23970
2,112920,127970
2,176920,191970
//Storyboard Layer 0 (Background)
//Storyboard Layer 1 (Fail)
//Storyboard Layer 2 (Pass)
//Storyboard Layer 3 (Foreground)
//Storyboard Sound Samples
//Background Colour Transformations
3,100,255,255,255

[TimingPoints]
730,517.241379310345,4,2,0,30,1,0
8230,-100,4,2,0,5,0,0
8820,512.820512820513,4,2,0,30,1,0
14720,500,4,2,1,40,1,0
15720,-100,4,2,1,45,0,0
16220,-100,4,2,1,60,0,0
16720,-100,4,1,0,60,0,1
16845,-100,4,2,1,80,0,0
24470,-100,4,2,1,60,0,0
31595,-100,4,1,0,25,0,0
32220,-100,4,1,0,30,0,0
32720,-100,4,2,1,80,0,0
32970,-100,4,2,1,60,0,0
36470,-100,4,2,1,30,0,0
36720,-100,4,2,1,60,0,0
42470,-100,4,2,1,30,0,0
42720,-100,4,2,1,60,0,0
44470,-100,4,2,1,30,0,0
44720,-100,4,2,1,60,0,0
47595,-100,4,1,0,30,0,0
48220,-100,4,1,0,35,0,0
48720,-100,4,2,1,60,0,0
52470,-100,4,2,1,30,0,0
52720,-100,4,2,1,60,0,0
56470,-100,4,2,1,30,0,0
56720,-100,4,2,1,60,0,0
60470,-100,4,2,1,30,0,0
60720,-100,4,2,1,60,0,0
64470,-100,4,2,1,30,0,0
64970,-100,4,2,1,60,0,0
68470,-100,4,2,1,30,0,0
68970,-100,4,2,1,60,0,0
72470,-100,4,2,1,30,0,0
72970,-100,4,2,1,60,0,0
79595,-100,4,1,0,30,0,0
80220,-100,4,1,0,40,0,0
80720,-100,4,2,1,100,0,0
80845,-100,4,2,1,60,0,0
84470,-100,4,2,1,30,0,0
84970,-100,4,2,1,60,0,0
92470,-100,4,2,1,30,0,0
92970,-100,4,2,1,60,0,0
95720,-100,4,2,1,25,0,0
96220,-100,4,2,1,40,0,0
96720,-100,4,2,1,80,0,0
96970,-100,4,2,1,60,0,0
100470,-100,4,2,1,30,0,0
100970,-100,4,2,1,60,0,0
104470,-100,4,2,1,30,0,0
104970,-100,4,2,1,60,0,0
108470,-100,4,2,1,30,0,0
108970,-100,4,2,1,60,0,0
112720,-100,4,2,1,80,0,0
128470,-100,4,2,1,60,0,0
132470,-100,4,2,1,30,0,0
132970,-100,4,2,1,60,0,0
133595,-100,4,2,2,50,0,0
133845,-100,4,2,1,60,0,0
136720,-100,4,2,2,30,0,0
136845,-100,4,2,1,60,0,0
140470,-100,4,2,1,30,0,0
140845,-100,4,2,2,20,0,0
141095,-100,4,2,2,25,0,0
141845,-100,4,2,2,40,0,0
142095,-100,4,2,2,25,0,0
142345,-100,4,2,2,55,0,0
142595,-100,4,2,1,40,0,0
143595,-100,4,2,1,45,0,0
144220,-100,4,2,1,50,0,0
144720,-100,4,2,1,100,0,0
144845,-100,4,2,1,50,0,0
148470,-100,4,2,1,45,0,0
148970,-100,4,2,1,50,0,0
152470,-100,4,2,1,40,0,0
152970,-100,4,2,1,50,0,0
156470,-100,4,2,1,30,0,0
156970,-100,4,2,1,50,0,0
159595,-100,4,2,1,25,0,0
160220,-100,4,2,1,35,0,0
160720,-100,4,2,1,100,0,0
160845,-100,4,2,1,60,0,0
164470,-100,4,2,1,30,0,0
164970,-100,4,2,1,60,0,0
168470,-100,4,2,1,30,0,0
168970,-100,4,2,1,60,0,0
174720,-100,4,2,1,40,0,0
192720,-133.333333333333,4,2,1,40,0,0
197220,-133.333333333333,4,2,0,40,0,0
198220,-133.333333333333,4,2,1,40,0,0
204470,-133.333333333333,4,2,1,20,0,0
204595,-133.333333333333,4,2,1,40,0,0
206720,-100,4,2,1,60,0,0
207595,-100,4,1,0,28,0,0
208220,-100,4,1,0,35,0,0
208720,-100,4,2,1,100,0,0
208845,-100,4,2,1,60,0,0
216470,-100,4,2,1,30,0,0
216970,-100,4,2,1,60,0,0
220470,-100,4,2,1,30,0,0
220970,-100,4,2,1,60,0,0
223595,-100,4,2,1,25,0,0
224220,-100,4,2,1,35,0,0
224720,-100,4,2,1,100,0,0
224845,-100,4,2,1,60,0,0
232470,-100,4,2,1,30,0,0
232970,-100,4,2,1,60,0,0
236470,-100,4,2,1,30,0,0
236970,-100,4,2,1,60,0,0
238970,-100,4,2,1,30,0,0
240720,-100,4,2,1,5,0,0

[Colours]
Combo1 : 255,255,128
Combo2 : 128,255,128
Combo3 : 255,162,208
Combo4 : 147,255,255
SliderBorder : 17,41,70

[HitObjects]
216,192,730,2,0,B|108:192,2,90,0|0|0,0:0|0:0|0:0,0:0:0
256,272,1505,2,0,B|340:272|388:192|340:112|256:112,1,270,0|0,0:0|0:0,0:0:0
292,28,2540,2,0,B|416:68|480:192|416:316|292:356,1,450,0|0,0:0|0:0,0:0:0
224,300,4092,1,0,0:0:0
296,248,4350,1,0,0:0:0
224,192,4609,1,0,0:0:0
296,136,4867,6,0,B|280:76|168:76|152:132,1,180,0|0,0:0|0:0,0:0:0
112,52,5643,2,0,B|40:84|48:184|112:208|112:208|76:296,1,270,0|0,0:0|0:0,0:0:0
16,336,6678,2,0,B|84:396|152:328|152:328|256:228|360:328|360:328|428:396|496:336,1,540,0|0,0:0|0:0,0:0:0
296,192,8820,6,0,B|404:192,2,90,0|0|0,0:0|0:0|0:0,0:0:0
256,272,9589,2,0,B|172:272|124:192|172:112|256:112,1,270,0|0,0:0|0:0,0:0:0
220,28,10614,2,0,B|96:68|32:192|96:316|220:356,1,450,0|0,0:0|0:0,0:0:0
308,336,12153,1,0,0:0:0
384,276,12409,1,0,0:0:0
416,192,12666,1,0,0:0:0
384,108,12922,6,0,B|256:100|256:100|176:108|116:192|176:276|256:284|256:284|384:276,1,540,0|0,0:0|0:0,0:0:0
428,192,14720,6,0,B|364:192,7,45,2|2|2|2|2|2|2|2,0:0|0:0|0:0|0:0|0:0|0:0|0:0|0:0,0:0:0
336,192,15720,2,0,B|308:192,16,22.5,2|2|2|2|2|2|2|2|2|2|2|2|2|2|2|2|4,0:0|0:0|0:0|0:0|0:0|0:0|0:0|0:0|0:0|0:0|0:0|0:0|0:0|0:0|0:0|0:0|0:0,0:0:0
396,56,24720,5,2,0:0:0
452,120,24970,1,0,0:0:0
396,192,25220,1,0,0:0:0
344,120,25470,1,0,0:0:0
344,120,25720,2,0,B|148:120,1,180,8|0,0:0|0:0,0:0:0
164,120,26470,1,2,0:0:0
104,52,26720,2,0,B|40:72|40:172|104:192,1,180,2|0,0:0|0:0,0:0:0
188,216,27470,1,0,0:0:0
276,220,27720,5,8,0:0:0
368,220,27970,1,0,0:0:0
384,224,28095,1,0,0:0:0
400,228,28220,1,4,0:0:0
416,232,28345,1,0,0:0:0
432,236,28470,2,0,B|488:236,2,45,2|2|2,0:0|0:0|0:0,0:0:0
380,308,28970,5,0,0:0:0
364,312,29095,1,0,0:0:0
348,316,29220,1,0,0:0:0
332,320,29345,1,0,0:0:0
316,324,29470,2,0,B|264:324,2,45,0|0|8,0:0|0:0|0:0,0:0:0
404,304,29970,5,0,0:0:0
476,180,30220,1,0,0:0:0
332,192,30470,1,2,0:0:0
188,200,30720,5,2,0:0:0
156,204,31095,1,2,0:0:0
124,208,31470,1,2,0:0:0
36,224,31720,6,0,B|36:256,6,22.5,0|0|0|0|0|0|0,0:0|0:0|0:0|0:0|0:0|0:0|0:0,0:0:0
36,180,32220,2,0,B|36:144,6,22.5
76,204,32720,5,2,0:0:0
140,268,32970,1,0,0:0:0
216,316,33220,1,0,0:0:0
304,336,33470,1,0,0:0:0
304,336,33720,2,0,B|388:344|424:256,1,135,8|0,0:0|0:0,0:0:0
436,236,34220,1,0,0:0:0
468,144,34470,2,0,B|480:96|472:44|412:8|352:32,1,180,2|0,0:0|0:0,0:0:0
332,32,35095,2,0,B|288:44,3,45
200,68,35720,5,8,0:0:0
96,168,35970,1,0,0:0:0
176,288,36220,1,4,0:0:0
284,192,36470,1,2,0:0:0
284,192,36595,1,2,0:0:0
284,192,36720,1,2,0:0:0
196,100,36970,5,0,0:0:0
196,100,37095,1,0,0:0:0
196,100,37220,2,0,B|160:188,1,90,0|0,0:0|0:0,0:0:0
256,268,37720,1,8,0:0:0
440,224,38095,2,0,P|456:168,1,45
348,112,38470,1,2,0:0:0
354,93,38595,1,0,0:0:0
360,74,38720,1,2,0:0:0
180,28,39095,5,2,0:0:0
56,84,39470,1,2,0:0:0
52,100,39595,1,0,0:0:0
48,116,39720,1,12,0:0:0
20,200,39970,1,0,0:0:0
108,184,40220,1,4,0:0:0
80,272,40470,1,0,0:0:0
168,248,40720,5,2,0:0:0
308,332,40970,1,0,0:0:0
244,184,41220,1,0,0:0:0
204,340,41470,1,0,0:0:0
328,236,41720,1,8,0:0:0
328,236,42095,6,0,B|376:200,1,45
444,168,42470,2,0,B|484:200,2,45,2|2|2,0:0|0:0|0:0,0:0:0
376,108,42970,1,0,0:0:0
364,96,43095,1,0,0:0:0
348,84,43220,1,0,0:0:0
336,72,43345,1,0,0:0:0
324,60,43470,2,0,B|280:16,2,45,0|0|8,0:0|0:0|0:0,0:0:0
312,168,43970,5,0,0:0:0
236,244,44220,1,4,0:0:0
128,264,44470,1,2,0:0:0
128,264,44595,1,2,0:0:0
128,264,44720,2,0,B|68:272|8:240|-4:160|24:96|84:72,1,270,2|0,0:0|0:0,0:0:0
84,72,45595,1,0,0:0:0
100,64,45720,2,0,B|144:48|204:72|224:128|204:184,1,180,8|0,0:0|0:0,0:0:0
120,180,46470,5,2,0:0:0
120,180,46595,1,0,0:0:0
120,180,46720,2,0,B|152:236|196:260|256:248|304:204|284:124,1,270,2|2,0:0|0:0,0:0:0
392,44,47720,6,0,B|400:100,3,45,0|0|0|0,0:0|0:0|0:0|0:0,0:0:0
408,132,48220,2,0,B|412:164,8,22.5,0|0|0|0|0|0|0|0|2,0:0|0:0|0:0|0:0|0:0|0:0|0:0|0:0|0:0,0:0:0
444,236,48970,5,0,0:0:0
444,236,49095,1,0,0:0:0
444,236,49220,2,0,B|396:332,1,90
300,344,49720,2,0,B|340:263,1,90,8|0,0:0|0:0,0:0:0
296,164,50220,2,0,B|248:260,1,90,0|2,0:0|0:0,0:0:0
255,244,50720,1,2,0:0:0
148,264,50970,5,0,0:0:0
148,264,51095,1,0,0:0:0
148,264,51220,2,0,B|109:304|35:294,1,90
36,156,51720,2,0,B|5:109|31:39,1,90,8|0,0:0|0:0,0:0:0
164,80,52220,2,0,B|204:56|252:76,1,90,4|2,0:0|0:0,0:0:0
272,80,52595,1,2,0:0:0
292,92,52720,1,2,0:0:0
372,140,52970,1,0,0:0:0
444,196,53220,2,0,B|488:248|456:340|380:328,1,180,0|8,0:0|0:0,0:0:0
312,220,54095,6,0,B|272:180,1,45,0|0,0:0|0:0,0:0:0
188,192,54470,2,0,B|224:232,2,45,2|0|2,0:0|0:0|0:0,0:0:0
148,112,54970,1,0,0:0:0
148,112,55095,1,2,0:0:0
88,180,55345,1,0,0:0:0
88,180,55470,1,2,0:0:0
124,264,55720,1,4,0:0:0
296,316,56220,1,4,0:0:0
384,316,56470,2,0,B|440:316,2,45,2|2|2,0:0|0:0|0:0,0:0:0
340,236,56970,5,0,0:0:0
340,236,57095,1,0,0:0:0
340,236,57220,2,0,B|288:240|252:184,1,90
368,100,57720,2,0,B|383:50|450:38,1,90,8|0,0:0|0:0,0:0:0
460,184,58220,2,0,B|486:228|452:285,1,90,0|2,0:0|0:0,0:0:0
328,324,58720,1,2,0:0:0
192,296,58970,5,0,0:0:0
192,296,59095,1,0,0:0:0
192,296,59220,2,0,B|96:276,1,90
12,164,59720,2,0,B|100:182,1,90,8|0,0:0|0:0,0:0:0
188,200,60220,1,4,0:0:0
276,216,60470,1,2,0:0:0
276,216,60595,1,2,0:0:0
276,216,60720,1,2,0:0:0
356,172,60970,1,0,0:0:0
372,164,61095,1,0,0:0:0
388,156,61220,1,0,0:0:0
404,148,61345,1,0,0:0:0
420,140,61470,1,0,0:0:0
436,132,61595,1,0,0:0:0
452,124,61720,1,8,0:0:0
432,36,61970,5,0,0:0:0
352,76,62220,1,0,0:0:0
268,40,62470,1,2,0:0:0
268,40,62595,1,0,0:0:0
268,40,62720,1,2,0:0:0
144,96,63095,1,2,0:0:0
28,164,63470,1,2,0:0:0
100,220,63720,1,4,0:0:0
244,328,64220,1,4,0:0:0
328,296,64470,5,2,0:0:0
344,288,64595,1,2,0:0:0
360,280,64720,1,2,0:0:0
440,240,64970,1,0,0:0:0
424,232,65095,1,0,0:0:0
408,224,65220,2,0,B|320:176,1,90
412,124,65720,2,0,B|328:80,1,90,8|0,0:0|0:0,0:0:0
256,40,66220,1,0,0:0:0
168,44,66470,5,2,0:0:0
56,132,66720,1,2,0:0:0
24,216,66970,5,0,0:0:0
24,216,67095,1,0,0:0:0
24,216,67220,1,0,0:0:0
112,252,67470,1,0,0:0:0
184,196,67720,2,0,B|260:120,1,90,8|0,0:0|0:0,0:0:0
392,108,68220,2,0,B|328:171,1,90,4|2,0:0|0:0,0:0:0
316,184,68595,1,2,0:0:0
304,196,68720,5,2,0:0:0
240,260,68970,1,0,0:0:0
180,328,69220,2,0,B|136:328,4,45,0|0|0|0|8,0:0|0:0|0:0|0:0|0:0,0:0:0
316,328,70095,2,0,B|372:328,1,45
428,268,70470,5,2,0:0:0
472,192,70720,2,0,B|496:120|436:48,2,135,2|2|2,0:0|0:0|0:0,0:0:0
456,236,71595,1,0,0:0:0
428,268,71720,2,0,B|392:328|304:324,1,135,4|0,0:0|0:0,0:0:0
268,320,72220,1,4,0:0:0
180,304,72470,1,2,0:0:0
180,304,72595,1,2,0:0:0
180,304,72720,1,2,0:0:0
100,260,72970,6,0,B|52:296,2,45
172,204,73470,2,0,B|264:136,1,90,0|8,0:0|0:0,0:0:0
316,100,73970,2,0,B|416:100,2,90,0|0|2,0:0|0:0|0:0,0:0:0
240,48,74720,1,2,0:0:0
152,36,74970,5,0,0:0:0
152,36,75095,1,0,0:0:0
152,36,75220,2,0,B|96:36|64:76,1,90
20,140,75720,1,8,0:0:0
4,228,75970,1,0,0:0:0
36,312,76220,1,4,0:0:0
116,352,76470,6,0,B|172:376|256:344|264:264,1,180,2|0,0:0|0:0,0:0:0
264,264,77095,1,0,0:0:0
264,248,77220,1,0,0:0:0
260,232,77345,1,0,0:0:0
252,216,77470,1,0,0:0:0
212,136,77720,1,8,0:0:0
124,148,77970,5,0,0:0:0
156,64,78220,1,0,0:0:0
244,48,78470,1,2,0:0:0
244,48,78595,1,0,0:0:0
244,48,78720,1,2,0:0:0
376,72,79095,1,2,0:0:0
432,196,79470,1,2,0:0:0
460,280,79720,2,0,B|484:276,6,22.5,0|0|0|0|0|0|0,0:0|0:0|0:0|0:0|0:0|0:0|0:0,0:0:0
416,288,80220,2,0,B|392:292,8,22.5,0|0|0|0|0|0|0|0|2,0:0|0:0|0:0|0:0|0:0|0:0|0:0|0:0|0:0,0:0:0
328,304,80970,5,0,0:0:0
240,320,81220,1,0,0:0:0
152,336,81470,2,0,B|100:340|56:308,2,90,0|8|0,0:0|0:0|0:0,0:0:0
120,252,82220,1,0,0:0:0
120,252,82470,2,0,B|120:192|168:124|236:116,1,180,2|0,0:0|0:0,0:0:0
252,116,83095,1,0,0:0:0
284,116,83220,2,0,B|332:116,2,45
252,200,83720,5,8,0:0:0
204,276,83970,1,0,0:0:0
128,324,84220,1,4,0:0:0
48,284,84470,1,2,0:0:0
48,284,84595,1,2,0:0:0
48,284,84720,2,0,B|0:260|-12:160|36:96,1,180,2|0,0:0|0:0,0:0:0
92,180,85470,6,0,B|92:112|144:52|224:52,1,180
188,144,86220,1,0,0:0:0
276,116,86470,1,2,0:0:0
364,96,86720,2,0,B|436:76|496:120,2,135,2|2|2,0:0|0:0|0:0,0:0:0
420,168,87720,1,4,0:0:0
352,336,88220,1,4,0:0:0
172,320,88720,5,2,0:0:0
84,340,88970,1,0,0:0:0
172,320,89220,1,0,0:0:0
244,264,89470,1,0,0:0:0
244,264,89595,1,0,0:0:0
244,264,89720,2,0,B|312:204|312:204|272:164|300:96,1,180,8|0,0:0|0:0,0:0:0
208,160,90470,2,0,B|192:116|220:72|220:72|132:80,1,180,2|0,0:0|0:0,0:0:0
44,56,91220,1,0,0:0:0
40,72,91345,1,0,0:0:0
36,88,91470,1,0,0:0:0
32,104,91595,1,0,0:0:0
28,120,91720,5,8,0:0:0
8,208,91970,1,0,0:0:0
24,296,92220,1,4,0:0:0
104,336,92470,1,2,0:0:0
104,336,92595,1,2,0:0:0
104,336,92720,2,0,B|188:368|188:368|184:320|232:296,1,180,2|0,0:0|0:0,0:0:0
280,372,93470,2,0,B|328:356|324:300|324:300|440:332,1,180
480,268,94220,1,0,0:0:0
452,184,94470,1,2,0:0:0
376,232,94720,5,2,0:0:0
272,144,95095,1,2,0:0:0
168,56,95470,1,2,0:0:0
80,64,95720,6,8,B|40:72,6,22.5,2|2|2|2|2|2|2,0:0|0:0|0:0|0:0|0:0|0:0|0:0,0:0:0
68,108,96220,2,0,B|32:112,8,22.5,2|2|2|2|2|2|2|2|2,0:0|0:0|0:0|0:0|0:0|0:0|0:0|0:0|0:0,0:0:0
152,144,96970,5,0,0:0:0
200,220,97220,1,0,0:0:0
188,308,97470,2,0,B|112:356|112:356|32:356|16:272,1,225
16,232,98220,1,0,0:0:0
24,144,98470,2,0,B|24:84|80:28|156:32,1,180,2|0,0:0|0:0,0:0:0
164,36,99095,1,0,0:0:0
188,40,99220,1,0,0:0:0
208,48,99345,1,0,0:0:0
228,60,99470,1,0,0:0:0
304,108,99720,5,8,0:0:0
376,160,99970,2,0,B|408:124,2,45,0|0|4,0:0|0:0|0:0,0:0:0
416,240,100470,1,2,0:0:0
412,260,100595,1,2,0:0:0
408,276,100720,2,0,B|376:360|376:360|344:316|288:304,1,180,2|0,0:0|0:0,0:0:0
212,304,101470,2,0,B|168:312|152:360|152:360|76:320|96:196,1,270
116,112,102470,1,2,0:0:0
192,164,102720,5,2,0:0:0
332,292,103095,1,2,0:0:0
448,140,103470,1,2,0:0:0
332,92,103720,2,0,B|304:52,1,45,4|0,0:0|0:0,0:0:0
272,84,103970,2,0,B|232:32,1,45
200,44,104220,1,4,0:0:0
68,108,104470,5,2,0:0:0
68,108,104595,1,2,0:0:0
68,108,104720,2,0,B|36:152|76:212,1,90,2|0,0:0|0:0,0:0:0
112,272,105220,1,0,0:0:0
184,328,105470,2,0,B|260:376|260:376|256:316|320:260|384:284,1,270
444,348,106470,2,0,B|492:312|480:200|400:188,1,180,2|0,0:0|0:0,0:0:0
400,188,107095,1,0,0:0:0
376,184,107220,1,0,0:0:0
352,188,107345,1,0,0:0:0
332,200,107470,1,0,0:0:0
252,244,107720,5,8,0:0:0
128,316,107970,1,0,0:0:0
216,324,108220,1,4,0:0:0
144,200,108470,1,2,0:0:0
144,200,108595,1,2,0:0:0
144,200,108720,2,0,B|148:104|264:80,1,180,2|0,0:0|0:0,0:0:0
403,205,109470,2,0,B|398:306|280:323,1,180,0|0,0:0|0:0,0:0:0
256,192,110220,1,0,0:0:0
256,192,110470,1,2,0:0:0
256,192,110720,12,2,112720,0:0:0
256,192,128720,5,2,0:0:0
256,104,128970,1,0,0:0:0
256,104,129095,1,0,0:0:0
256,104,129220,2,0,B|352:56,1,90
340,244,129720,2,0,B|259:284,1,90,8|0,0:0|0:0,0:0:0
152,140,130220,2,0,B|111:59,2,90,0|2|2,0:0|0:0|0:0,0:0:0
104,312,130970,5,0,0:0:0
104,312,131095,1,0,0:0:0
104,312,131220,2,0,B|208:352,1,90
408,312,131720,2,0,B|304:352,1,90,8|0,0:0|0:0,0:0:0
256,284,132220,2,0,B|256:180,1,90,4|2,0:0|0:0,0:0:0
256,176,132595,1,2,0:0:0
256,160,132720,1,2,0:0:0
256,72,132970,1,0,0:0:0
272,68,133095,1,0,0:0:0
288,64,133220,1,0,0:0:0
304,60,133345,1,0,0:0:0
320,56,133470,1,0,0:0:0
400,96,133720,5,4,0:0:0
256,324,134095,1,0,0:0:0
112,96,134470,1,2,0:0:0
48,156,134720,2,0,B|0:220|52:284,1,135,2|2,0:0|0:0,0:0:0
168,344,135470,2,0,B|212:300|176:244,1,90,2|4,0:0|0:0,0:0:0
112,96,136220,1,4,0:0:0
192,52,136470,5,2,0:0:0
192,52,136595,1,2,0:0:0
192,52,136720,2,0,B|304:68,1,90,4|0,0:0|0:0,0:0:0
300,68,137095,1,0,0:0:0
317,70,137220,2,0,B|429:86,1,90,0|0,0:0|0:0,0:0:0
460,156,137720,2,0,B|440:208|360:228,1,90,8|0,0:0|0:0,0:0:0
448,288,138220,2,0,B|392:316|324:264,1,90,0|2,0:0|0:0,0:0:0
212,224,138720,5,2,0:0:0
164,148,138970,1,0,0:0:0
164,148,139095,1,0,0:0:0
164,148,139220,2,0,B|116:120|48:152,1,90
124,220,139720,2,0,B|64:220|28:264,2,90,8|0|4,0:0|0:0|0:0,0:0:0
120,312,140470,1,2,0:0:0
120,312,140595,1,2,0:0:0
120,312,140720,2,0,B|152:352|220:352,1,90,2|4,0:0|0:0,0:0:0
288,340,141220,5,0,0:0:0
384,308,141470,1,0,0:0:0
444,220,141720,1,0,0:0:0
440,104,141970,1,0,0:0:0
336,36,142220,1,4,0:0:0
200,36,142470,1,4,0:0:0
92,128,142720,6,0,B|52:156|56:212,1,90,2|2,0:0|0:0,0:0:0
128,308,143220,2,0,B|168:280|164:224,1,90,2|2,0:0|0:0,0:0:0
256,144,143720,2,0,B|320:168,1,45,2|2,0:0|0:0,0:0:0
288,224,143970,2,0,B|348:208,1,45,2|2,0:0|0:0,0:0:0
376,192,144220,2,0,B|404:192,8,22.5,2|2|2|2|2|2|2|2|2,0:0|0:0|0:0|0:0|0:0|0:0|0:0|0:0|0:0,0:0:0
420,112,144970,5,0,0:0:0
484,176,145220,1,0,0:0:0
468,264,145470,2,0,B|448:384|320:356,1,180
252,340,146220,1,0,0:0:0
176,296,146470,2,0,B|108:236|108:236|160:200|156:128,1,180,2|0,0:0|0:0,0:0:0
156,144,147095,1,0,0:0:0
152,128,147220,1,0,0:0:0
144,112,147345,1,0,0:0:0
132,100,147470,1,0,0:0:0
40,88,147720,5,8,0:0:0
24,196,147970,1,0,0:0:0
72,292,148220,1,4,0:0:0
168,344,148470,1,2,0:0:0
168,344,148595,1,2,0:0:0
168,344,148720,2,0,B|248:384|340:308,1,180,2|0,0:0|0:0,0:0:0
428,344,149470,2,0,B|444:240|336:212|336:212|392:140,1,270
452,64,150470,1,2,0:0:0
356,40,150720,5,2,0:0:0
284,108,150970,2,0,P|244:140,1,45,0|2,0:0|0:0,0:0:0
192,52,151345,2,0,P|136:92,1,45,0|2,0:0|0:0,0:0:0
72,136,151720,1,4,0:0:0
140,320,152220,1,4,0:0:0
248,336,152470,5,2,0:0:0
248,336,152595,1,2,0:0:0
248,336,152720,2,0,B|380:320,1,90,2|0,0:0|0:0,0:0:0
444,336,153220,1,0,0:0:0
444,336,153470,2,0,B|508:260|448:160,1,180
364,160,154220,1,0,0:0:0
400,76,154470,2,0,B|324:8|228:56,1,180,2|0,0:0|0:0,0:0:0
212,64,155095,1,0,0:0:0
192,76,155220,1,0,0:0:0
176,92,155345,1,0,0:0:0
164,112,155470,1,0,0:0:0
116,188,155720,5,8,0:0:0
36,288,155970,1,0,0:0:0
36,200,156220,1,4,0:0:0
120,292,156470,1,2,0:0:0
120,292,156595,1,2,0:0:0
120,292,156720,2,0,B|170:369|288:304,1,180,2|0,0:0|0:0,0:0:0
252,236,157470,2,0,B|312:196|384:248|380:320,1,180
292,312,158220,1,0,0:0:0
292,312,158470,2,0,B|392:168,1,135,2|0,0:0|0:0,0:0:0
412,216,158970,2,0,B|488:132|388:24,1,180,0|2,0:0|0:0,0:0:0
320,48,159720,6,0,B|356:36,6,22.5,2|2|2|2|2|2|2,0:0|0:0|0:0|0:0|0:0|0:0|0:0,0:0:0
276,64,160220,2,0,B|244:76,8,22.5,2|2|2|2|2|2|2|2|2,0:0|0:0|0:0|0:0|0:0|0:0|0:0|0:0|0:0,0:0:0
172,92,160970,5,0,0:0:0
76,144,161220,1,0,0:0:0
40,244,161470,1,0,0:0:0
40,244,161595,1,0,0:0:0
40,244,161720,1,8,0:0:0
232,340,162220,2,0,B|272:360|320:356,2,90,0|2|2,0:0|0:0|0:0,0:0:0
132,296,162970,1,0,0:0:0
140,276,163095,1,0,0:0:0
148,256,163220,1,0,0:0:0
160,240,163345,1,0,0:0:0
176,224,163470,1,0,0:0:0
268,164,163720,5,8,0:0:0
368,120,163970,1,0,0:0:0
408,260,164220,1,4,0:0:0
444,160,164470,1,2,0:0:0
444,160,164595,1,2,0:0:0
444,160,164720,2,0,B|480:92|432:16|344:28,1,180,2|0,0:0|0:0,0:0:0
272,68,165470,5,0,0:0:0
164,48,165720,2,0,B|160:104,1,45,8|0,0:0|0:0,0:0:0
52,96,166095,2,0,B|80:168,1,45
48,244,166470,2,0,B|95:280|153:244|134:206|91:208|89:276|144:300,1,180,2|0,0:0|0:0,0:0:0
212,320,167470,5,2,0:0:0
284,312,167970,1,0,0:0:0
436,216,168470,5,2,0:0:0
436,216,168595,1,2,0:0:0
436,216,168720,2,0,B|472:176|468:128,1,90,2|0,0:0|0:0,0:0:0
380,148,169220,1,0,0:0:0
408,64,169470,2,0,B|352:48|280:96|292:168,1,180
288,252,170220,1,0,0:0:0
236,324,170470,1,2,0:0:0
236,324,170595,1,0,0:0:0
236,324,170720,2,0,B|196:352|128:364|68:332|56:248|72:196,1,270,2|0,0:0|0:0,0:0:0
120,132,171720,5,8,0:0:0
248,68,171970,1,0,0:0:0
200,144,172220,1,4,0:0:0
344,164,172470,1,2,0:0:0
264,208,172720,2,0,B|384:352,1,180,2|0,0:0|0:0,0:0:0
394,231,173470,2,0,B|240:324,1,180
156,292,174220,1,0,0:0:0
108,216,174470,1,2,0:0:0
256,192,174595,12,6,176720,0:0:0
436,124,192720,5,4,0:0:0
376,68,192970,1,0,0:0:0
296,56,193220,1,0,0:0:0
216,76,193470,2,0,B|140:88|96:168,2,135.000005149842,0|0|0,0:0|0:0|0:0,0:0:0
216,76,194720,1,0,0:0:0
232,156,194970,5,0,0:0:0
274,225,195220,1,0,0:0:0
348,261,195470,2,0,B|415:287|495:234,2,135.000005149842,0|0|0,0:0|0:0|0:0,0:0:0
376,184,196720,2,0,B|412:208|432:268|416:328|352:360,1,202.500007724762,0|2,0:0|0:0,0:0:0
200,344,197970,1,2,0:0:0
56,272,198470,5,0,0:0:0
52,192,198720,2,0,B|48:112|128:56,1,135.000005149842
144,148,199470,2,0,B|188:80|284:96,1,135.000005149842
372,212,200470,1,0,0:0:0
292,196,200720,2,0,B|216:192|172:252,1,135.000005149842,0|0,0:0|0:0,0:0:0
120,308,201470,1,0,0:0:0
360,352,202220,5,0,0:0:0
416,296,202470,2,0,B|480:248|464:164,1,135.000005149842,0|0,0:0|0:0,0:0:0
388,36,203470,1,0,0:0:0
228,40,203970,2,0,B|156:28|100:88,1,135.000005149842,0|0,0:0|0:0,0:0:0
52,144,204720,2,0,B|0:252|104:332,1,202.500007724762
124,236,205720,2,0,B|224:160|320:256,1,202.500007724762
388,316,206720,5,2,0:0:0
468,244,206970,1,0,0:0:0
468,244,207095,1,2,0:0:0
456,136,207345,1,0,0:0:0
456,136,207470,1,2,0:0:0
388,52,207720,2,0,B|380:16,6,22.5
336,52,208220,2,0,B|328:12,8,22.5,0|0|0|0|0|0|0|0|2,0:0|0:0|0:0|0:0|0:0|0:0|0:0|0:0|0:0,0:0:0
340,160,208970,5,0,0:0:0
312,264,209220,1,0,0:0:0
176,352,209470,1,0,0:0:0
204,248,209720,1,8,0:0:0
232,144,209970,2,0,B|276:120,2,45
132,188,210470,2,0,B|68:236|-4:188|20:96,1,180,2|0,0:0|0:0,0:0:0
20,96,211095,1,0,0:0:0
24,76,211220,1,0,0:0:0
40,60,211345,1,0,0:0:0
60,48,211470,1,0,0:0:0
168,44,211720,5,8,0:0:0
328,44,211970,1,0,0:0:0
256,124,212220,1,4,0:0:0
416,124,212470,1,2,0:0:0
340,204,212720,6,0,B|476:324,1,180,2|0,0:0|0:0,0:0:0
472,204,213470,2,0,B|336:324,1,180
248,260,214220,1,0,0:0:0
248,260,214345,2,0,P|228:324,1,45,0|2,0:0|0:0,0:0:0
128,320,214720,2,0,P|156:252,1,45,2|0,0:0|0:0,0:0:0
36,276,215095,2,0,B|64:212,1,45,2|0,0:0|0:0,0:0:0
84,132,215470,1,2,0:0:0
124,32,215720,5,4,0:0:0
388,352,216220,1,4,0:0:0
444,260,216470,5,2,0:0:0
444,260,216595,1,2,0:0:0
444,260,216720,2,0,B|496:224|472:144,1,90,2|0,0:0|0:0,0:0:0
408,100,217220,2,0,B|376:152|412:204,1,90
292,192,217720,2,0,B|316:248|380:248,1,90,8|0,0:0|0:0,0:0:0
332,124,218220,1,0,0:0:0
332,124,218470,2,0,B|320:72|260:48|196:52|160:96,1,180,2|0,0:0|0:0,0:0:0
140,92,219095,2,0,B|128:144,1,45
92,160,219345,2,0,B|80:216,1,45
32,340,219720,5,8,0:0:0
140,320,219970,1,0,0:0:0
248,300,220220,1,4,0:0:0
344,348,220470,1,2,0:0:0
344,348,220595,1,2,0:0:0
344,348,220720,2,0,B|404:288|352:164,1,180,2|0,0:0|0:0,0:0:0
456,224,221470,6,0,B|468:140|340:72,1,180
468,68,222220,1,0,0:0:0
468,68,222470,2,0,B|424:-20|264:16,1,225,2|2,0:0|0:0,0:0:0
108,56,223470,1,2,0:0:0
48,148,223720,2,0,B|40:180,6,22.5,2|2|2|2|2|2|2,0:0|0:0|0:0|0:0|0:0|0:0|0:0,0:0:0
32,200,224220,2,0,B|24:232,8,22.5,2|2|2|2|2|2|2|2|2,0:0|0:0|0:0|0:0|0:0|0:0|0:0|0:0|0:0,0:0:0
140,200,224970,5,0,0:0:0
76,288,225220,1,0,0:0:0
172,340,225470,1,0,0:0:0
236,252,225720,2,0,B|440:200,1,180,8|0,0:0|0:0,0:0:0
420,316,226470,2,0,B|312:296|316:180,1,180,2|0,0:0|0:0,0:0:0
320,168,227095,1,0,0:0:0
324,144,227220,1,0,0:0:0
332,124,227345,1,0,0:0:0
344,104,227470,1,0,0:0:0
404,180,227720,6,0,B|460:96,1,90,8|0,0:0|0:0,0:0:0
244,128,228220,2,0,B|188:212,1,90,4|2,0:0|0:0,0:0:0
372,336,228720,2,0,B|264:384|212:272,1,180,2|0,0:0|0:0,0:0:0
120,324,229470,2,0,B|77:273|96:181|179:148,1,180
48,124,230220,1,0,0:0:0
48,124,230470,2,0,P|104:64|216:52,1,180
348,148,231470,5,0,0:0:0
276,312,231970,1,0,0:0:0
92,328,232470,5,2,0:0:0
92,328,232595,1,2,0:0:0
92,328,232720,2,0,B|92:204,1,90,2|0,0:0|0:0,0:0:0
192,284,233220,2,0,B|252:180,1,90
472,48,233720,2,0,B|412:152,1,90,8|0,0:0|0:0,0:0:0
320,100,234220,1,0,0:0:0
320,100,234470,2,0,B|312:112|312:112|328:128|328:128|320:136|320:136|336:152|336:152|328:160|328:160|344:176|344:176|336:184|336:184|352:200|352:200|344:208|344:208|360:224|360:224|352:232,1,180,2|0,0:0|0:0,0:0:0
360,244,235095,1,0,0:0:0
364,260,235220,1,0,0:0:0
368,276,235345,1,0,0:0:0
372,292,235470,1,0,0:0:0
264,304,235720,6,0,B|208:304|180:360,1,90,8|0,0:0|0:0,0:0:0
164,240,236220,2,0,B|112:218|108:155,1,90,4|2,0:0|0:0,0:0:0
108,152,236595,1,2,0:0:0
112,128,236720,2,0,B|116:68|184:24|272:20|332:64|344:148|324:204,1,360,2|8,0:0|0:0,0:0:0
432,180,237970,2,0,B|428:292|296:340|228:232,1,270,0|2,0:0|0:0,0:0:0
256,192,238970,12,0,242720,0:0:0
