osu file format v14

[General]
AudioFilename: Oraoraora.mp3
AudioLeadIn: 0
PreviewTime: 48640
Countdown: 0
SampleSet: Normal
StackLeniency: 0.7
Mode: 0
LetterboxInBreaks: 0
WidescreenStoryboard: 1

[Editor]
DistanceSpacing: 2
BeatDivisor: 4
GridSize: 4
TimelineZoom: 2.1

[Metadata]
Title:JoJo Sono Chi no Kioku~end of THE WORLD~
TitleUnicode:ジョジョ その血の記憶~end of THE WORLD~
Artist:JO*STARS ~TOMMY, Coda, JIN~
ArtistUnicode:JO*STARS ~TOMMY, Coda, JIN~
Creator:Morbon
Version:asdasd
Source:ジョジョの奇妙な冒険
Tags:jjba stardust crusaders
BeatmapID:1299455
BeatmapSetID:616130

[Difficulty]
HPDrainRate:7
CircleSize:4
OverallDifficulty:8
ApproachRate:9.7
SliderMultiplier:1.8
SliderTickRate:1

[Events]
//Background and Video events
0,0,"781524.jpg",0,0
//Break Periods
//Storyboard Layer 0 (Background)
//Storyboard Layer 1 (Fail)
//Storyboard Layer 2 (Pass)
//Storyboard Layer 3 (Foreground)
//Storyboard Sound Samples

[TimingPoints]
13459,272.727272727273,4,1,0,100,1,0
49459,-80,4,1,0,100,0,1
71277,-80,4,1,0,100,0,0
75640,-80,4,1,0,100,0,1
84368,-100,4,1,0,100,0,0

[HitObjects]
256,192,11140,12,0,13186,0:0:0:0:
128,160,13459,5,0,0:0:0:0:
152,172,13527,1,0,0:0:0:0:
180,164,13595,1,0,0:0:0:0:
188,140,13663,1,0,0:0:0:0:
180,116,13731,1,0,0:0:0:0:
160,96,13799,1,0,0:0:0:0:
152,68,13868,1,0,0:0:0:0:
172,48,13936,1,0,0:0:0:0:
200,44,14004,1,0,0:0:0:0:
228,52,14072,1,0,0:0:0:0:
252,64,14140,1,0,0:0:0:0:
280,64,14209,1,0,0:0:0:0:
308,60,14277,1,0,0:0:0:0:
332,48,14345,1,0,0:0:0:0:
356,36,14413,1,0,0:0:0:0:
384,32,14481,1,0,0:0:0:0:
408,44,14549,5,0,0:0:0:0:
256,320,14686,1,0,0:0:0:0:
128,96,14822,2,0,L|72:-16,1,90
64,320,15095,5,0,0:0:0:0:
288,128,15231,1,0,0:0:0:0:
64,320,15368,1,0,0:0:0:0:
0,32,15504,1,0,0:0:0:0:
416,352,15640,6,0,P|448:320|464:272,2,90
160,256,16049,1,0,0:0:0:0:
416,32,16186,2,0,P|448:64|464:106,2,90
96,96,16595,1,0,0:0:0:0:
384,224,16731,5,0,0:0:0:0:
96,160,16868,1,0,0:0:0:0:
416,128,17004,1,0,0:0:0:0:
64,256,17140,1,0,0:0:0:0:
288,64,17277,5,0,0:0:0:0:
224,320,17413,1,0,0:0:0:0:
192,32,17549,1,0,0:0:0:0:
320,384,17686,1,0,0:0:0:0:
96,32,17822,5,0,0:0:0:0:
60,72,17890,1,0,0:0:0:0:
52,128,17959,1,0,0:0:0:0:
76,176,18027,1,0,0:0:0:0:
128,196,18095,1,0,0:0:0:0:
180,192,18163,1,0,0:0:0:0:
224,160,18231,1,0,0:0:0:0:
252,112,18299,1,0,0:0:0:0:
240,60,18368,1,0,0:0:0:0:
192,32,18436,1,0,0:0:0:0:
144,60,18504,1,0,0:0:0:0:
140,112,18572,1,0,0:0:0:0:
156,164,18640,1,0,0:0:0:0:
196,204,18709,1,0,0:0:0:0:
248,212,18777,1,0,0:0:0:0:
300,200,18845,1,0,0:0:0:0:
328,156,18913,5,0,0:0:0:0:
32,304,19049,1,0,0:0:0:0:
32,304,19322,1,0,0:0:0:0:
203,118,19459,2,0,P|203:58|175:10,1,90
348,276,19731,2,0,P|390:233|444:219,1,90
32,32,20004,5,0,0:0:0:0:
160,352,20140,1,0,0:0:0:0:
160,352,20413,1,0,0:0:0:0:
144,80,20549,2,0,L|24:112,1,90
460,168,20822,2,0,L|340:200,1,90
288,32,21095,5,0,0:0:0:0:
96,256,21277,1,0,0:0:0:0:
384,352,21459,1,0,0:0:0:0:
96,256,21640,5,0,0:0:0:0:
0,16,21822,1,0,0:0:0:0:
0,368,22004,1,0,0:0:0:0:
280,84,22186,5,0,0:0:0:0:
280,84,22322,1,0,0:0:0:0:
248,308,22459,1,0,0:0:0:0:
248,308,22595,1,0,0:0:0:0:
480,32,22731,5,0,0:0:0:0:
480,32,22867,1,0,0:0:0:0:
448,384,23004,1,0,0:0:0:0:
448,384,23140,1,0,0:0:0:0:
160,48,23277,6,0,P|116:44|52:52,1,90
288,32,23549,1,0,0:0:0:0:
352,352,23686,1,0,0:0:0:0:
480,128,23822,1,0,0:0:0:0:
240,224,23959,1,0,0:0:0:0:
32,128,24095,1,0,0:0:0:0:
288,32,24231,1,0,0:0:0:0:
208,336,24368,6,0,B|180:340|180:340|152:228,1,135
0,80,24640,2,0,B|-4:108|-4:108|108:136,1,135
352,208,24913,2,0,B|356:180|356:180|288:132|184:152,1,180
96,352,25459,5,0,0:0:0:0:
480,304,25595,1,0,0:0:0:0:
224,64,25731,1,0,0:0:0:0:
288,352,25868,1,0,0:0:0:0:
22,281,26004,2,0,L|32:192,1,90
393,121,26277,2,0,L|384:32,1,90
316,280,26549,6,0,L|180:236,1,135
48,144,26822,2,0,L|204:132,1,135
384,212,27095,2,0,P|378:145|349:84,1,135
32,64,27368,1,0,0:0:0:0:
224,320,27504,1,0,0:0:0:0:
416,64,27640,5,0,0:0:0:0:
192,128,27777,1,0,0:0:0:0:
256,32,27913,1,0,0:0:0:0:
296,280,28049,2,0,B|248:260|200:268|200:268|160:300,1,135
160,380,28322,1,0,0:0:0:0:
480,352,28459,1,0,0:0:0:0:
352,0,28595,1,0,0:0:0:0:
32,192,28731,6,0,B|36:228|36:228|44:232|44:232|64:300,1,90
176,192,29004,1,0,0:0:0:0:
282,69,29140,1,0,0:0:0:0:
392,360,29277,1,0,0:0:0:0:
232,328,29413,1,0,0:0:0:0:
32,192,29549,1,0,0:0:0:0:
0,32,29685,1,0,0:0:0:0:
32,352,29822,5,0,0:0:0:0:
48,344,30095,1,0,0:0:0:0:
64,336,30368,1,0,0:0:0:0:
80,328,30640,1,0,0:0:0:0:
96,320,30913,5,0,0:0:0:0:
352,224,31049,1,0,0:0:0:0:
356,236,31117,1,0,0:0:0:0:
360,248,31185,1,0,0:0:0:0:
96,32,31322,1,0,0:0:0:0:
276,340,31595,2,0,P|388:352|476:248,1,225
40,56,32004,6,0,L|12:192,1,135
192,352,32413,1,0,0:0:0:0:
344,68,32549,2,0,P|258:41|168:40,1,180
0,212,33095,6,0,B|49:257|61:333|61:333|93:305,1,180
420,304,33640,2,0,B|452:332|452:332|464:256|512:211,1,180
160,160,34186,5,0,0:0:0:0:
480,64,34390,1,0,0:0:0:0:
32,32,34595,1,0,0:0:0:0:
288,352,34799,1,0,0:0:0:0:
192,0,35004,1,0,0:0:0:0:
16,104,35140,1,0,0:0:0:0:
32,256,35277,5,0,0:0:0:0:
32,256,35413,1,0,0:0:0:0:
256,32,35549,1,0,0:0:0:0:
256,32,35686,1,0,0:0:0:0:
32,384,35822,1,0,0:0:0:0:
32,384,35959,1,0,0:0:0:0:
384,32,36095,1,0,0:0:0:0:
384,32,36231,1,0,0:0:0:0:
440,328,36368,6,0,P|396:348|320:352,1,90
256,192,36640,1,0,0:0:0:0:
480,256,36777,1,0,0:0:0:0:
192,352,36913,1,0,0:0:0:0:
160,32,37049,1,0,0:0:0:0:
352,256,37186,1,0,0:0:0:0:
512,32,37322,1,0,0:0:0:0:
124,272,37459,6,0,P|68:284|32:312,1,90
242,62,37731,2,0,P|186:50|150:22,1,90
328,336,38004,1,0,0:0:0:0:
380,329,38072,1,0,0:0:0:0:
427,304,38140,1,0,0:0:0:0:
461,262,38208,1,0,0:0:0:0:
479,212,38276,1,0,0:0:0:0:
476,158,38344,1,0,0:0:0:0:
452,110,38413,1,0,0:0:0:0:
413,74,38481,1,0,0:0:0:0:
363,54,38549,6,0,P|216:52|108:128,1,270
384,368,39095,2,0,P|386:221|310:113,1,270
160,192,39640,5,0,0:0:0:0:
176,32,39777,1,0,0:0:0:0:
400,240,39913,1,0,0:0:0:0:
384,80,40050,1,0,0:0:0:0:
32,304,40186,5,0,0:0:0:0:
48,144,40323,1,0,0:0:0:0:
512,384,40459,1,0,0:0:0:0:
496,224,40596,1,0,0:0:0:0:
32,384,40731,5,0,0:0:0:0:
480,32,41004,1,0,0:0:0:0:
160,352,41277,1,0,0:0:0:0:
32,32,41549,1,0,0:0:0:0:
512,320,41822,1,0,0:0:0:0:
0,192,42095,1,0,0:0:0:0:
416,0,42368,1,0,0:0:0:0:
32,384,42640,1,0,0:0:0:0:
480,224,42913,5,0,0:0:0:0:
96,160,43049,1,0,0:0:0:0:
352,352,43186,1,0,0:0:0:0:
384,0,43322,1,0,0:0:0:0:
448,352,43595,1,0,0:0:0:0:
32,224,43731,1,0,0:0:0:0:
256,192,43868,12,0,45027,0:0:0:0:
16,312,45095,6,0,P|96:344|188:280,1,180
200,84,45504,1,0,0:0:0:0:
200,84,45640,1,0,0:0:0:0:
448,160,45777,1,0,0:0:0:0:
404,336,45913,6,0,P|233:261|398:247,1,450
84,308,46731,1,0,0:0:0:0:
324,296,46868,1,0,0:0:0:0:
204,112,47004,1,0,0:0:0:0:
480,352,47140,1,0,0:0:0:0:
32,160,47277,6,0,P|20:104|20:40,1,90
256,352,47549,1,0,0:0:0:0:
448,160,47686,1,0,0:0:0:0:
32,256,47822,2,0,P|64:284|132:296,1,90
260,176,48095,2,0,P|302:188|336:217,1,90
192,352,48368,5,0,0:0:0:0:
288,32,48504,1,0,0:0:0:0:
384,352,48640,1,0,0:0:0:0:
64,224,48777,1,0,0:0:0:0:
368,144,48913,1,0,0:0:0:0:
160,96,49049,1,0,0:0:0:0:
224,272,49186,1,0,0:0:0:0:
400,48,49322,1,0,0:0:0:0:
64,336,49459,6,0,P|16:288|0:232,1,112.5
368,144,49731,1,0,0:0:0:0:
200,240,49868,1,0,0:0:0:0:
0,152,50004,2,0,P|17:86|64:40,2,112.5,0|0|0,0:3|0:3|0:3,0:3:0:0:
160,352,50413,1,0,0:0:0:0:
288,128,50549,5,0,0:0:0:0:
384,0,50686,1,0,0:0:0:0:
416,224,50822,5,0,0:0:0:0:
438,382,50959,1,0,0:0:0:0:
224,272,51095,5,0,0:0:0:0:
65,294,51232,1,0,0:0:0:0:
108,160,51368,5,0,0:0:0:0:
85,1,51505,1,0,0:0:0:0:
320,320,51640,5,0,0:0:0:0:
65,294,51777,1,0,0:0:0:0:
412,220,51913,1,0,0:0:0:0:
161,198,52050,1,0,0:0:0:0:
244,76,52186,1,0,0:0:0:0:
218,331,52323,1,0,0:0:0:0:
0,192,52459,1,0,0:0:0:0:
320,0,52595,1,0,0:0:0:0:
440,292,52731,6,0,P|336:328|232:268,2,225
480,32,53413,1,0,0:0:0:0:
440,292,53549,1,0,0:0:0:0:
432,12,53686,1,0,0:0:0:0:
480,352,53822,5,0,0:3:0:0:
309,320,53958,1,0,0:3:0:0:
339,151,54095,1,0,0:3:0:0:
508,181,54231,1,0,0:3:0:0:
380,235,54368,5,0,0:3:0:0:
211,265,54504,1,0,0:3:0:0:
181,96,54641,1,0,0:3:0:0:
352,64,54777,1,0,0:3:0:0:
32,352,54913,6,0,L|48:176,1,168.75
140,24,55186,2,0,L|124:200,1,168.75
384,272,55459,2,0,P|256:311|106:274,1,281.25
61,175,56004,5,0,0:0:0:0:
378,25,56186,1,0,0:0:0:0:
348,375,56368,1,0,0:0:0:0:
125,345,56549,5,0,0:0:0:0:
186,0,56731,1,0,0:0:0:0:
454,225,56913,1,0,0:0:0:0:
48,352,57095,6,0,P|32:292|24:224,1,112.5
456,40,57368,2,0,P|472:100|480:168,1,112.5
64,176,57640,1,0,0:0:0:0:
396,144,57777,1,0,0:0:0:0:
64,32,57913,1,0,0:0:0:0:
396,272,58049,1,0,0:0:0:0:
63,287,58186,5,0,0:0:0:0:
480,352,58322,1,0,0:0:0:0:
70,181,58459,2,0,P|51:234|65:291,1,112.5
320,352,58731,5,0,0:0:0:0:
70,181,58868,1,0,0:0:0:0:
512,148,59004,2,0,P|524:212|492:260,1,112.5
160,320,59277,5,0,0:0:0:0:
288,32,59413,1,0,0:0:0:0:
160,320,59549,2,0,P|96:332|24:312,1,112.5
480,253,59822,5,0,0:0:0:0:
96,80,59959,1,0,0:0:0:0:
480,253,60095,2,0,P|508:194|507:119,1,112.5
160,28,60368,6,0,L|32:44,1,112.5
224,352,60640,1,0,0:0:0:0:
32,256,60777,1,0,0:0:0:0:
368,20,60913,2,0,L|496:4,1,112.5
480,253,61186,2,0,L|368:266,1,112.5
64,352,61459,5,0,0:0:0:0:
0,172,61663,1,0,0:0:0:0:
52,12,61868,1,0,0:0:0:0:
259,270,62004,2,0,P|171:342|55:350,1,225
156,172,62413,1,0,0:0:0:0:
352,256,62549,6,0,L|396:360,1,112.5
424,52,62822,2,0,L|320:96,1,112.5
192,96,63095,2,0,L|88:52,1,112.5
116,360,63368,2,0,L|160:256,1,112.5
352,256,63640,5,0,0:0:0:0:
156,172,63777,1,0,0:0:0:0:
288,64,63913,1,0,0:0:0:0:
256,352,64049,1,0,0:0:0:0:
432,320,64186,1,0,0:0:0:0:
64,256,64322,1,0,0:0:0:0:
448,128,64459,1,0,0:0:0:0:
96,64,64595,1,0,0:0:0:0:
336,328,64731,6,0,P|416:288|396:196,1,168.75
452,48,65004,2,0,P|372:88|392:180,1,168.75
180,208,65277,2,0,P|223:274|335:219,1,225
224,32,65686,1,0,0:0:0:0:
44,212,65822,6,0,P|36:300|56:384,1,168.75
336,112,66095,2,0,P|248:104|164:124,1,168.75
344,356,66368,2,0,P|432:364|516:344,1,168.75
116,4,66640,2,0,P|98:86|106:169,1,168.75
224,352,66913,5,0,0:0:0:0:
480,160,67049,1,0,0:0:0:0:
224,32,67186,1,0,0:0:0:0:
288,192,67322,1,0,0:0:0:0:
416,352,67459,1,0,0:0:0:0:
96,224,67595,1,0,0:0:0:0:
352,32,67731,1,0,0:0:0:0:
288,192,67868,1,0,0:0:0:0:
32,352,68004,5,0,0:0:0:0:
384,192,68140,1,0,0:0:0:0:
384,192,68209,1,0,0:0:0:0:
384,192,68277,1,0,0:0:0:0:
32,32,68413,1,0,0:0:0:0:
224,352,68549,1,0,0:0:0:0:
32,32,68686,1,0,0:0:0:0:
376,304,68822,2,0,P|428:272|460:212,1,112.5
216,108,69095,6,0,B|172:212|172:212|112:124|112:124|56:216|56:216|-4:84,2,450
512,352,70595,5,0,0:0:0:0:
0,256,71004,1,0,0:0:0:0:
288,32,71277,5,0,0:0:0:0:
352,352,71413,1,0,0:0:0:0:
288,32,71549,1,0,0:0:0:0:
256,192,71686,12,0,72981,0:0:0:0:
64,128,73049,5,0,0:0:0:0:
64,84,73118,1,0,0:0:0:0:
64,40,73186,2,0,P|152:28|240:48,1,168.75
440,196,73459,6,0,P|280:200|212:96,1,281.25
448,40,73868,1,0,0:0:0:0:
448,40,73936,1,0,0:0:0:0:
448,40,74004,6,0,P|520:108|492:252,1,225
276,352,74413,1,0,0:0:0:0:
240,32,74549,5,0,0:0:0:0:
80,160,74686,1,0,0:0:0:0:
68,216,74754,1,0,0:0:0:0:
56,272,74822,1,0,0:0:0:0:
352,192,74959,1,0,0:0:0:0:
128,44,75095,1,0,0:0:0:0:
72,60,75163,1,0,0:0:0:0:
18,78,75231,1,0,0:0:0:0:
192,288,75368,1,0,0:0:0:0:
448,352,75504,1,0,0:0:0:0:
244,80,75640,5,0,0:0:0:0:
247,306,75777,1,0,0:0:0:0:
163,60,75913,5,0,0:0:0:0:
167,286,76050,1,0,0:0:0:0:
87,39,76186,5,0,0:0:0:0:
91,266,76323,1,0,0:0:0:0:
8,16,76459,5,0,0:0:0:0:
11,242,76596,1,0,0:0:0:0:
244,80,76731,5,0,0:0:0:0:
241,306,76868,1,0,0:0:0:0:
325,60,77004,5,0,0:0:0:0:
321,286,77141,1,0,0:0:0:0:
401,39,77277,5,0,0:0:0:0:
397,266,77414,1,0,0:0:0:0:
480,16,77550,5,0,0:0:0:0:
477,242,77687,1,0,0:0:0:0:
192,64,77822,5,0,0:0:0:0:
167,288,77959,1,0,0:0:0:0:
320,64,78095,5,0,0:0:0:0:
345,288,78232,1,0,0:0:0:0:
116,48,78368,5,0,0:0:0:0:
91,272,78505,1,0,0:0:0:0:
392,40,78640,5,0,0:0:0:0:
417,264,78777,1,0,0:0:0:0:
128,20,78913,5,0,0:0:0:0:
76,368,79049,1,0,0:0:0:0:
384,20,79186,5,0,0:0:0:0:
436,368,79322,1,0,0:0:0:0:
52,8,79459,5,0,0:0:0:0:
0,356,79595,1,0,0:0:0:0:
460,8,79731,5,0,0:0:0:0:
512,356,79867,1,0,0:0:0:0:
0,64,80549,5,0,0:0:0:0:
512,288,80686,1,0,0:0:0:0:
256,192,80822,12,0,84299,0:0:0:0:
96,352,84368,5,0,0:0:0:0:
448,32,84640,1,0,0:0:0:0:
480,224,84913,5,0,0:0:0:0:
320,160,85095,1,0,0:0:0:0:
272,12,85277,1,0,0:0:0:0:
448,320,85459,5,0,0:0:0:0:
232,236,85640,1,0,0:0:0:0:
168,24,85822,1,0,0:0:0:0:
380,380,86004,5,0,0:0:0:0:
144,260,86186,1,0,0:0:0:0:
80,16,86368,1,0,0:0:0:0:
480,352,86549,6,0,B|504:288|500:200|500:200|532:236|508:280,1,225
