osu file format v14

[General]
AudioFilename: Oraoraora.mp3
AudioLeadIn: 0
PreviewTime: 48640
Countdown: 1
SampleSet: Normal
StackLeniency: 0.7
Mode: 0
LetterboxInBreaks: 1
WidescreenStoryboard: 1

[Editor]
Bookmarks: 36368,49459,55731
DistanceSpacing: 2
BeatDivisor: 3
GridSize: 4
TimelineZoom: 1.399999

[Metadata]
Title:JoJo Sono Chi no Kioku~end of THE WORLD~
TitleUnicode:ジョジョ その血の記憶~end of THE WORLD~
Artist:JO*STARS ~TOMMY, Coda, JIN~
ArtistUnicode:JO☆STARS ~TOMMY, Coda, JIN~
Creator:HaloMaster96
Version:Normal
Source:JoJo's Bizarre Adventure: Stardust Crusaders 2nd Season
Tags:ora, anime, jojo's bizzare adventure
BeatmapID:716624
BeatmapSetID:322294

[Difficulty]
HPDrainRate:3.5
CircleSize:3
OverallDifficulty:5
ApproachRate:5
SliderMultiplier:1
SliderTickRate:1

[Events]
//Background and Video events
0,0,"jojo_s_bizarre_adventure_wallpaper_by_franky4fingersx2-d73oy5d.jpg",0,0
Video,0,"Mudamudamuda.avi"
//Break Periods
//Storyboard Layer 0 (Background)
//Storyboard Layer 1 (Fail)
//Storyboard Layer 2 (Pass)
//Storyboard Layer 3 (Foreground)
//Storyboard Sound Samples

[TimingPoints]
13459,272.727272727273,4,1,0,45,1,0
48913,-100,4,1,0,45,0,1
60913,-100,4,1,0,45,0,0
73118,-100,4,1,0,45,0,1
84231,-100,4,1,0,45,0,0

[HitObjects]
256,192,11277,12,0,14277,0:0:0:0:
320,92,14549,6,0,P|352:136|344:196,1,100
332,252,15095,2,0,P|296:288|240:312,1,100
192,272,15640,1,0,0:0:0:0:
176,172,15913,1,0,0:0:0:0:
228,116,16186,2,0,P|280:124|332:108,1,100
392,116,16731,2,0,L|408:172,1,50
396,240,17004,1,0,0:0:0:0:
312,276,17277,1,0,0:0:0:0:
224,252,17549,1,0,0:0:0:0:
224,156,17822,5,0,0:0:0:0:
288,92,18095,1,0,0:0:0:0:
360,76,18368,2,8,L|416:92,1,50
456,152,18640,2,8,L|476:200,1,50
436,260,18913,1,0,0:0:0:0:
340,260,19186,5,0,0:0:0:0:
244,232,19459,2,0,P|232:192|240:128,1,100
260,68,20004,2,0,P|304:72|376:60,1,100
416,152,20549,2,0,P|416:200|396:268,1,100
316,244,21095,6,0,P|280:244|208:264,1,100
136,220,21640,1,0,0:0:0:0:
128,104,21913,1,0,0:0:0:0:
236,144,22186,1,4,0:0:0:0:
244,252,22459,5,4,0:0:0:0:
344,160,22731,1,4,0:0:0:0:
352,276,23004,1,4,0:0:0:0:
452,236,23277,2,0,P|432:184|404:148,1,100
288,88,23822,2,0,P|248:88|184:60,1,100
116,108,24368,6,8,L|96:160,1,50
88,236,24640,2,8,L|92:292,1,50
160,340,24913,2,0,P|188:316|272:176,1,200
280,80,25731,1,0,0:0:0:0:
352,196,26004,1,0,0:0:0:0:
208,200,26277,1,0,0:0:0:0:
80,160,26549,2,8,L|104:104,1,50
160,68,26822,2,8,L|212:64,1,50
276,116,27095,2,0,P|288:152|320:224,1,100
364,280,27640,5,0,0:0:0:0:
420,200,27913,1,0,0:0:0:0:
380,100,28186,1,0,0:0:0:0:
272,48,28459,2,0,P|236:60|176:108,1,100
144,168,29004,2,0,P|144:216|120:280,1,100
264,256,29549,1,0,0:0:0:0:
328,176,29822,2,0,P|340:132|380:88,1,100
452,232,30368,2,0,P|408:280|368:296,1,100
256,192,30913,12,0,32004,0:0:0:0:
288,132,32277,5,0,0:0:0:0:
416,116,32549,2,2,P|424:168|408:216,1,100
260,256,33095,1,2,0:0:0:0:
176,172,33368,1,2,0:0:0:0:
248,80,33640,5,0,0:0:0:0:
344,168,33913,1,0,0:0:0:0:
416,220,34186,2,0,P|340:264|228:316,1,200
184,208,35277,2,2,P|228:184|368:108,1,200
116,80,36368,6,0,P|116:144|120:192,1,100
148,240,36913,2,0,P|176:272|240:300,1,100
316,260,37459,1,0,0:0:0:0:
348,148,37731,1,0,0:0:0:0:
304,36,38004,1,0,0:0:0:0:
196,152,38277,1,0,0:0:0:0:
64,116,38549,2,0,P|60:172|68:328,1,200
200,308,39640,2,0,P|192:264|160:104,1,200
288,92,40731,5,6,0:0:0:0:
288,92,40868,1,6,0:0:0:0:
132,96,41277,1,6,0:0:0:0:
132,96,41413,1,6,0:0:0:0:
208,184,41822,1,6,0:0:0:0:
208,184,41959,6,6,P|228:220|304:312,1,150
376,200,42913,2,8,P|368:156|360:132,1,50
288,88,43186,2,8,P|256:76|232:60,1,50
136,208,43595,2,4,P|116:236|92:256,1,50
256,192,44822,5,0,0:0:0:0:
340,136,45095,2,0,P|340:192|328:240,1,100
208,264,45640,2,0,P|172:248|112:196,1,100
124,100,46186,1,0,0:0:0:0:
216,128,46459,2,0,P|244:128|280:124,1,50
328,116,46731,2,0,P|364:116|384:120,1,50
432,144,47004,2,0,P|432:176|424:208,1,50
452,220,47277,6,0,P|362:289|344:232,1,200
366,162,48095,2,0,P|259:135|156:176,1,225
80,96,48913,1,0,0:0:0:0:
72,192,49186,1,0,0:0:0:0:
100,288,49459,5,0,0:0:0:0:
240,260,49731,2,0,P|228:224|184:160,1,100
324,236,50277,2,0,P|296:192|288:128,1,100
392,160,50822,1,0,0:0:0:0:
376,60,51095,1,0,0:0:0:0:
260,64,51368,1,0,0:0:0:0:
144,80,51640,6,0,L|144:116|144:192,1,100
256,184,52186,2,0,L|256:132|256:64,1,100
360,88,52731,2,0,P|364:132|368:200,1,100
320,300,53277,2,0,P|280:304|212:296,1,100
152,244,53822,5,0,0:0:0:0:
140,140,54095,1,0,0:0:0:0:
192,64,54368,2,4,P|216:88|240:104,1,50
276,136,54640,2,4,P|296:168|308:200,1,50
316,256,54913,1,8,0:0:0:0:
412,204,55186,1,0,0:0:0:0:
392,84,55459,1,0,0:0:0:0:
288,52,56004,6,0,P|252:92|220:144,1,100
200,172,56549,1,0,0:0:0:0:
284,280,56822,1,0,0:0:0:0:
284,280,56959,2,0,P|344:272|432:228,1,150
432,156,57640,2,4,P|408:128|384:116,1,50
340,104,57913,2,4,P|308:80|296:56,1,50
232,64,58186,1,8,0:0:0:0:
124,104,58459,6,8,L|124:152|124:224,1,100
232,100,59004,2,8,L|232:156|232:216,1,100
344,100,59549,2,8,L|344:164|344:212,1,100
316,260,60095,5,0,0:0:0:0:
192,288,60368,2,0,P|144:256|56:144,1,200
148,80,61459,2,0,P|220:120|288:220,1,200
400,268,62549,2,0,P|400:196|344:80,1,200
208,124,63640,2,0,P|228:152|296:208,1,100
412,132,64186,2,0,P|376:100|332:72,1,100
324,232,64731,6,0,P|288:240|212:236,1,100
176,144,65277,2,0,P|216:136|280:140,1,100
80,168,65822,5,4,0:0:0:0:
80,256,66095,1,4,0:0:0:0:
156,312,66368,1,4,0:0:0:0:
248,280,66640,1,4,0:0:0:0:
332,204,66913,2,2,P|288:152|256:128,1,100
160,160,67459,2,2,P|184:208|220:244,1,100
256,260,68004,1,0,0:0:0:0:
376,220,68277,2,0,L|412:264,2,50
392,108,68822,5,0,0:0:0:0:
316,48,69095,2,0,P|164:40|104:64,2,200
416,84,70595,1,0,0:0:0:0:
216,108,71004,1,0,0:0:0:0:
152,164,71277,2,4,P|172:208|184:228,1,50
264,224,71549,5,8,0:0:0:0:
336,220,73186,2,0,P|344:172|344:148,1,50
344,100,73459,1,0,0:0:0:0:
204,96,73731,1,0,0:0:0:0:
160,212,74004,1,0,0:0:0:0:
256,304,74277,1,0,0:0:0:0:
384,232,74549,1,0,0:0:0:0:
400,84,74822,1,0,0:0:0:0:
272,40,75095,2,0,P|220:40|168:64,1,100
108,120,75640,6,4,P|128:168|156:216,1,100
240,252,76186,2,4,P|268:248|336:208,1,100
376,128,76731,2,8,P|376:84|324:40,1,100
216,44,77277,2,8,P|180:72|152:132,1,100
156,220,77822,1,4,0:0:0:0:
240,288,78095,1,0,0:0:0:0:
324,248,78368,6,8,P|348:200|352:140,1,100
264,100,78913,2,4,P|224:104|208:104,1,50
152,108,79186,2,4,P|128:108|100:120,1,50
64,168,79459,2,4,P|56:200|60:232,1,50
80,272,79731,2,8,P|104:288|128:292,1,50
256,192,80549,12,0,84368,0:0:0:0:
300,184,84878,6,0,P|316:216|332:249,2,66.6666666666667
184,120,85425,2,0,P|164:96|143:57,2,66.6666666666667
204,212,85988,2,0,P|192:248|185:277,2,66.6666666666667
288,240,86549,2,4,B|316:248|372:216|428:252|496:220,1,200
