osu file format v14

[General]
AudioFilename: Oraoraora.mp3
AudioLeadIn: 0
PreviewTime: 48640
Countdown: 1
SampleSet: Normal
StackLeniency: 0.7
Mode: 0
LetterboxInBreaks: 1
WidescreenStoryboard: 1

[Editor]
Bookmarks: 36368,44822,49459
DistanceSpacing: 2
BeatDivisor: 4
GridSize: 4
TimelineZoom: 2.199998

[Metadata]
Title:JoJo Sono Chi no Kioku~end of THE WORLD~
TitleUnicode:ジョジョ その血の記憶~end of THE WORLD~
Artist:JO*STARS ~TOMMY, Coda, JIN~
ArtistUnicode:JO☆STARS ~TOMMY, Coda, JIN~
Creator:HaloMaster96
Version:Insane
Source:JoJo's Bizarre Adventure: Stardust Crusaders 2nd Season
Tags:ora, anime, jojo's bizzare adventure
BeatmapID:716623
BeatmapSetID:322294

[Difficulty]
HPDrainRate:5.6
CircleSize:4
OverallDifficulty:7.5
ApproachRate:9
SliderMultiplier:1.4
SliderTickRate:2

[Events]
//Background and Video events
0,0,"jojo_s_bizarre_adventure_wallpaper_by_franky4fingersx2-d73oy5d.jpg",0,0
Video,0,"Mudamudamuda.avi"
//Break Periods
//Storyboard Layer 0 (Background)
//Storyboard Layer 1 (Fail)
//Storyboard Layer 2 (Pass)
//Storyboard Layer 3 (Foreground)
//Storyboard Sound Samples

[TimingPoints]
13459,272.727272727273,4,1,0,45,1,0
48640,-100,4,1,0,45,0,1
60436,-100,4,1,0,45,0,0
73049,-100,4,1,0,45,0,1
80004,-133.333333333333,4,1,0,45,0,0

[HitObjects]
256,192,11277,12,0,14277,0:0:0:0:
376,88,14549,6,0,P|360:136|328:168,1,70
228,128,14822,2,0,P|244:92|264:68,1,70
396,244,15095,2,0,P|336:260|296:260,1,70
132,236,15368,2,0,P|163:250|197:259,1,70
108,152,15640,1,0,0:0:0:0:
184,72,15777,1,0,0:0:0:0:
276,144,15913,6,0,P|324:136|344:128,1,70
452,72,16186,2,0,P|444:116|424:144,1,70
400,236,16459,2,0,P|388:300|392:328,1,70
288,340,16731,2,0,P|240:312|200:304,1,70
132,288,17004,1,0,0:0:0:0:
88,184,17140,1,0,0:0:0:0:
160,104,17277,6,0,P|196:136|228:144,1,70
304,104,17549,1,0,0:0:0:0:
348,240,17686,1,0,0:0:0:0:
348,240,17754,1,0,0:0:0:0:
348,240,17822,1,0,0:0:0:0:
216,192,17959,2,0,P|224:128|236:96,1,70
440,124,18231,6,0,P|440:184|424:220,1,70
408,292,18504,1,0,0:0:0:0:
304,328,18640,2,0,P|252:320|232:304,1,70
132,236,18913,1,0,0:0:0:0:
232,88,19186,2,0,P|236:144|224:172,1,70
72,148,19459,2,0,P|68:100|80:72,1,70
152,40,19731,1,0,0:0:0:0:
388,120,20004,5,0,0:0:0:0:
444,248,20277,2,0,P|416:292|392:304,1,70
284,232,20549,2,0,P|312:200|364:176,1,70
344,312,20822,1,0,0:0:0:0:
404,136,21095,1,0,0:0:0:0:
296,100,21368,2,0,P|256:80|208:80,1,70
148,160,21640,2,0,P|96:160|68:144,1,70
36,68,21913,1,0,0:0:0:0:
164,48,22049,5,0,0:0:0:0:
248,152,22186,2,8,P|296:180|320:180,1,70
396,184,22459,2,8,P|448:176|476:152,1,70
440,64,22731,1,4,0:0:0:0:
320,172,22868,1,4,0:0:0:0:
256,288,23004,2,8,P|200:272|188:256,1,70
96,192,23277,6,0,P|80:144|80:80,2,105
136,272,23822,1,0,0:0:0:0:
252,256,23959,1,0,0:0:0:0:
364,280,24095,2,0,P|408:256|404:148,1,140
330,73,24640,1,0,0:0:0:0:
216,152,24913,1,0,0:0:0:0:
80,228,25186,2,0,P|104:280|188:252,1,140
276,256,25595,5,0,0:0:0:0:
408,240,25731,2,0,P|428:200|428:168,1,70
332,80,26004,2,0,P|296:56|260:48,1,70
144,76,26277,1,0,0:0:0:0:
80,200,26549,2,0,P|124:240|204:280,2,140
288,288,27368,1,0,0:0:0:0:
368,236,27504,1,0,0:0:0:0:
336,140,27640,2,0,P|312:104|232:132,1,140
200,224,28049,5,0,0:0:0:0:
120,300,28186,2,0,P|56:260|52:244,1,70
40,168,28459,2,0,P|44:128|80:96,1,70
160,68,28731,1,0,0:0:0:0:
280,100,28868,1,0,0:0:0:0:
396,172,29004,2,0,P|360:232|284:256,1,140
184,228,29413,5,0,0:0:0:0:
96,152,29549,2,0,P|88:104|96:72,1,70
232,104,29822,2,0,P|280:120|320:120,1,70
388,196,30095,2,0,P|392:236|384:276,1,70
300,312,30368,1,0,0:0:0:0:
196,264,30504,1,0,0:0:0:0:
140,180,30640,6,0,P|128:136|136:108,1,70
240,52,30913,1,0,0:0:0:0:
360,68,31049,1,0,0:0:0:0:
360,68,31118,1,0,0:0:0:0:
360,68,31186,1,0,0:0:0:0:
464,112,31322,1,0,0:0:0:0:
404,200,31595,2,0,P|376:224|248:132,1,210
156,32,32140,5,0,0:0:0:0:
72,120,32277,2,0,P|84:164|108:188,1,70
208,256,32549,2,0,P|256:220|288:212,1,70
392,156,32822,1,0,0:0:0:0:
304,84,32959,1,0,0:0:0:0:
196,128,33095,2,0,P|152:132|112:120,1,70
80,224,33368,2,0,P|80:280|60:312,1,70
192,328,33640,6,0,P|252:312|280:316,1,70
384,296,33913,2,0,P|436:256|444:240,1,70
456,152,34186,2,0,P|440:108|404:60,2,105
292,68,34731,2,0,P|264:112|248:128,1,70
136,88,35004,2,0,P|152:56|180:28,1,70
336,188,35277,2,0,P|300:216|264:232,1,70
140,244,35549,2,0,P|100:244|64:228,1,70
60,144,35822,5,0,0:0:0:0:
136,80,35959,1,0,0:0:0:0:
228,136,36095,2,0,P|284:136|300:120,1,70
448,160,36368,2,0,P|452:204|436:236,1,70
324,308,36640,2,0,P|280:300|240:280,1,70
148,276,36913,1,0,0:0:0:0:
64,200,37049,1,0,0:0:0:0:
108,100,37186,6,0,P|160:76|184:76,1,70
276,124,37459,2,0,P|336:132|368:116,1,70
452,176,37731,2,0,P|420:216|400:232,1,70
312,288,38004,2,0,P|264:280|232:252,1,70
152,224,38277,1,0,0:0:0:0:
140,104,38413,1,0,0:0:0:0:
216,32,38549,6,0,P|288:48|388:168,1,210
364,256,39095,2,0,B|320:288|196:248|148:216,1,210
76,192,39640,2,0,P|40:120|40:108,1,70
128,64,39913,2,0,P|168:56|208:60,1,70
304,88,40186,1,0,0:0:0:0:
384,136,40322,1,0,0:0:0:0:
424,232,40459,1,0,0:0:0:0:
428,332,40595,1,0,0:0:0:0:
300,328,40731,6,0,P|240:292|236:276,1,70
140,172,41277,2,0,P|148:124|160:108,1,70
296,68,41822,2,0,P|352:68|368:76,1,70
440,176,42368,2,0,P|424:228|320:244,1,140
268,284,42913,1,0,0:0:0:0:
108,240,43049,1,0,0:0:0:0:
160,92,43186,1,0,0:0:0:0:
312,132,43322,1,0,0:0:0:0:
296,208,43595,5,0,0:0:0:0:
132,164,43731,1,0,0:0:0:0:
416,60,44004,2,0,P|416:104|312:320,1,280
200,316,44822,2,0,P|144:272|132:252,1,70
68,196,45095,1,0,0:0:0:0:
56,88,45231,1,0,0:0:0:0:
172,40,45368,6,0,P|224:40|248:56,1,70
320,120,45640,2,0,P|356:160|372:204,1,70
376,256,45913,2,0,P|340:288|140:232,2,280
416,176,47140,1,0,0:0:0:0:
412,72,47277,2,0,P|364:56|332:56,1,70
240,112,47549,2,0,P|188:112|168:92,1,70
80,96,47822,5,0,0:0:0:0:
72,208,47959,1,0,0:0:0:0:
128,296,48095,2,0,P|176:284|208:296,1,70
296,272,48368,1,0,0:0:0:0:
296,272,48436,1,0,0:0:0:0:
296,272,48504,1,0,0:0:0:0:
400,240,48640,6,0,P|416:196|416:168,1,70
320,72,48913,2,0,P|288:64|232:76,1,70
160,88,49186,1,0,0:0:0:0:
104,184,49322,1,0,0:0:0:0:
184,288,49459,6,0,P|232:264|248:240,1,70
280,168,49731,1,0,0:0:0:0:
256,76,49868,1,0,0:0:0:0:
160,28,50004,2,0,P|116:48|88:72,1,70
136,152,50277,2,0,P|144:196|132:228,1,70
176,304,50549,6,0,P|236:300|256:288,1,70
328,260,50822,2,0,P|364:236|392:224,1,70
468,148,51095,1,0,0:0:0:0:
400,72,51231,1,0,0:0:0:0:
292,88,51368,1,0,0:0:0:0:
188,56,51504,1,0,0:0:0:0:
104,128,51640,6,0,P|92:168|88:208,1,70
168,296,51913,2,0,P|224:296|240:292,1,70
356,264,52186,2,0,P|400:244|424:248,1,70
464,152,52459,2,0,P|448:104|432:76,1,70
336,64,52731,2,0,P|288:72|264:64,1,70
192,72,53004,1,0,0:0:0:0:
112,152,53140,1,0,0:0:0:0:
104,244,53277,6,0,P|160:272|180:272,1,70
272,288,53549,1,0,0:0:0:0:
372,260,53686,1,0,0:0:0:0:
416,172,53822,1,0,0:0:0:0:
368,76,53959,1,0,0:0:0:0:
244,72,54095,2,0,P|208:76|168:96,1,70
184,208,54368,2,0,P|220:224|264:212,1,70
348,184,54640,6,0,P|372:140|376:108,1,70
280,52,54913,2,0,P|236:64|120:40,2,140
416,96,55731,1,0,0:0:0:0:
440,236,56004,2,0,P|408:256|372:264,1,70
240,264,56277,2,0,P|192:240|176:224,1,70
128,144,56549,1,0,0:0:0:0:
208,88,56686,5,0,0:0:0:0:
316,112,56822,2,0,P|344:148|352:172,1,70
360,272,57095,2,0,P|340:312|312:328,1,70
208,316,57368,1,0,0:0:0:0:
132,264,57504,1,0,0:0:0:0:
84,168,57640,2,0,P|80:124|84:92,1,70
196,72,57913,6,0,P|240:64|288:80,1,70
364,128,58186,1,4,0:0:0:0:
420,212,58322,1,4,0:0:0:0:
380,308,58459,2,8,P|324:308|300:296,1,70
216,276,58731,1,4,0:0:0:0:
176,188,58868,1,4,0:0:0:0:
208,92,59004,2,8,P|248:80|284:88,1,70
384,132,59277,6,2,P|424:152|448:180,1,70
444,264,59549,2,2,P|424:312|400:328,1,70
304,328,59822,1,0,0:0:0:0:
236,276,59959,1,0,0:0:0:0:
188,176,60095,2,0,P|188:132|208:108,1,70
324,68,60368,1,0,0:0:0:0:
416,188,60640,6,0,P|380:200|336:208,1,70
240,200,60913,1,0,0:0:0:0:
184,108,61049,1,0,0:0:0:0:
280,64,61186,2,0,P|336:56|364:64,1,70
432,152,61459,2,0,P|448:196|432:268,2,105
368,72,62004,6,0,P|320:60|288:64,1,70
184,128,62277,2,0,P|144:144|116:136,1,70
16,156,62549,1,0,0:0:0:0:
64,272,62822,2,0,P|136:292|144:288,1,70
236,288,63231,1,0,0:0:0:0:
344,280,63368,2,0,P|376:248|388:220,1,70
392,128,63640,6,0,P|380:96|352:64,1,70
264,60,63913,2,0,P|220:60|188:68,1,70
136,136,64186,2,0,P|80:136|64:128,1,70
48,216,64459,1,0,0:0:0:0:
112,280,64595,1,0,0:0:0:0:
216,304,64731,6,0,P|260:296|288:280,1,70
356,216,65004,2,0,P|388:184|408:148,1,70
344,80,65277,1,0,0:0:0:0:
248,80,65413,1,0,0:0:0:0:
184,168,65549,2,0,P|128:172|112:160,1,70
120,76,65822,2,0,P|160:64|196:80,1,70
348,160,66095,2,0,P|296:176|264:176,1,70
244,248,66368,6,0,P|196:240|152:224,1,70
84,196,66640,1,0,0:0:0:0:
64,100,66777,1,0,0:0:0:0:
164,40,66913,2,0,P|204:40|240:72,1,70
280,152,67186,2,0,P|312:188|352:208,1,70
408,200,67459,2,0,P|440:180|464:136,1,70
412,48,67731,2,0,P|352:32|328:40,1,70
216,76,68004,5,0,0:0:0:0:
136,144,68140,1,0,0:0:0:0:
136,144,68209,1,0,0:0:0:0:
136,144,68277,2,0,P|152:188|168:212,1,70
244,256,68549,1,0,0:0:0:0:
344,224,68686,1,0,0:0:0:0:
412,148,68822,2,0,P|400:96|388:72,1,70
324,36,69095,6,0,P|272:64|132:244,2,280
424,148,70595,1,0,0:0:0:0:
252,256,71004,1,0,0:0:0:0:
108,108,71277,2,0,P|112:148|128:184,2,70
332,96,73049,5,0,0:0:0:0:
332,96,73118,1,0,0:0:0:0:
332,96,73186,2,0,P|312:140|288:176,1,70
252,256,73459,2,0,P|200:244|176:232,1,70
152,152,73731,2,0,P|120:136|96:96,1,70
208,48,74004,2,0,P|240:68|260:104,1,70
312,200,74277,2,0,P|336:240|360:256,1,70
420,224,74549,5,0,0:0:0:0:
392,116,74686,1,0,0:0:0:0:
280,104,74822,2,0,P|244:124|224:156,1,70
240,248,75095,2,0,P|224:296|192:320,1,70
104,280,75368,2,0,P|120:236|152:220,1,70
252,176,75640,6,0,P|300:176|336:196,3,70
156,176,76186,2,0,P|116:176|72:184,3,70
208,268,76731,2,0,P|240:292|280:308,1,70
384,316,77004,2,0,P|412:288|432:260,1,70
432,156,77277,2,0,P|428:108|408:76,1,70
312,48,77549,6,0,P|264:48|224:64,1,70
148,116,77822,2,0,P|136:160|140:196,1,70
188,280,78095,1,0,0:0:0:0:
296,308,78231,1,0,0:0:0:0:
356,212,78368,2,0,P|368:180|372:140,1,70
316,80,78640,1,0,0:0:0:0:
216,52,78777,1,0,0:0:0:0:
100,120,78913,6,0,P|104:164|112:208,1,70
244,280,79186,2,0,P|292:280|332:260,1,70
424,192,79459,1,0,0:0:0:0:
368,36,79595,1,0,0:0:0:0:
172,88,79731,1,0,0:0:0:0:
224,248,79868,1,0,0:0:0:0:
256,192,80549,12,0,84095,0:0:0:0:
256,64,84368,5,0,0:0:0:0:
256,192,84640,1,0,0:0:0:0:
120,240,84869,2,0,P|144:268|185:295,2,70.0000026702882
338,290,85412,2,0,P|372:271|394:243,2,70.0000026702882
396,132,86004,1,0,0:0:0:0:
276,56,86186,1,0,0:0:0:0:
164,132,86368,1,0,0:0:0:0:
276,244,86549,1,0,0:0:0:0:
