osu file format v14

[General]
AudioFilename: Oraoraora.mp3
AudioLeadIn: 0
PreviewTime: 48640
Countdown: 1
SampleSet: Normal
StackLeniency: 0.7
Mode: 0
LetterboxInBreaks: 1
WidescreenStoryboard: 1

[Editor]
Bookmarks: 36368,49459,55731
DistanceSpacing: 2
BeatDivisor: 4
GridSize: 4
TimelineZoom: 1.599999

[Metadata]
Title:JoJo Sono Chi no Kioku~end of THE WORLD~
TitleUnicode:ジョジョ その血の記憶~end of THE WORLD~
Artist:JO*STARS ~TOMMY, Coda, JIN~
ArtistUnicode:JO☆STARS ~TOMMY, Coda, JIN~
Creator:HaloMaster96
Version:Hard
Source:JoJo's Bizarre Adventure: Stardust Crusaders 2nd Season
Tags:ora, anime, jojo's bizzare adventure
BeatmapID:716622
BeatmapSetID:322294

[Difficulty]
HPDrainRate:5
CircleSize:4
OverallDifficulty:7
ApproachRate:7.5
SliderMultiplier:1.4
SliderTickRate:1

[Events]
//Background and Video events
0,0,"jojo_s_bizarre_adventure_wallpaper_by_franky4fingersx2-d73oy5d.jpg",0,0
Video,0,"Mudamudamuda.avi"
//Break Periods
//Storyboard Layer 0 (Background)
//Storyboard Layer 1 (Fail)
//Storyboard Layer 2 (Pass)
//Storyboard Layer 3 (Foreground)
//Storyboard Sound Samples

[TimingPoints]
13459,272.727272727273,4,1,0,45,1,0
48640,-100,4,1,0,45,0,1
60368,-100,4,1,0,45,0,0
72913,-100,4,1,0,45,0,1
84095,-100,4,1,0,45,0,0

[HitObjects]
256,192,11277,12,4,14277,0:0:0:0:
128,108,14549,6,4,P|156:148|172:172,1,70
256,152,14822,2,4,L|284:84,1,70
376,88,15095,2,8,L|405:151,1,70
344,284,15368,2,8,L|396:222,1,70
104,192,15640,2,4,P|96:252|112:336,1,140
236,336,16186,2,4,P|236:272|220:192,1,140
376,180,16731,2,4,P|380:288|368:328,1,140
176,336,17277,2,4,P|172:268|180:172,1,140
128,128,17822,6,8,L|104:208,2,70
264,168,18231,2,8,L|264:252,2,70
388,112,18640,1,8,0:0:0:0:
136,220,18913,2,4,P|168:280|180:288,1,70
320,268,19186,2,4,P|348:232|380:212,1,70
424,104,19459,1,2,0:0:0:0:
216,80,19731,1,2,0:0:0:0:
128,136,20004,6,4,P|104:192|96:280,1,140
296,272,20549,2,4,P|288:196|264:136,1,140
388,84,21095,1,4,0:0:0:0:
416,252,21368,1,4,0:0:0:0:
280,184,21640,2,4,P|288:132|304:104,1,70
200,96,21913,6,4,P|200:144|184:172,1,70
80,96,22186,1,4,0:0:0:0:
108,260,22459,1,4,0:0:0:0:
256,308,22731,1,0,0:0:0:0:
368,216,23004,2,0,P|352:176|320:152,1,70
208,148,23277,6,4,P|184:200|172:248,2,105
320,128,23822,1,4,0:0:0:0:
272,272,24095,1,4,0:0:0:0:
112,200,24368,2,4,P|160:264|168:268,1,70
248,216,24640,2,4,P|232:164|224:144,1,70
164,312,24913,2,4,P|208:320|368:296,1,175
208,92,25459,1,4,0:0:0:0:
120,260,25731,1,4,0:0:0:0:
340,280,26004,1,4,0:0:0:0:
400,120,26277,1,4,0:0:0:0:
172,140,26549,6,4,P|188:196|212:220,1,70
284,224,26822,2,4,P|312:192|360:176,1,70
308,92,27095,2,4,P|256:72|148:60,1,140
64,152,27640,2,4,P|84:196|104:228,1,70
176,272,27913,2,4,P|212:292|268:304,1,70
332,284,28186,1,4,0:0:0:0:
356,124,28459,1,4,0:0:0:0:
288,104,28731,2,4,P|280:176|256:256,1,140
168,100,29277,6,4,P|156:160|152:176,1,70
56,152,29549,2,4,P|68:100|76:76,1,70
104,284,29822,2,4,P|184:296|272:280,1,140
232,160,30368,2,4,P|152:152|84:164,1,140
388,284,30913,2,4,P|372:212|336:140,1,140
184,152,31459,2,4,P|192:256|212:296,1,140
288,80,32004,5,4,0:0:0:0:
364,212,32277,1,4,0:0:0:0:
236,276,32549,1,4,0:0:0:0:
152,144,32822,1,4,0:0:0:0:
92,208,33095,2,4,P|112:264|168:328,1,140
324,296,33640,2,4,P|280:220|236:176,1,140
388,212,34186,2,4,P|376:156|360:128,1,70
328,112,34459,2,4,P|276:112|248:100,1,70
148,104,34731,5,4,0:0:0:0:
108,308,35004,1,4,0:0:0:0:
304,292,35277,1,4,0:0:0:0:
56,168,35549,1,4,0:0:0:0:
224,288,35822,2,4,P|224:216|208:136,1,140
336,148,36368,6,4,P|352:224|376:288,1,140
480,272,36913,2,4,P|468:192|448:132,1,140
368,72,37459,2,4,P|324:72|296:60,1,70
208,56,37731,2,0,P|144:72|128:100,1,70
136,176,38004,6,4,P|176:212|208:224,1,70
312,224,38277,2,4,P|344:208|384:176,1,70
92,280,38549,2,4,P|152:288|376:264,1,280
368,148,39640,2,4,P|320:144|88:168,1,280
128,96,40459,1,0,0:0:0:0:
204,84,40595,1,0,0:0:0:0:
272,108,40731,5,4,0:0:0:0:
328,164,40868,1,4,0:0:0:0:
176,276,41277,1,4,0:0:0:0:
128,220,41413,1,4,0:0:0:0:
308,276,41822,5,4,0:0:0:0:
252,220,41959,1,4,0:0:0:0:
440,68,42368,1,4,0:0:0:0:
164,104,42913,2,4,P|164:176|176:188,1,70
220,248,43186,2,4,P|272:240|308:216,1,70
328,160,43595,2,4,P|336:108|324:76,1,70
224,64,44004,2,4,P|184:120|332:204,1,280
152,132,44822,1,4,0:0:0:0:
124,240,45095,6,4,P|192:248|220:244,1,70
280,236,45368,2,0,P|328:220|364:192,1,70
396,140,45640,2,0,P|400:84|376:64,1,70
328,44,45913,2,0,P|240:40|120:120,1,210
128,188,46459,2,4,P|144:240|160:252,1,70
232,276,46731,6,0,P|284:252|308:252,1,70
372,252,47004,2,0,P|400:224|404:176,1,70
352,136,47277,2,0,P|308:108|288:120,1,70
240,200,47549,2,4,P|256:276|284:340,1,140
128,328,48095,2,4,P|132:264|124:176,1,140
136,84,48640,6,0,P|184:72|200:80,1,70
320,128,48913,1,0,0:0:0:0:
48,136,49186,1,0,0:0:0:0:
136,164,49459,6,4,P|172:132|208:128,1,70
296,136,49731,1,4,0:0:0:0:
304,252,49868,1,4,0:0:0:0:
140,272,50004,2,4,P|204:252|224:228,1,70
296,224,50277,2,0,P|352:260|360:292,1,70
328,328,50549,2,0,P|280:332|264:316,1,70
216,284,50822,2,4,P|240:172|276:148,1,140
128,248,51368,6,4,P|144:208|180:180,1,70
200,116,51640,2,4,P|240:84|264:80,1,70
376,112,51913,1,4,0:0:0:0:
428,224,52186,1,4,0:0:0:0:
296,320,52459,1,4,0:0:0:0:
108,220,52731,2,4,P|140:264|212:316,1,140
268,200,53277,1,4,0:0:0:0:
388,96,53549,1,4,0:0:0:0:
264,48,53822,6,4,P|208:56|184:88,1,70
152,128,54095,2,4,P|136:152|144:216,1,70
200,248,54368,2,4,P|256:240|280:208,1,70
336,176,54640,2,4,P|344:144|336:104,1,70
248,96,54913,1,4,0:0:0:0:
188,240,55186,1,4,0:0:0:0:
324,224,55459,1,4,0:0:0:0:
104,96,56004,6,4,P|88:156|84:212,2,105
316,112,56549,1,4,0:0:0:0:
220,244,56822,1,4,0:0:0:0:
164,76,57095,1,4,0:0:0:0:
368,256,57368,1,4,0:0:0:0:
112,240,57640,2,4,P|132:192|200:132,1,140
328,180,58186,6,4,P|304:236|240:292,1,140
156,68,58731,2,4,P|232:64|304:88,1,140
144,152,59277,2,4,L|104:220,2,70
332,184,59822,2,4,L|384:240,2,70
200,56,60368,5,4,0:0:0:0:
168,208,60640,1,4,0:0:0:0:
336,228,60913,1,4,0:0:0:0:
368,76,61186,1,4,0:0:0:0:
232,148,61459,2,4,P|232:184|256:264,2,105
148,112,62004,1,4,0:0:0:0:
124,236,62277,5,4,0:0:0:0:
276,256,62549,1,4,0:0:0:0:
372,204,62822,2,4,P|352:152|216:60,1,210
152,148,63368,2,4,P|172:216|232:292,1,140
272,156,63913,2,4,P|288:204|336:296,1,140
360,80,64459,1,4,0:0:0:0:
384,196,64731,6,4,P|360:232|336:252,1,70
248,240,65004,1,4,0:0:0:0:
188,168,65140,1,4,0:0:0:0:
180,108,65277,2,4,P|216:92|252:92,1,70
320,116,65549,1,4,0:0:0:0:
376,184,65686,1,4,0:0:0:0:
376,248,65822,6,4,P|344:280|312:300,1,70
232,320,66095,2,4,P|176:300|148:304,1,70
112,244,66368,2,4,P|112:192|104:148,1,70
184,112,66640,2,4,P|232:108|260:100,1,70
256,192,66913,12,4,68004,0:0:0:0:
124,80,68277,5,4,0:0:0:0:
120,264,68549,1,4,0:0:0:0:
328,192,68822,1,4,0:0:0:0:
232,104,69095,6,4,P|208:176|208:252,1,140
236,308,69504,2,4,P|368:184|448:32,1,350
124,96,70595,1,4,0:0:0:0:
264,160,71004,1,4,0:0:0:0:
416,96,71277,1,4,0:0:0:0:
412,164,71413,1,4,0:0:0:0:
356,128,71549,1,4,0:0:0:0:
260,176,72913,6,4,L|276:208,2,35
196,68,73186,1,4,0:0:0:0:
96,216,73459,1,4,0:0:0:0:
372,348,73868,2,0,L|396:296,2,35
304,148,74277,1,0,0:0:0:0:
96,124,74549,2,4,P|112:204|136:264,1,140
276,228,75095,2,4,P|248:164|208:100,1,140
412,76,75640,6,4,L|336:104,1,70
256,112,75913,2,4,L|196:64,1,70
108,60,76186,2,4,L|44:108,1,70
44,200,76459,2,4,L|80:272,1,70
144,296,76731,1,0,0:0:0:0:
212,256,76868,1,0,0:0:0:0:
276,216,77004,5,0,0:0:0:0:
340,176,77140,1,0,0:0:0:0:
400,128,77277,2,0,P|424:96|408:64,1,70
296,48,77549,2,0,P|276:72|288:112,1,70
420,184,77822,2,0,P|456:164|472:132,1,70
424,72,78095,2,0,P|384:48|348:64,1,70
308,120,78368,2,0,P|268:108|256:80,1,70
188,56,78640,2,0,P|152:88|156:128,1,70
160,188,78913,5,0,0:0:0:0:
216,248,79049,1,0,0:0:0:0:
244,168,79186,1,0,0:0:0:0:
188,112,79322,1,0,0:0:0:0:
104,136,79459,1,0,0:0:0:0:
88,228,79595,1,0,0:0:0:0:
140,292,79731,1,0,0:0:0:0:
220,316,79868,1,0,0:0:0:0:
256,196,80549,1,4,0:0:0:0:
256,192,80686,12,4,84095,0:0:0:0:
216,84,84368,5,4,0:0:0:0:
288,236,84640,1,4,0:0:0:0:
392,104,84880,2,4,P|400:152|396:208,2,93.3333333333333
268,108,85425,2,4,P|272:164|297:226,2,93.3333333333333
64,224,85970,2,4,P|104:276|142:304,2,93.3333333333333
260,252,86549,2,4,B|356:240|432:248|396:144|432:72,1,280
