osu file format v14

[General]
AudioFilename: Oraoraora.mp3
AudioLeadIn: 0
PreviewTime: 48640
Countdown: 1
SampleSet: Normal
StackLeniency: 0.7
Mode: 0
LetterboxInBreaks: 1
WidescreenStoryboard: 1

[Editor]
Bookmarks: 36368,49459,55731
DistanceSpacing: 2
BeatDivisor: 4
GridSize: 4
TimelineZoom: 0.8999989

[Metadata]
Title:JoJo Sono Chi no Kioku~end of THE WORLD~
TitleUnicode:ジョジョ その血の記憶~end of THE WORLD~
Artist:JO*STARS ~TOMMY, Coda, JIN~
ArtistUnicode:JO☆STARS ~TOMMY, Coda, JIN~
Creator:HaloMaster96
Version:Easy
Source:JoJo's Bizarre Adventure: Stardust Crusaders 2nd Season
Tags:ora, anime, jojo's bizzare adventure
BeatmapID:716619
BeatmapSetID:322294

[Difficulty]
HPDrainRate:2
CircleSize:3
OverallDifficulty:3
ApproachRate:3
SliderMultiplier:0.8
SliderTickRate:1

[Events]
//Background and Video events
0,0,"jojo_s_bizarre_adventure_wallpaper_by_franky4fingersx2-d73oy5d.jpg",0,0
Video,0,"Mudamudamuda.avi"
//Break Periods
//Storyboard Layer 0 (Background)
//Storyboard Layer 1 (Fail)
//Storyboard Layer 2 (Pass)
//Storyboard Layer 3 (Foreground)
//Storyboard Sound Samples

[TimingPoints]
13459,272.727272727273,4,1,0,45,1,0
49459,-100,4,1,0,45,0,1
69777,-100,4,1,0,45,0,0
75572,-100,4,1,0,45,0,1
84368,-100,4,1,0,45,0,0

[HitObjects]
256,192,11277,12,0,14549,0:0:0:0:
128,168,15095,6,0,P|184:176|288:172,1,160
296,272,16186,2,0,P|264:280|136:272,1,160
124,128,17277,1,0,0:0:0:0:
276,156,17822,1,0,0:0:0:0:
408,132,18368,1,0,0:0:0:0:
360,272,18913,6,4,P|320:268|200:272,1,160
164,156,20004,2,4,P|248:160|328:152,1,160
404,136,21095,2,8,P|404:184|372:304,1,160
264,252,22186,6,8,P|240:232|200:184,1,80
168,136,22731,2,8,P|168:96|184:48,1,80
380,88,23277,1,0,0:0:0:0:
364,272,23822,1,0,0:0:0:0:
232,272,24368,2,4,P|192:248|120:144,1,160
168,64,25459,2,0,P|192:108|288:184,1,160
392,164,26549,2,4,P|348:132|280:48,1,160
188,88,27640,1,0,0:0:0:0:
128,232,28186,1,0,0:0:0:0:
252,276,28731,6,0,P|280:256|368:156,1,160
264,72,29822,1,8,0:0:0:0:
140,144,30368,1,8,0:0:0:0:
204,288,30913,2,0,P|232:228|288:144,1,160
396,184,32004,6,2,P|368:240|280:300,1,160
204,240,33095,2,2,P|232:200|312:124,1,160
148,84,34186,1,8,0:0:0:0:
104,248,34731,1,8,0:0:0:0:
248,280,35277,2,2,P|256:240|288:120,1,160
400,124,36368,6,0,P|392:184|356:276,1,160
236,268,37459,2,0,P|260:212|308:112,1,160
164,100,38549,1,4,0:0:0:0:
124,256,39095,1,4,0:0:0:0:
208,236,39640,2,0,P|240:176|316:104,1,160
404,156,40731,5,4,0:0:0:0:
324,264,41277,1,4,0:0:0:0:
192,264,41822,1,4,0:0:0:0:
128,148,42368,1,4,0:0:0:0:
236,140,42913,6,0,P|256:164|256:180,3,40
304,228,43595,2,12,P|328:244|344:252,1,40,4|12,0:0|0:0,0:0:0:0:
256,188,44822,1,0,0:0:0:0:
112,208,45095,6,0,P|136:252|224:316,1,160
340,268,46186,2,0,P|308:220|220:156,1,160
380,68,47277,2,0,L|384:232,1,160
96,248,48368,2,0,L|96:88,1,160
312,76,49459,6,2,P|308:120|248:232,1,160
84,200,50549,2,2,P|100:144|156:52,1,160
376,96,51640,2,0,P|352:184|300:248,1,160
228,256,52459,1,4,0:0:0:0:
136,248,52731,2,0,P|140:208|192:100,1,160
260,152,53822,2,0,P|296:164|284:80,1,160
144,120,54913,5,4,0:0:0:0:
248,272,55459,2,0,P|296:264|392:188,1,160
296,80,56549,2,0,P|240:116|168:188,1,160
120,264,57640,2,0,P|184:292|280:308,1,160
284,192,58459,5,4,0:0:0:0:
408,96,59004,1,4,0:0:0:0:
416,256,59549,1,4,0:0:0:0:
216,140,60095,2,2,P|244:204|292:288,1,160,2|0,0:0|0:0,0:0:0:0:
372,148,60913,1,0,0:0:0:0:
260,56,61459,5,0,0:0:0:0:
152,80,62004,2,0,P|132:120|92:228,1,160
264,248,63095,2,0,P|272:188|272:88,1,160
372,96,64186,2,0,P|380:184|404:252,1,160
256,252,65277,6,0,P|260:188|248:88,1,160
124,80,66368,1,0,0:0:0:0:
64,168,66913,2,0,P|92:216|160:312,1,160
264,264,68004,2,0,P|232:212|152:140,1,160
92,72,69095,6,0,P|176:36|248:60,1,160
104,208,70186,1,4,0:0:0:0:
256,264,70731,1,4,0:0:0:0:
400,196,71277,1,4,0:0:0:0:
72,248,73186,6,0,P|88:296|108:336,1,80
288,320,74004,1,0,0:0:0:0:
320,188,74550,1,0,0:0:0:0:
184,224,75095,1,0,0:0:0:0:
176,112,75640,6,2,P|236:100|336:112,1,160
328,240,76731,2,4,P|292:248|164:232,1,160
88,244,77822,2,2,P|84:188|108:84,1,160
312,120,78913,2,4,P|316:168|308:200,1,80
192,212,79459,2,4,P|196:144|208:120,1,80
256,192,80549,12,0,84368,0:0:0:0:
128,216,84913,6,0,P|148:144|196:296,1,480
