osu file format v14

[General]
AudioFilename: Oraoraora.mp3
AudioLeadIn: 0
PreviewTime: 48572
Countdown: 0
SampleSet: Normal
StackLeniency: 0.7
Mode: 0
LetterboxInBreaks: 0
WidescreenStoryboard: 0

[Editor]
Bookmarks: 24636,75909,76182,78364,78636
DistanceSpacing: 1.4
BeatDivisor: 4
GridSize: 4
TimelineZoom: 1.2

[Metadata]
Title:JoJo Sono Chi no Kioku~end of THE WORLD~
TitleUnicode:ジョジョ その血の記憶~end of THE WORLD~
Artist:JO*STARS ~TOMMY, Coda, JIN~
ArtistUnicode:JO☆STARS ~TOMMY, Coda, JIN~
Creator:Atsuro
Version:Insane
Source:JoJo's Bizarre Adventure: Stardust Crusaders 2nd Season
Tags:Kimyou na Bouken part 3 Opening ジョジョの奇妙な冒険 スターダストクルセイダース handsome deetz TV size Hiroaki "TOMMY" Tominaga Hashimoto Jin
BeatmapID:614215
BeatmapSetID:269969

[Difficulty]
HPDrainRate:7
CircleSize:4
OverallDifficulty:7
ApproachRate:9
SliderMultiplier:1.7
SliderTickRate:1

[Events]
//Background and Video events
Video,-200,"Mudamudamuda.avi"
0,0,"bg.png",0,0
//Break Periods
//Storyboard Layer 0 (Background)
//Storyboard Layer 1 (Fail)
//Storyboard Layer 2 (Pass)
//Storyboard Layer 3 (Foreground)
//Storyboard Sound Samples

[TimingPoints]
13459,272.727272727273,4,1,1,60,1,0
18913,-125,4,1,1,60,0,0
22186,-125,4,1,1,50,0,0
23004,-125,4,1,1,60,0,0
23140,-125,4,1,1,50,0,0
23277,-125,4,1,1,60,0,0
24368,-90.9090909090909,4,1,1,50,0,0
25186,-90.9090909090909,4,1,1,60,0,0
25459,-111.111111111111,4,1,1,60,0,0
26550,-83.3333333333333,4,1,1,50,0,0
27368,-83.3333333333333,4,1,1,60,0,0
27640,-111.111111111111,4,1,1,60,0,0
32004,-133.333333333333,4,2,1,70,0,0
36368,-111.111111111111,4,1,1,60,0,0
42368,-83.3333333333333,4,1,1,60,0,0
45095,-111.111111111111,4,1,1,60,0,0
54913,-90.9090909090908,4,1,1,60,0,0
60368,-125,4,2,1,80,0,0
63913,-111.111111111111,4,2,1,80,0,0
64186,-100,4,2,1,80,0,0
64459,-90.9090909090909,4,2,1,80,0,0
64731,-83.3333333333333,4,1,1,60,0,1
71686,-125,4,2,1,60,0,0
73459,-100,4,1,1,60,0,0
75640,-83.3333333333333,4,1,1,60,0,1
80004,-100,4,1,1,60,0,0
80549,-83.3333333333333,4,1,1,60,0,1
84368,-100,4,1,1,60,0,0

[Colours]
Combo1 : 217,163,0
Combo2 : 122,0,244
Combo3 : 166,0,0
Combo4 : 0,0,160

[HitObjects]
256,192,11277,12,2,13459,2:0:0:0:
112,248,14550,6,0,P|172:284|212:284,1,85,0|0,0:0|0:0,0:0:0:0:
200,160,14822,2,0,P|168:108|132:72,1,85,8|0,0:0|0:0,0:0:0:0:
326,285,15095,2,0,P|367:274|400:248,1,85,0|0,0:0|0:0,0:0:0:0:
359,90,15368,2,0,P|332:123|312:160,1,85,8|0,0:0|0:0,0:0:0:0:
185,285,15640,5,0,0:0:0:0:
99,208,15777,1,0,0:0:0:0:
195,114,15913,2,0,P|200:165|180:212,1,85,8|0,0:0|0:0,0:0:0:0:
99,114,16186,1,0,0:0:0:0:
186,37,16323,1,0,0:0:0:0:
301,111,16459,2,0,P|306:162|286:209,1,85,8|0,0:0|0:0,0:0:0:0:
229,325,16731,6,0,P|274:331|324:320,1,85,0|0,0:0|0:0,0:0:0:0:
464,151,17004,2,0,P|419:145|369:156,1,85,8|0,0:0|0:0,0:0:0:0:
268,207,17277,1,0,0:0:0:0:
171,259,17413,1,0,0:0:0:0:
72,207,17550,1,8,0:0:0:0:
32,103,17686,5,0,0:0:0:0:
23,62,17754,1,0,0:0:0:0:
43,25,17822,1,8,0:0:0:0:
223,40,17959,2,0,P|221:82|208:129,1,85,8|0,0:0|0:0,0:0:0:0:
256,244,18231,2,0,P|287:165|304:66,1,170,8|0,0:0|0:0,0:0:0:0:
362,205,18640,2,0,P|350:246|332:284,1,85,8|0,0:0|0:0,0:0:0:0:
256,344,18913,5,4,0:0:0:0:
179,284,19050,2,0,P|159:247|140:144,1,136,0|0,0:0|0:0,0:0:0:0:
109,50,19459,2,0,P|173:52|238:104,1,136,0|8,0:0|0:0,0:0:0:0:
336,250,20004,5,0,0:0:0:0:
378,336,20140,2,0,P|423:288|420:204,1,136
294,164,20549,2,0,P|249:212|252:296,1,136,0|8,0:0|0:0,0:0:0:0:
383,123,21095,5,0,0:0:0:0:
306,67,21231,2,0,P|261:52|149:48,1,136,0|0,0:0|0:0,0:0:0:0:
76,170,21640,2,0,P|121:155|176:148,2,102,0|8|0,0:0|0:0|0:0,0:0:0:0:
128,287,22186,6,0,P|181:300|219:303,1,68,4|4,3:0|2:3,0:0:0:0:
384,224,22459,2,0,P|331:237|293:240,1,68,4|4,3:0|2:3,0:0:0:0:
128,156,22731,2,0,P|181:169|219:172,1,68,4|4,3:0|2:3,0:0:0:0:
384,93,23004,2,0,P|331:106|293:109,1,68,8|4,0:0|2:3,0:0:0:0:
162,39,23277,5,0,0:0:0:0:
57,96,23413,2,0,P|35:160|84:239,1,136,0|0,0:0|0:0,0:0:0:0:
237,216,23822,2,0,P|192:164|99:167,1,136,0|8,0:0|0:0,0:0:0:0:
385,343,24368,6,0,P|417:313|444:263,1,93.5000028533936,4|0,0:0|0:0,0:0:0:0:
385,93,24640,2,0,P|352:122|325:172,1,93.5000028533936,4|0,0:0|0:0,0:0:0:0:
270,346,24913,2,0,P|237:316|200:165,1,187.000005706787,4|8,0:0|0:0,0:0:0:0:
385,93,25459,5,0,0:0:0:0:
440,188,25595,2,0,P|432:242|349:306,1,152.999995330811,0|0,0:0|0:0,0:0:0:0:
198,191,26004,2,0,P|270:169|338:202,1,152.999995330811,0|8,0:0|0:0,0:0:0:0:
88,344,26550,6,0,P|45:309|25:226,1,101.999996887207,4|0,0:0|0:0,0:0:0:0:
76,51,26822,2,0,P|118:85|138:168,1,101.999996887207,4|0,0:0|0:0,0:0:0:0:
218,332,27095,2,0,P|267:253|253:109,1,203.999993774414,4|8,0:0|0:0,0:0:0:0:
169,211,27504,1,0,0:0:0:0:
218,332,27640,6,0,P|279:349|305:351,1,76.4999976654053,0|0,0:0|0:0,0:0:0:0:
395,322,27913,1,8,0:0:0:0:
470,245,28050,2,0,P|471:171|436:91,1,152.999995330811,0|0,0:0|0:0,0:0:0:0:
336,28,28459,1,8,0:0:0:0:
288,144,28595,1,0,0:0:0:0:
247,269,28731,6,0,P|198:239|161:148,1,152.999995330811,0|8,0:0|0:0,0:0:0:0:
200,16,29140,1,0,0:0:0:0:
276,124,29277,2,0,L|342:207,1,76.4999976654053,0|0,0:0|0:0,0:0:0:0:
360,360,29550,2,0,L|294:277,1,76.4999976654053,8|0,0:0|0:0,0:0:0:0:
156,92,29822,5,4,3:0:0:0:
355,92,30095,1,4,3:0:0:0:
355,291,30367,1,4,3:0:0:0:
156,291,30640,1,4,3:0:0:0:
256,68,30913,5,4,3:0:0:0:
256,176,31050,1,4,3:0:0:0:
256,176,31118,1,4,3:0:0:0:
256,176,31186,2,0,L|256:268,1,76.4999976654053,8|0,0:0|0:0,0:0:0:0:
187,96,31595,2,0,P|256:68|326:96,1,152.999995330811,4|0,0:0|0:0,0:0:0:0:
380,158,32004,5,4,1:0:0:0:
377,246,32140,2,0,P|348:284|276:329,1,127.500004863739,0|0,0:0|0:0,0:0:0:0:
156,318,32550,2,0,L|209:269,1,63.7500024318696,0|0,0:0|0:0,0:0:0:0:
214,148,32822,2,0,L|161:197,1,63.7500024318696,8|0,0:1|0:0,0:0:0:0:
49,173,33095,2,0,P|78:135|150:90,1,127.500004863739,0|8,0:0|0:1,0:0:0:0:
264,52,33640,1,0,0:0:0:0:
264,52,33913,1,8,0:1:0:0:
384,92,34186,5,0,0:0:0:0:
384,92,34322,2,0,P|422:137|424:208,1,127.500004863739
507,254,34731,2,0,P|462:292|391:293,1,127.500004863739,0|8,0:0|0:1,0:0:0:0:
318,264,35140,1,0,0:0:0:0:
242,300,35277,2,0,P|179:297|130:258,1,127.500004863739,0|8,0:0|0:1,0:0:0:0:
63,158,35822,5,0,0:0:0:0:
63,158,36095,1,8,0:1:0:0:
41,66,36368,5,4,0:0:0:0:
41,66,36504,2,0,P|120:81|155:147,1,152.999995330811,0|0,0:0|0:0,0:0:0:0:
178,274,36913,2,0,P|217:269|263:240,1,76.4999976654053,0|0,0:0|0:0,0:0:0:0:
245,58,37186,2,0,P|229:94|231:148,1,76.4999976654053,8|0,0:0|0:0,0:0:0:0:
392,225,37459,6,0,P|471:181|507:118,1,152.999995330811,0|8,0:0|0:0,0:0:0:0:
360,72,37868,1,0,0:0:0:0:
228,131,38004,2,0,L|141:181,1,76.4999976654053,0|0,0:0|0:0,0:0:0:0:
13,134,38277,2,0,L|100:84,1,76.4999976654053,8|0,0:0|0:0,0:0:0:0:
272,40,38550,6,0,P|329:126|280:218,1,203.999993774414,4|8,0:0|0:0,0:0:0:0:
120,254,39095,1,4,0:0:0:0:
256,128,39277,1,0,0:0:0:0:
392,254,39459,1,8,0:0:0:0:
190,77,39640,6,0,P|256:45|322:78,1,152.999995330811,4|8,0:0|0:0,0:0:0:0:
406,189,40050,1,0,0:0:0:0:
361,279,40186,2,0,P|329:252|311:211,1,76.4999976654053
452,101,40459,2,0,P|483:127|501:168,1,76.4999976654053,8|0,0:0|0:0,0:0:0:0:
217,154,40731,6,0,P|146:92|137:8,1,152.999995330811,8|0,0:0|0:0,0:0:0:0:
242,244,41277,2,0,P|224:337|156:387,1,152.999995330811,8|0,0:0|0:0,0:0:0:0:
308,177,41822,2,0,P|397:146|474:180,1,152.999995330811,8|0,0:0|0:0,0:0:0:0:
217,154,42368,6,0,P|175:130|142:79,1,101.999996887207,8|0,0:0|0:0,0:0:0:0:
242,244,42640,2,0,P|242:293|215:347,1,101.999996887207,8|0,0:0|0:0,0:0:0:0:
308,177,42913,2,0,P|350:152|410:149,1,101.999996887207,8|8,0:0|0:0,0:0:0:0:
404,303,43186,1,0,0:0:0:0:
240,132,43322,2,0,P|326:80|449:75,1,203.999993774414,8|0,0:0|0:0,0:0:0:0:
390,272,43731,1,8,0:0:0:0:
256,192,44004,12,8,44822,0:2:0:0:
256,144,45095,5,4,0:0:0:0:
208,224,45231,1,0,0:0:0:0:
304,224,45368,2,0,P|344:176|344:132,1,76.4999976654053,0|0,0:0|0:0,0:0:0:0:
181,91,45640,2,0,P|164:163|208:224,1,152.999995330811,8|4,0:0|0:0,0:0:0:0:
357,304,46050,6,0,P|409:256|437:170,1,152.999995330811,0|8,0:0|0:0,0:0:0:0:
423,71,46459,1,0,0:0:0:0:
330,16,46595,1,0,0:0:0:0:
310,121,46731,2,0,P|279:165|235:180,1,76.4999976654053,8|0,0:0|0:0,0:0:0:0:
150,259,47004,2,0,P|203:263|238:294,1,76.4999976654053,0|0,0:0|0:0,0:0:0:0:
350,327,47277,6,0,P|327:278|391:194,1,152.999995330811,4|0,0:0|0:0,0:0:0:0:
475,191,47686,1,0,0:0:0:0:
474,296,47822,2,0,P|436:293|406:272,1,76.4999976654053,8|0,0:0|0:0,0:0:0:0:
263,116,48095,2,0,P|300:119|376:208,1,152.999995330811,0|8,0:0|0:0,0:0:0:0:
268,228,48504,5,0,0:0:0:0:
268,228,48572,1,0,0:0:0:0:
268,228,48640,2,0,B|198:229|148:180|150:105|150:105|88:120|54:181,1,305.999990661621,8|8,0:0|0:0,0:0:0:0:
85,274,49322,1,0,0:0:0:0:
173,335,49459,6,0,P|249:346|333:324,1,152.999995330811,4|8,0:0|0:0,0:0:0:0:
412,269,49868,1,0,0:0:0:0:
317,218,50004,2,0,P|306:138|374:100,1,152.999995330811,0|8,0:0|0:0,0:0:0:0:
458,59,50413,1,0,0:0:0:0:
356,22,50550,6,0,P|284:33|256:42,1,76.4999976654053
140,156,50822,2,0,P|212:145|240:136,1,76.4999976654053,8|0,0:0|0:0,0:0:0:0:
27,109,51095,2,0,P|21:185|59:249,1,152.999995330811,0|8,0:0|0:0,0:0:0:0:
180,313,51504,1,0,0:0:0:0:
180,313,51640,6,0,P|242:298|268:275,1,76.4999976654053,0|0,0:0|0:0,0:0:0:0:
296,117,51913,2,0,P|277:178|284:212,1,76.4999976654053,8|0,0:0|0:0,0:0:0:0:
356,264,52186,1,0,0:0:0:0:
448,209,52322,1,0,0:0:0:0:
448,101,52459,1,8,0:0:0:0:
356,45,52595,1,0,0:0:0:0:
262,146,52731,6,0,L|218:232,1,76.4999976654053,0|0,0:0|0:0,0:0:0:0:
204,85,53004,2,0,L|160:171,1,76.4999976654053,8|0,0:0|0:0,0:0:0:0:
146,24,53277,2,0,L|69:167,1,152.999995330811,0|8,0:0|0:0,0:0:0:0:
205,327,53822,6,0,P|282:309|306:292,1,76.4999976654053,4|0,0:0|0:0,0:0:0:0:
386,314,54095,2,0,P|427:246|432:217,1,76.4999976654053,8|0,0:0|0:0,0:0:0:0:
467,150,54368,1,0,0:0:0:0:
385,81,54504,1,0,0:0:0:0:
361,184,54640,1,8,0:0:0:0:
467,150,54777,1,0,0:0:0:0:
454,42,54913,6,0,P|415:8|357:5,1,93.5000028533936,4|0,0:0|0:0,0:0:0:0:
362,267,55186,2,0,P|410:250|442:201,1,93.5000028533936,8|0,0:0|0:0,0:0:0:0:
280,49,55459,2,0,P|248:135|267:225,1,187.000005706787,4|8,0:0|0:0,0:0:0:0:
201,24,56004,6,0,P|172:44|144:100,1,93.5000028533936
180,172,56209,2,0,P|100:168|64:116,2,140.25000428009
260,104,56754,2,0,P|324:82|407:113,1,140.25000428009
471,174,57095,6,0,P|503:259|471:345,1,187.000005706787,0|8,0:0|0:0,0:0:0:0:
324,337,57504,1,0,0:0:0:0:
292,244,57640,2,0,P|350:243|387:264,1,93.5000028533936
229,316,57913,2,0,P|198:264|199:222,1,93.5000028533936,8|0,0:0|0:0,0:0:0:0:
209,127,58186,5,0,0:0:0:0:
209,127,58322,1,0,0:0:0:0:
206,26,58459,2,0,P|286:65|288:185,1,187.000005706787,8|0,0:0|0:0,0:0:0:0:
264,251,58868,1,0,0:0:0:0:
137,318,59004,2,0,P|131:229|233:167,1,187.000005706787,8|0,0:0|0:0,0:0:0:0:
302,154,59413,5,0,0:0:0:0:
424,231,59550,2,0,P|350:281|246:223,1,187.000005706787,8|0,0:0|0:0,0:0:0:0:
200,170,59959,1,0,0:0:0:0:
328,77,60095,2,0,P|373:109|383:166,1,93.5000028533936,8|0,0:0|0:0,0:0:0:0:
319,311,60368,6,0,P|269:334|187:233,1,204,4|0,0:1|0:0,0:0:0:0:
135,138,60913,2,0,P|180:125|230:136,1,68,0|0,0:0|0:0,0:0:0:0:
79,233,61186,2,0,P|34:246|-16:235,1,68,8|0,0:1|0:0,0:0:0:0:
101,64,61459,6,0,P|172:45|229:44,1,102,0|0,0:0|0:0,0:0:0:0:
252,64,61731,2,0,P|302:69|344:64,1,68,0|0,0:0|0:0,0:0:0:0:
473,158,62004,2,0,P|423:163|383:158,1,68,0|0,0:0|0:0,0:0:0:0:
252,249,62277,2,0,P|302:254|345:247,1,68,8|0,0:1|0:0,0:0:0:0:
473,338,62550,6,0,P|405:359|342:338,1,136
124,247,62959,2,0,P|192:268|255:247,1,136
319,128,63368,2,0,P|353:134|391:156,1,68,8|0,0:1|0:0,0:0:0:0:
209,185,63640,6,0,P|195:150|196:107,1,68
313,246,63913,2,0,P|288:274|246:296,1,76.4999976654053
380,147,64186,2,0,P|410:164|440:208,1,85
196,120,64459,2,0,P|198:82|225:32,1,93.5000028533936,8|0,0:1|0:0,0:0:0:0:
255,294,64731,6,0,P|179:336|47:317,1,203.999993774414,4|8,0:0|0:0,0:0:0:0:
141,180,65140,1,0,0:0:0:0:
207,118,65277,2,0,P|231:179|216:229,1,101.999996887207,0|0,0:0|0:0,0:0:0:0:
74,245,65550,2,0,P|47:181|63:130,1,101.999996887207,8|0,0:0|0:0,0:0:0:0:
268,64,65822,6,0,P|311:157|281:276,1,203.999993774414,0|8,0:0|0:0,0:0:0:0:
163,165,66231,1,0,0:0:0:0:
327,15,66368,2,0,P|393:24|432:35,1,101.999996887207
507,183,66640,2,0,P|441:192|402:203,1,101.999996887207,8|0,0:0|0:0,0:0:0:0:
218,311,66913,6,0,P|159:336|62:229,1,203.999993774414,4|8,0:0|0:0,0:0:0:0:
115,135,67322,1,0,0:0:0:0:
221,169,67459,2,0,P|197:213|155:241,1,101.999996887207,0|0,0:0|0:0,0:0:0:0:
196,57,67731,2,0,L|308:57,1,101.999996887207,8|0,0:0|0:0,0:0:0:0:
421,58,68004,5,0,0:0:0:0:
499,168,68140,1,0,0:0:0:0:
499,168,68209,1,0,0:0:0:0:
499,168,68277,1,8,0:0:0:0:
421,279,68413,1,0,0:0:0:0:
346,168,68550,2,0,P|295:146|234:144,1,101.999996887207,0|0,0:0|0:0,0:0:0:0:
110,265,68822,2,0,P|161:287|222:289,1,101.999996887207,8|0,0:0|0:0,0:0:0:0:
417,120,69095,6,0,P|322:73|205:69,1,203.999993774414,4|8,0:0|0:0,0:0:0:0:
108,136,69504,1,0,0:0:0:0:
110,265,69640,2,0,P|125:317|182:353,1,101.999996887207,0|0,0:0|0:0,0:0:0:0:
308,240,69913,2,0,P|257:239|209:257,1,101.999996887207,8|0,0:0|0:0,0:0:0:0:
408,310,70186,5,4,3:0:0:0:
256,44,70595,1,4,3:0:0:0:
103,310,71004,1,4,3:0:0:0:
310,234,71277,5,8,0:0:0:0:
256,138,71413,1,8,0:0:0:0:
200,234,71550,1,8,0:0:0:0:
26,137,73050,5,4,3:0:0:0:
26,137,73118,1,4,3:0:0:0:
26,137,73186,2,0,L|54:211,1,68,8|0,1:0|0:0,0:0:0:0:
108,316,73459,6,0,B|236:372|236:272|356:328,1,255,4|0,0:0|0:0,0:0:0:0:
396,348,73936,1,0,0:0:0:0:
440,344,74004,2,0,P|484:212|400:148,1,255,8|0,0:0|0:0,0:0:0:0:
300,200,74550,5,8,0:0:0:0:
300,303,74686,1,0,0:0:0:0:
388,252,74822,1,8,0:0:0:0:
213,249,74959,1,0,0:0:0:0:
213,249,75027,1,0,0:0:0:0:
213,249,75095,2,0,L|124:249,1,85,8|0,0:0|0:0,0:0:0:0:
20,216,75368,1,0,0:0:0:0:
48,96,75504,1,0,0:0:0:0:
143,28,75640,6,0,P|185:67|208:124,1,101.999996887207,0|0,0:0|0:0,0:0:0:0:
300,349,75913,2,0,P|342:310|365:253,1,101.999996887207,8|0,0:0|0:0,0:0:0:0:
369,28,76186,2,0,P|327:67|304:124,1,101.999996887207,0|0,0:0|0:0,0:0:0:0:
212,349,76459,2,0,P|170:310|147:253,1,101.999996887207,8|0,0:0|0:0,0:0:0:0:
107,101,76731,6,0,P|177:90|229:113,1,101.999996887207,0|0,0:0|0:0,0:0:0:0:
405,283,77004,2,0,P|335:294|283:271,1,101.999996887207,8|0,0:0|0:0,0:0:0:0:
306,98,77277,2,0,P|355:88|405:101,1,101.999996887207,0|0,0:0|0:0,0:0:0:0:
205,285,77550,2,0,P|156:295|107:283,1,101.999996887207,8|0,0:0|0:0,0:0:0:0:
101,26,77822,6,0,P|161:46|181:98,1,101.999996887207,0|0,0:0|0:0,0:0:0:0:
210,360,78095,2,0,P|153:343|132:293,1,101.999996887207,8|0,0:0|0:0,0:0:0:0:
378,308,78368,2,0,P|350:349|302:360,1,101.999996887207,0|0,0:0|0:0,0:0:0:0:
333,77,78641,2,0,P|362:36|411:26,1,101.999996887207,8|0,0:0|0:0,0:0:0:0:
311,264,78913,5,0,0:0:0:0:
199,150,79049,1,0,0:0:0:0:
312,151,79186,1,8,0:0:0:0:
198,264,79322,1,0,0:0:0:0:
346,207,79459,1,0,0:0:0:0:
164,206,79595,1,0,0:0:0:0:
254,298,79732,1,8,0:0:0:0:
256,116,79868,1,0,0:0:0:0:
256,352,80550,5,4,0:0:0:0:
256,192,80686,12,8,84368,0:0:0:0:
256,192,84640,5,8,0:0:0:0:
256,192,84913,1,8,0:0:0:0:
254,372,85095,1,0,0:0:0:0:
412,282,85277,1,0,0:0:0:0:
256,192,85459,5,8,0:0:0:0:
98,281,85640,1,0,0:0:0:0:
99,100,85822,1,0,0:0:0:0:
256,192,86004,5,8,0:0:0:0:
413,102,86186,1,0,0:0:0:0:
256,11,86368,1,0,0:0:0:0:
256,192,86550,2,0,B|240:268|277:344|277:344|364:304|364:388|452:344,1,340,4|4,0:0|0:3,0:0:0:0:
