osu file format v5

[General]
AudioFilename: JOINT.mp3
AudioLeadIn: 0
PreviewTime: -1
Countdown: 1
SampleSet: Normal

[Metadata]
Title:JOINT
Artist:
Creator:kk03ip
Version:

[Difficulty]
HPDrainRate:5
CircleSize:5
OverallDifficulty:5
SliderMultiplier:2.2
SliderTickRate:3

[Events]
//Background and Video events
0,0,"1203839083802.jpg"
//Break Periods
//Storyboard Layer 0 (Background)
//Storyboard Layer 1 (Failing)
//Storyboard Layer 2 (Passing)
//Storyboard Layer 3 (Foreground)
//Storyboard Sound Samples
//Background Colour Transformations
3,100,163,162,255

[TimingPoints]
6,600,4,1,0,100

[Colours]
Combo1 : 0,0,0
Combo2 : 255,255,0
Combo3 : 0,0,255
Combo4 : 240,5,5

[HitObjects]
192,224,10806,1,0
192,224,11256,1,0
192,224,11556,1,0
192,224,11856,1,0
192,224,12006,1,0
320,256,12906,1,0
320,256,13056,1,0
320,256,13206,1,0
192,224,14256,5,0
192,224,14556,1,0
192,224,14706,1,0
320,224,15606,1,0
320,224,15756,1,0
128,224,16956,1,0
256,256,17406,1,0
256,256,17556,1,0
160,224,18906,1,0
160,224,19206,1,0
160,224,19506,1,0
192,288,20406,2,0,B|320:96,2,220
96,288,24156,2,0,B|160:256|160:96,7,165
256,192,28206,1,0
128,192,28656,1,0
256,256,29256,1,0
352,256,29706,1,0
288,256,30756,1,0
256,256,31206,1,0
192,256,31506,1,0
192,256,31806,1,0
160,160,32856,1,0
160,160,33006,1,0
160,160,33306,1,0
320,160,33756,1,0
224,224,34656,1,0
224,224,34956,1,0
224,224,35256,1,0
128,160,38106,1,0
224,192,38556,1,0
224,192,38706,1,0
224,192,39156,1,0
32,288,40056,1,0
192,192,40806,1,0
128,160,41556,1,0
128,160,42006,1,0
256,224,43656,1,0
192,224,43956,1,0
192,224,44106,1,0
96,224,44556,1,0
96,224,44856,1,0
224,160,45456,1,0
224,256,45756,1,0
96,256,48906,1,0
96,256,49056,1,0
96,256,49206,1,0
256,192,49806,1,0
192,192,50106,1,0
192,192,50406,1,0
192,256,50856,1,0
64,224,51606,2,0,B|128:64|96:96,2,110
192,256,52806,1,0
192,256,53106,1,0
224,192,54306,1,0
224,192,54456,1,0
224,192,54756,1,0
128,256,55206,1,0
128,256,55506,1,0
128,256,55656,1,0
320,224,56856,1,0
320,224,57156,1,0
320,224,57456,1,0
224,128,57906,1,0
64,256,59556,1,0
128,256,59856,1,0
160,256,60156,1,0
288,160,60606,1,0
192,160,60906,1,0
160,160,61056,1,0
224,256,61506,1,0
160,288,62256,1,0
96,224,62856,1,0
224,192,63606,1,0
320,288,64206,1,0
320,288,64356,1,0
320,288,64506,1,0
128,192,65106,1,0
128,192,65256,1,0
128,288,66456,2,0,B|288:128,1,220
224,256,67656,1,0
224,256,67806,1,0
224,256,68106,1,0
160,224,68556,1,0
160,224,68706,1,0
192,224,69756,1,0
192,224,69906,1,0
320,192,70356,1,0
320,192,70506,1,0
320,192,70656,1,0
160,192,71106,1,0
192,256,71556,1,0
192,256,71706,1,0
192,256,72006,1,0
192,288,72456,2,0,B|288:128|192:96,2,220
128,288,74256,1,0
128,288,74556,1,0
128,288,74706,1,0
256,256,75456,5,0
224,128,75606,1,0
192,256,75906,1,0
192,256,76056,1,0
192,256,76356,1,0
224,256,77406,1,0
224,256,77706,1,0
224,256,78006,1,0
128,192,78606,1,0
128,192,78756,1,0
288,160,79356,1,0
288,160,79506,1,0
128,288,79956,6,0,B|320:256,1,165
192,160,80706,5,0
192,160,80856,1,0
160,224,81756,1,0
160,192,82206,1,0
160,192,82356,1,0
160,192,82506,1,0
384,160,83556,1,0
384,160,83856,1,0
384,160,84006,1,0
96,288,84756,1,0
96,288,85056,1,0
320,160,85806,1,0
320,160,85956,1,0
192,192,86856,1,0
160,256,87306,1,0
160,256,87606,1,0
160,256,87906,1,0
160,256,88056,1,0
128,288,90306,2,0,B|320:128|64:32,1,330
160,288,92406,2,0,B|256:160|96:192,1,165
256,224,93606,1,0
256,224,93906,1,0
160,256,95406,1,0
160,256,95556,1,0
160,256,95706,1,0
192,160,97206,1,0
192,160,97356,1,0
160,224,97806,1,0
160,224,98106,1,0
160,224,98406,1,0
288,256,98706,1,0
288,256,99156,1,0
128,256,102156,1,0
128,256,102306,1,0
128,256,102606,1,0
256,160,103206,1,0
256,160,103506,1,0
256,160,103806,1,0
224,224,104106,1,0
160,256,104856,1,0
128,224,105606,1,0
96,192,106206,1,0
288,224,107556,1,0
288,224,107706,1,0
288,224,108006,1,0
160,224,108906,5,0
160,224,109056,1,0
320,128,109506,1,0
288,224,109806,1,0
96,224,112956,1,0
96,224,113106,1,0
96,224,113256,1,0
288,192,113856,1,0
288,192,114156,1,0
288,192,114306,1,0
224,256,114756,1,0
128,224,115506,1,0
160,160,116106,1,0
160,160,116256,1,0
288,192,116856,1,0
256,256,117156,1,0
160,224,118206,5,0
160,224,118506,1,0
128,288,119106,2,0,B|224:160,1,110
192,224,120906,1,0
192,224,121206,1,0
192,224,121356,1,0
256,256,121806,1,0
128,288,123606,1,0
128,288,123906,1,0
128,288,124056,1,0
256,192,124506,1,0
288,256,124956,1,0
288,256,125106,1,0
224,288,125406,1,0
96,288,126306,1,0
96,224,126906,1,0
256,224,127656,1,0
192,288,128256,1,0
192,288,128556,1,0
192,288,128706,1,0
192,288,129156,1,0
128,288,130656,6,0,B|192:288|256:96,2,220
160,192,132456,1,0
160,192,132756,1,0
256,288,133356,1,0
256,288,133806,1,0
256,288,133956,1,0
96,256,134706,1,0
224,224,135156,1,0
224,224,135606,1,0
224,224,135756,1,0
352,128,136206,1,0
128,256,136956,1,0
128,256,137106,1,0
128,256,137406,1,0
256,256,138006,1,0
256,256,138306,1,0
224,160,138606,1,0
128,160,139206,1,0
128,160,139506,1,0
224,256,140406,5,0
224,256,140556,1,0
256,160,141456,1,0
256,160,141606,1,0
256,160,141756,1,0
128,224,142656,1,0
224,256,143256,1,0
224,256,143406,1,0
256,160,144156,1,0
256,160,144306,1,0
256,160,144606,1,0
160,192,145206,1,0
224,256,145956,1,0
224,256,146256,1,0
224,256,146406,1,0
224,256,146556,1,0
288,160,147456,1,0
192,160,147906,1,0
192,160,148056,1,0
96,256,148806,1,0
192,288,148956,2,0,B|352:96,3,220
128,224,154656,6,0,B|320:96|320:320,2,275
160,192,158556,1,0
160,192,158856,1,0
288,192,159606,1,0
288,192,159906,1,0
128,256,161256,2,0,B|224:224|160:64,3,165
192,160,165756,1,0
192,160,166056,1,0
256,224,167256,1,0
160,256,167856,1,0
160,256,168306,1,0
352,160,170856,1,0
96,224,172956,1,0
96,224,173256,1,0
192,224,177156,1,0
192,224,177306,1,0
192,224,177456,1,0
288,192,177906,1,0
288,192,178056,1,0
352,160,178656,1,0
320,160,179106,1,0
160,256,180156,2,0,B|320:96,2,220
192,192,182856,1,0
256,256,183306,1,0
256,256,183606,1,0
320,160,184806,1,0
160,192,185256,1,0
160,192,185406,1,0
256,256,185856,1,0
320,224,186156,1,0
320,224,186306,1,0
128,224,187806,1,0
224,224,188106,1,0
320,224,188556,1,0
320,224,188856,1,0
320,288,189456,1,0
384,288,189756,1,0
384,288,189906,1,0
160,288,190956,2,0,B|160:96,2,165
256,192,192606,1,0
256,192,192756,1,0
192,256,194106,1,0
160,224,194556,1,0
160,224,194706,1,0
256,192,195156,1,0
160,224,195906,1,0
160,224,196656,1,0
160,224,196956,1,0
160,224,197106,1,0
192,256,198006,2,0,B|224:224|480:160,1,275
128,224,199506,1,0
128,224,199656,1,0
256,224,200856,1,0
224,192,201606,1,0
160,256,202206,1,0
288,288,202806,1,0
288,288,203106,1,0
288,288,203256,1,0
64,256,204006,1,0
256,192,205206,12,0,207306
192,192,208356,1,0
192,192,208506,1,0
384,288,208956,1,0
384,288,209106,1,0
384,288,209256,1,0
320,192,209856,1,0
224,224,210306,1,0
224,224,210456,1,0
128,224,210756,1,0
288,288,211656,1,0
288,288,211956,1,0
288,288,212106,1,0
128,192,212706,1,0
128,192,213006,1,0
320,192,213756,1,0
224,256,214206,1,0
224,256,214656,1,0
224,256,214806,1,0
128,224,215106,1,0
128,224,215256,1,0
128,256,216156,2,0,B|320:96,1,220
224,288,217506,1,0
224,288,217806,1,0
224,288,217956,1,0
192,192,218706,1,0
192,192,220056,1,0
192,192,220506,1,0
192,192,220806,1,0
192,192,220956,1,0
320,256,221556,1,0
160,256,222306,1,0
160,256,222456,1,0
128,160,223356,1,0
128,160,223506,1,0
352,256,224406,1,0
352,256,224556,1,0
256,192,225906,12,0,229506
