osu file format v14

[General]
AudioFilename: COF scream 5.mp3
AudioLeadIn: 0
PreviewTime: -1
Countdown: 1
SampleSet: None
StackLeniency: 0.7
Mode: 3
LetterboxInBreaks: 1
SpecialStyle: 0
WidescreenStoryboard: 0

[Editor]
DistanceSpacing: 0.9
BeatDivisor: 4
GridSize: 16
TimelineZoom: 1

[Metadata]
Title:WWE SUPERSLAM
TitleUnicode:WWE SUPERSLAM
Artist:JOHN CENA
ArtistUnicode:JOHN CENA
Creator:Keldy
Version:THIS SUNDAY
Source:
Tags:
BeatmapID:747196
BeatmapSetID:337746

[Difficulty]
HPDrainRate:6
CircleSize:7
OverallDifficulty:6
ApproachRate:5
SliderMultiplier:1.4
SliderTickRate:1

[Events]
//Background and Video events
//Break Periods
//Storyboard Layer 0 (Background)
//Storyboard Layer 1 (Fail)
//Storyboard Layer 2 (Pass)
//Storyboard Layer 3 (Foreground)
//Storyboard Sound Samples

[TimingPoints]
1022.05923280346,179.10447761194,4,1,0,100,1,0

[HitObjects]
256,192,171,128,0,484:0:0:0:0:
256,192,574,1,0,0:0:0:0:
402,192,977,1,0,0:0:0:0:
36,192,1290,1,0,0:0:0:0:
329,192,1380,1,0,0:0:0:0:
402,192,1380,1,0,0:0:0:0:
329,192,1738,1,0,0:0:0:0:
109,192,1872,1,0,0:0:0:0:
182,192,1872,1,0,0:0:0:0:
402,192,2096,1,0,0:0:0:0:
109,192,2275,1,0,0:0:0:0:
256,192,2589,1,0,0:0:0:0:
36,192,2723,1,0,0:0:0:0:
256,192,2857,1,0,0:0:0:0:
109,192,2947,1,0,0:0:0:0:
402,192,3126,128,0,3439:0:0:0:0:
182,192,3439,1,0,0:0:0:0:
182,192,3663,1,0,0:0:0:0:
256,192,3753,1,0,0:0:0:0:
109,192,3932,1,0,0:0:0:0:
36,192,3977,128,0,4335:0:0:0:0:
402,192,4111,1,0,0:0:0:0:
475,192,4156,128,0,4469:0:0:0:0:
182,192,4380,1,0,0:0:0:0:
329,192,4425,1,0,0:0:0:0:
402,192,4425,1,0,0:0:0:0:
109,192,4469,1,0,0:0:0:0:
109,192,4604,1,0,0:0:0:0:
256,192,4738,1,0,0:0:0:0:
36,192,4962,1,0,0:0:0:0:
256,192,4962,128,0,5275:0:0:0:0:
109,192,5051,1,0,0:0:0:0:
36,192,5320,1,0,0:0:0:0:
402,192,5454,1,0,0:0:0:0:
475,192,5454,1,0,0:0:0:0:
109,192,5589,1,0,0:0:0:0:
402,192,5768,1,0,0:0:0:0:
329,192,5768,1,0,0:0:0:0:
182,192,5902,1,0,0:0:0:0:
329,192,6126,1,0,0:0:0:0:
329,192,6260,1,0,0:0:0:0:
109,192,6439,1,0,0:0:0:0:
402,192,6484,1,0,0:0:0:0:
36,192,6798,1,0,0:0:0:0:
475,192,6798,1,0,0:0:0:0:
256,192,7245,1,0,0:0:0:0:
109,192,7380,1,0,0:0:0:0:
402,192,7648,1,0,0:0:0:0:
329,192,7693,1,0,0:0:0:0:
402,192,8007,1,0,0:0:0:0:
109,192,8186,1,0,0:0:0:0:
402,192,8186,1,0,0:0:0:0:
36,192,8544,1,0,0:0:0:0:
475,192,8544,1,0,0:0:0:0:
