osu file format v9

[General]
AudioFilename: DAM DARIRAM.mp3
AudioLeadIn: 0
PreviewTime: 54178
Countdown: 1
SampleSet: Normal
StackLeniency: 0.7
Mode: 1
LetterboxInBreaks: 0

[Editor]
DistanceSpacing: 0
BeatDivisor: 4
GridSize: 4

[Metadata]
Title:DAM DARIRAM
Artist:JOGA
Creator:Krisom
Version:Taiko Oni
Source:Dance Dance Revolution
Tags:DDR 3rd Mix

[Difficulty]
HPDrainRate:5
CircleSize:5
OverallDifficulty:5
ApproachRate:5
SliderMultiplier:1.4
SliderTickRate:2

[Events]
//Background and Video events
0,0,"BGtaiko.png"
//Break Periods
//Storyboard Layer 0 (Background)
//Storyboard Layer 1 (Fail)
//Storyboard Layer 2 (Pass)
//Storyboard Layer 3 (Foreground)
//Storyboard Sound Samples
//Background Colour Transformations
3,100,163,162,255

[TimingPoints]
1053,421.437100512748,4,1,0,100,1,0
54996,-100,4,1,0,100,0,1
68482,-100,4,1,0,100,0,0

[Colours]
Combo1 : 240,124,21
Combo2 : 136,200,17
Combo3 : 227,3,4
Combo4 : 0,145,210

[HitObjects]
260,192,14538,1,4
260,192,14749,1,0
260,192,14854,1,8
260,192,15065,1,0
260,192,15171,1,0
260,192,15381,1,0
260,192,15487,1,8
260,192,15697,1,0
260,192,15803,1,0
260,192,16014,1,8
260,192,16224,1,0
260,192,16435,1,0
260,192,16540,1,8
260,192,16751,1,0
260,192,16856,1,0
260,192,17067,1,0
260,192,17172,1,8
260,192,17383,1,0
260,192,17489,1,8
260,192,17699,1,0
260,192,17910,1,0
260,192,18121,1,0
260,192,18226,1,8
260,192,18437,1,0
260,192,18542,1,0
260,192,18753,1,0
260,192,18858,1,8
260,192,19069,1,0
260,192,19175,1,8
260,192,19385,1,0
260,192,19596,1,0
260,192,19807,1,0
260,192,19912,1,8
260,192,20123,1,0
260,192,20229,1,0
260,192,20439,1,0
260,192,20545,1,8
260,192,20755,1,0
260,192,20861,1,0
260,192,21072,1,8
260,192,21281,1,0
260,192,21492,1,0
260,192,21598,1,8
260,192,21808,1,8
260,192,21914,1,0
260,192,22124,1,0
260,192,22230,1,8
260,192,22440,1,8
260,192,22546,1,0
260,192,22757,1,8
260,192,22967,1,0
260,192,23178,1,8
260,192,23283,1,0
260,192,23494,1,0
260,192,23599,1,8
260,192,23810,1,8
260,192,23915,1,0
260,192,24126,1,0
260,192,24232,1,8
260,192,24442,1,0
260,192,24653,1,0
260,192,24864,1,8
260,192,24969,1,0
260,192,25180,1,0
260,192,25285,1,8
260,192,25496,1,8
260,192,25601,1,0
260,192,25812,1,0
260,192,25918,1,8
260,192,26128,1,0
260,192,26339,1,0
260,192,26550,1,0
260,192,26656,1,8
260,192,26866,1,8
260,192,26972,1,0
260,192,27182,1,0
260,192,27288,1,8
260,192,27498,1,8
260,192,27604,1,0
260,192,27815,1,8
260,192,28024,1,4
260,192,28235,1,8
260,192,28446,1,0
260,192,28657,1,8
260,192,28762,1,8
260,192,28867,1,0
260,192,29078,1,8
260,192,29289,1,0
260,192,29500,1,8
260,192,29605,1,0
260,192,29710,1,0
260,192,29921,1,8
260,192,30132,1,0
260,192,30342,1,8
260,192,30553,1,0
260,192,30764,1,8
260,192,30869,1,0
260,192,30975,1,8
260,192,31185,1,8
260,192,31396,1,0
260,192,31607,1,8
260,192,31818,1,0
260,192,32029,1,8
260,192,32134,1,8
260,192,32239,1,0
260,192,32450,1,8
260,192,32661,1,0
260,192,32872,1,8
260,192,32977,1,0
260,192,33082,1,0
260,192,33293,1,8
260,192,33504,1,0
260,192,33714,1,8
260,192,33925,1,0
260,192,34136,1,8
260,192,34347,1,0
260,192,34557,1,8
260,192,34662,1,8
260,192,34767,1,0
260,192,34978,1,8
260,192,35189,1,0
260,192,35400,1,8
260,192,35610,1,0
260,192,35821,1,8
260,192,35926,1,8
260,192,36032,1,0
260,192,36242,1,8
260,192,36453,1,0
260,192,36664,1,8
260,192,36875,1,0
260,192,37085,1,0
260,192,37191,1,0
260,192,37296,1,0
260,192,37507,1,8
260,192,37718,1,0
260,192,37928,1,8
260,192,38139,1,0
260,192,38350,1,8
260,192,38560,1,0
260,192,38771,1,0
260,192,38876,1,0
260,192,38982,1,8
260,192,39193,1,8
260,192,39403,1,8
260,192,39614,1,0
260,192,40035,1,0
260,192,40246,1,8
260,192,40457,1,8
260,192,40562,1,8
260,192,40668,1,0
260,192,40878,1,0
260,192,41089,1,8
260,192,41300,1,0
260,192,41510,1,4
260,192,41932,1,8
260,192,42143,1,8
260,192,42248,1,0
260,192,42353,1,0
260,192,42564,1,0
260,192,42775,1,8
260,192,42985,1,4
260,192,43618,1,8
260,192,43829,1,8
260,192,43934,1,0
260,192,44039,1,0
260,192,44250,1,0
260,192,44461,1,8
260,192,44671,1,4
260,192,45198,1,0
260,192,45303,1,8
260,192,45514,1,8
288,216,45619,1,0
260,192,45725,1,0
260,192,45936,1,8
260,192,46146,1,0
260,192,46357,1,8
260,192,46778,1,8
260,192,46989,1,8
260,192,47200,1,0
260,192,47305,1,0
260,192,47411,1,0
260,192,47621,1,8
260,192,47832,1,8
260,192,48043,1,0
260,192,48253,1,12
260,192,48675,1,0
260,192,48886,1,0
260,192,48991,1,0
260,192,49096,1,8
260,192,49307,1,0
260,192,49518,1,0
260,192,49728,1,12
260,192,50361,1,0
260,192,50571,1,8
260,192,50677,1,0
260,192,50782,1,8
260,192,50993,1,0
260,192,51204,1,0
260,192,51414,1,12
260,192,51836,1,0
260,192,52257,1,12
260,192,52679,1,0
260,192,53100,1,4
260,192,53311,1,12
260,192,54996,1,4
260,192,55418,1,8
260,192,55523,1,8
260,192,55629,1,0
260,192,55839,1,4
260,192,56261,1,8
260,192,56366,1,8
260,192,56471,1,0
260,192,56682,1,4
260,192,57104,1,8
260,192,57209,1,0
260,192,57314,1,0
260,192,57525,1,8
260,192,57630,1,8
260,192,57736,1,0
260,192,57947,1,8
260,192,58052,1,8
260,192,58157,1,8
260,192,58368,1,4
260,192,58789,1,8
260,192,58895,1,8
260,192,59000,1,0
260,192,59211,1,0
260,192,59422,1,8
260,192,59527,1,8
260,192,59632,1,8
260,192,59843,1,0
260,192,60054,1,0
260,192,60264,1,0
260,192,60370,1,0
260,192,60475,1,8
260,192,60686,1,0
260,192,60897,1,0
260,192,61107,1,8
260,192,61213,1,0
260,192,61318,1,8
260,192,61529,1,8
260,192,61739,1,4
260,192,62161,1,8
260,192,62266,1,8
260,192,62372,1,0
260,192,62582,1,4
260,192,63004,1,8
260,192,63109,1,8
260,192,63214,1,0
260,192,63425,1,4
260,192,63847,1,8
260,192,63952,1,0
260,192,64057,1,0
260,192,64268,1,8
260,192,64373,1,0
260,192,64479,1,0
260,192,64690,1,8
260,192,64795,1,8
260,192,64900,1,8
260,192,65111,1,4
260,192,65532,1,8
260,192,65638,1,0
260,192,65743,1,0
260,192,65954,1,0
260,192,66165,1,8
260,192,66270,1,8
260,192,66375,1,8
260,192,66586,1,0
260,192,66797,1,0
260,192,67007,1,0
260,192,67218,1,8
260,192,67429,1,0
260,192,67534,1,0
260,192,67639,1,0
260,192,67850,1,0
260,192,68482,1,4
260,192,68693,1,0
260,192,68798,1,8
260,192,69009,1,0
260,192,69115,1,0
260,192,69325,1,0
260,192,69431,1,8
260,192,69641,1,0
260,192,69747,1,0
260,192,69958,1,8
260,192,70168,1,0
260,192,70379,1,0
260,192,70484,1,8
260,192,70695,1,0
260,192,70800,1,0
260,192,71011,1,0
260,192,71116,1,8
260,192,71327,1,0
260,192,71433,1,8
260,192,71643,1,0
260,192,71854,1,0
260,192,72065,1,0
260,192,72170,1,8
260,192,72381,1,0
260,192,72486,1,0
260,192,72697,1,0
260,192,72802,1,8
260,192,73013,1,0
260,192,73119,1,8
260,192,73329,1,0
260,192,73540,1,0
260,192,73751,1,0
260,192,73856,1,8
260,192,74067,1,0
260,192,74173,1,0
260,192,74383,1,0
260,192,74489,1,8
260,192,74699,1,0
260,192,74805,1,0
260,192,75016,1,8
260,192,75225,1,0
260,192,75436,1,0
260,192,75542,1,8
260,192,75752,1,8
260,192,75858,1,0
260,192,76068,1,0
260,192,76174,1,8
260,192,76384,1,8
260,192,76490,1,0
260,192,76701,1,8
260,192,76911,1,0
260,192,77122,1,8
260,192,77227,1,0
260,192,77438,1,0
260,192,77543,1,8
260,192,77754,1,8
260,192,77859,1,0
260,192,78070,1,0
260,192,78176,1,8
260,192,78386,1,0
260,192,78597,1,0
260,192,78808,1,8
260,192,78913,1,0
260,192,79124,1,0
260,192,79229,1,8
260,192,79440,1,8
260,192,79545,1,0
260,192,79756,1,0
260,192,79862,1,8
260,192,80072,1,0
260,192,80283,1,0
260,192,80494,1,0
260,192,80600,1,8
260,192,80810,1,8
260,192,80916,1,0
260,192,81126,1,0
260,192,81232,1,8
260,192,81442,1,8
260,192,81548,1,0
260,192,81759,1,8
260,192,81968,1,4
256,192,82179,12,0,88290
