osu file format v9

[General]
AudioFilename: DAM DARIRAM.mp3
AudioLeadIn: 0
PreviewTime: 54178
Countdown: 1
SampleSet: Normal
StackLeniency: 0.7
Mode: 1
LetterboxInBreaks: 0

[Editor]
DistanceSpacing: 0
BeatDivisor: 4
GridSize: 4

[Metadata]
Title:DAM DARIRAM
Artist:JOGA
Creator:Krisom
Version:Taiko Muzukashii
Source:Dance Dance Revolution
Tags:DDR 3rd Mix

[Difficulty]
HPDrainRate:5
CircleSize:5
OverallDifficulty:5
ApproachRate:5
SliderMultiplier:1.4
SliderTickRate:2

[Events]
//Background and Video events
0,0,"BGtaiko.png"
//Break Periods
//Storyboard Layer 0 (Background)
//Storyboard Layer 1 (Fail)
//Storyboard Layer 2 (Pass)
//Storyboard Layer 3 (Foreground)
//Storyboard Sound Samples
//Background Colour Transformations
3,100,163,162,255

[TimingPoints]
1053,421.437100512748,4,1,0,100,1,0
54996,-100,4,1,0,100,0,1
68482,-100,4,1,0,100,0,0

[Colours]
Combo1 : 240,124,21
Combo2 : 136,200,17
Combo3 : 227,3,4
Combo4 : 0,145,210

[HitObjects]
256,192,14538,1,4
256,192,14855,1,8
256,192,15171,1,0
256,192,15487,1,8
256,192,15803,1,0
256,192,16014,1,8
256,192,16224,1,0
256,192,16540,1,8
256,192,16856,1,8
256,192,17172,1,0
256,192,17489,1,8
256,192,17699,1,0
256,192,17910,1,0
256,192,18226,1,8
256,192,18542,1,8
256,192,18858,1,0
256,192,19175,1,8
256,192,19385,1,0
256,192,19596,1,0
256,192,19913,1,8
256,192,20229,1,0
256,192,20545,1,8
256,192,20861,1,0
256,192,21072,1,8
256,192,21281,1,8
256,192,21598,1,0
256,192,21914,1,8
256,192,22230,1,0
256,192,22546,1,8
256,192,22757,1,8
256,192,22967,1,8
256,192,23283,1,0
256,192,23599,1,8
256,192,23915,1,0
256,192,24232,1,8
256,192,24442,1,0
256,192,24653,1,8
256,192,24969,1,0
256,192,25285,1,8
256,192,25601,1,0
256,192,25918,1,8
256,192,26128,1,0
256,192,26339,1,8
256,192,26656,1,0
256,192,26972,1,8
256,192,27288,1,0
256,192,27604,1,8
256,192,27815,1,8
256,192,28024,1,4
256,192,28446,1,8
256,192,28867,1,0
256,192,29078,1,0
256,192,29289,1,8
256,192,29500,1,0
256,192,29921,1,0
256,192,30132,1,8
256,192,30342,1,0
256,192,30764,1,0
256,192,30975,1,8
256,192,31185,1,8
256,192,31396,1,0
256,192,31817,1,8
256,192,32239,1,0
256,192,32450,1,0
256,192,32660,1,8
256,192,32871,1,8
256,192,33292,1,0
256,192,33503,1,8
256,192,33714,1,0
256,192,34135,1,0
256,192,34346,1,8
256,192,34557,1,0
256,192,34662,1,0
256,192,34767,1,0
256,192,35189,1,8
256,192,35610,1,0
256,192,35821,1,8
256,192,36032,1,0
256,192,36242,1,0
256,192,36664,1,0
256,192,36875,1,8
256,192,37085,1,0
256,192,37507,1,0
256,192,37718,1,0
256,192,37928,1,0
256,192,38350,1,0
256,192,38560,1,8
256,192,38771,1,8
256,192,38982,1,0
256,192,39193,1,0
256,192,39403,1,8
256,192,39614,1,0
256,192,40035,1,0
256,192,40246,1,8
256,192,40668,1,0
256,192,40878,1,0
256,192,41089,1,8
256,192,41194,1,8
256,192,41300,1,8
256,192,41510,1,4
256,192,41932,1,8
256,192,42143,1,8
256,192,42353,1,0
256,192,42775,1,8
256,192,42985,1,4
256,192,43618,1,8
256,192,43828,1,8
256,192,44039,1,0
256,192,44461,1,0
256,192,44671,1,4
256,192,45303,1,8
256,192,45514,1,0
256,192,45936,1,0
256,192,46146,1,8
256,192,46357,1,0
256,192,46778,1,8
256,192,46989,1,8
256,192,47411,1,0
256,192,47516,1,0
256,192,47621,1,0
256,192,47832,1,8
256,192,48043,1,0
256,192,48253,1,12
256,192,48675,1,8
256,192,48886,1,8
256,192,49096,1,0
256,192,49518,1,0
256,192,49728,1,12
256,192,50361,1,8
256,192,50571,1,8
256,192,50782,1,0
256,192,51204,1,8
256,192,51414,1,12
256,192,51836,1,0
256,192,52257,1,12
256,192,52679,1,0
256,192,53100,1,0
256,192,53311,1,4
256,192,54996,1,4
256,192,55418,1,0
256,192,55629,1,8
256,192,55839,1,4
256,192,56261,1,0
256,192,56471,1,8
256,192,56682,1,4
256,192,57104,1,0
256,192,57314,1,8
256,192,57525,1,0
256,192,57736,1,8
256,192,57947,1,0
256,192,58157,1,8
256,192,58368,1,4
256,192,58789,1,0
256,192,59000,1,8
256,192,59211,1,0
256,192,59422,1,0
256,192,59843,1,0
256,192,60054,1,0
256,192,60475,1,8
256,192,60897,1,0
256,192,61002,1,0
256,192,61107,1,0
256,192,61318,1,8
256,192,61739,1,4
256,192,62161,1,0
256,192,62372,1,8
256,192,62582,1,4
256,192,63004,1,0
256,192,63214,1,8
256,192,63425,1,4
256,192,63847,1,0
256,192,64057,1,8
256,192,64268,1,0
256,192,64479,1,8
256,192,64690,1,0
256,192,64900,1,8
256,192,65111,1,4
256,192,65532,1,0
256,192,65743,1,8
256,192,65954,1,0
256,192,66165,1,0
256,192,66586,1,0
256,192,66797,1,0
256,192,67218,1,8
256,192,67534,1,0
256,192,67640,1,0
256,192,67850,1,0
256,192,68482,1,4
256,192,68799,1,8
256,192,69115,1,0
256,192,69431,1,8
256,192,69747,1,0
256,192,69958,1,8
256,192,70168,1,0
256,192,70484,1,8
256,192,70800,1,8
256,192,71116,1,0
256,192,71433,1,8
256,192,71643,1,0
256,192,71854,1,0
256,192,72170,1,8
256,192,72486,1,8
256,192,72802,1,0
256,192,73119,1,8
256,192,73329,1,0
256,192,73540,1,0
256,192,73857,1,8
256,192,74173,1,0
256,192,74489,1,8
256,192,74805,1,0
256,192,75016,1,8
256,192,75225,1,8
256,192,75542,1,0
256,192,75858,1,8
256,192,76174,1,0
256,192,76490,1,8
256,192,76701,1,8
256,192,76911,1,8
256,192,77227,1,0
256,192,77543,1,8
256,192,77859,1,0
256,192,78176,1,8
256,192,78386,1,0
256,192,78597,1,8
256,192,78913,1,0
256,192,79229,1,8
256,192,79545,1,0
256,192,79862,1,8
256,192,80072,1,0
256,192,80283,1,8
256,192,80600,1,0
256,192,80916,1,8
256,192,81232,1,0
256,192,81548,1,8
256,192,81759,1,8
256,192,81968,1,4
256,192,82179,12,0,88290
