osu file format v7

[General]
AudioFilename: JLS Everybody In Love.mp3
AudioLeadIn: 0
PreviewTime: 6373
Countdown: 1
SampleSet: Soft
StackLeniency: 0.7
Mode: 0
LetterboxInBreaks: 0

[Editor]
DistanceSpacing: 0.800000011920929
BeatDivisor: 4
GridSize: 8

[Metadata]
Title:Everybody in Love
Artist:JLS
Creator:DiamondCrash
Version:Easy
Source:
Tags:X Factor Larto

[Difficulty]
HPDrainRate:3
CircleSize:3
OverallDifficulty:3
SliderMultiplier:1.4
SliderTickRate:2

[Events]
//Background and Video events
0,0,"JLS WALLPAPER.jpg"
//Break Periods
2,75610,80398
//Storyboard Layer 0 (Background)
//Storyboard Layer 1 (Fail)
//Storyboard Layer 2 (Pass)
//Storyboard Layer 3 (Foreground)
//Storyboard Sound Samples
//Background Colour Transformations
3,100,0,0,0

[TimingPoints]
7053,428.571428571429,4,2,0,71,1,0
109910,-100,4,2,0,71,0,1

[HitObjects]
256,104,6624,1,8
200,200,7052,2,2,B|224:248|296:248|312:192,2,140,2|2|10
328,312,8552,6,0,B|248:312,1,70,8|2
224,208,9195,2,2,B|152:264|168:152|96:208,1,140,2|10
256,136,10267,6,0,B|256:56,1,70,8|2
360,112,10910,2,0,B|424:120|416:224|336:208,1,140,0|8
256,336,11981,5,8
256,280,12195,2,2,B|256:128,2,140,2|2|10
256,96,13695,5,8
256,96,13910,2,10,B|88:200|432:176|240:304,1,280,2|10
160,192,15410,5,8
160,192,15624,2,0,B|264:24|240:368|368:176,1,280,2|8
256,312,17124,5,8
256,256,17338,2,2,B|400:256,2,140,0|0|8
296,152,18624,5,4
256,48,19053,1,4
216,152,19481,1,4
56,192,20124,5,8
208,264,20767,2,2,B|216:328|320:320|304:240,2,140,2|2|10
256,160,22053,1,8
328,72,22481,2,4,B|184:72,1,140
144,264,23553,1,4
368,248,24410,5,8
368,136,24838,1,8
272,192,25267,2,2,B|32:192,2,210
200,192,27838,6,2,B|48:192,2,140,2|2|10
312,192,29124,2,2,B|480:192,2,140,2|2|10
256,96,30410,1,8
40,144,31267,6,0,B|104:152|96:240|32:232,1,140
152,192,32124,2,0,B|248:192,1,70
256,296,32767,2,4,B|352:288|400:232|344:128,1,210
200,208,34053,6,0,B|224:160|264:160|304:168|312:224,3,140,2|8|2|8
256,48,35981,1,8
256,48,36195,2,2,B|256:280,1,210,2|10
120,80,37695,6,0,B|416:80,2,280,0|8|0
120,136,39624,2,4,B|120:312,2,140
392,200,41553,6,0,B|208:56,1,210,0|8
168,72,42410,2,2,B|64:64|24:144|64:240|192:208,1,280,10|2
120,200,44981,6,0,B|304:56,1,210,0|8
344,72,45838,2,2,B|448:64|488:144|448:240|320:208,1,280,10|2
144,192,47767,5,8
200,96,48195,1,8
312,96,48624,1,8
368,192,49052,1,8
256,320,49695,5,2
256,320,49910,1,8
200,224,50338,1,8
312,224,50767,1,8
256,64,51410,5,0
256,64,51624,2,8,B|176:56|120:136|152:240|232:248|264:240,1,280
408,192,53124,5,2
408,192,53338,1,8
336,112,53767,1,8
256,192,54195,2,4,B|88:192,2,140
456,192,56124,5,2
456,192,56338,1,8
344,192,56767,1,8
232,192,57195,1,8
120,192,57624,2,4,B|48:128|72:248|0:184,2,140
328,192,59552,5,0
328,192,59767,2,4,B|160:192,4,140
256,280,61910,5,8
184,192,62338,1,8
256,104,62767,1,8
400,192,63410,5,2
400,192,63624,1,8
328,104,64052,1,8
256,192,64481,1,8
88,192,65124,5,2
88,192,65338,2,8,B|88:344,2,140
256,192,66838,5,2
256,192,67052,1,8
144,192,67481,1,8
256,192,67910,2,4,B|424:192,2,140
176,296,70052,5,8
128,192,70481,1,8
176,88,70910,1,8
280,120,71338,2,4,B|280:296,2,140
256,48,73267,5,0
256,104,73481,1,8
168,176,73910,1,4
200,280,74338,1,8
312,280,74767,1,4
344,176,75195,1,4
344,176,75410,1,4
456,192,81838,5,8
320,88,82481,2,2,B|248:136|176:72,2,140
256,192,83767,1,8
320,296,84195,2,4,B|248:248|176:312,2,140
88,136,86124,5,8
88,192,86338,1,0
88,248,86552,1,8
184,192,86981,2,2,B|424:192,2,210
311,192,89552,6,2,B|464:191,2,140,2|2|10
200,192,90838,2,2,B|32:191,2,140,2|2|10
256,288,92124,1,8
472,240,92981,6,0,B|407:232|416:143|480:152,1,140
376,288,94052,2,0,B|280:287,1,70
256,319,94481,2,4,B|104:320,2,140
312,176,95767,6,0,B|288:224|248:223|208:216|200:159,3,140,2|8|2|8
256,336,97695,1,8
256,336,97910,2,2,B|255:40,1,280,2|10
360,256,99624,6,0,B|128:256,2,210
448,191,101338,2,4,B|448:16,2,140
120,184,103267,6,0,B|304:327,1,210,0|8
344,311,104124,2,2,B|448:320|488:240|448:144|320:176,1,280,10|2
256,192,106481,5,4
256,192,106695,12,4,108838
312,192,109481,5,8
312,304,109910,1,8
200,304,110338,1,8
200,192,110767,1,8
256,32,111410,5,2
256,32,111624,1,8
312,128,112052,1,8
200,128,112481,1,8
256,288,113124,5,0
256,288,113338,2,8,B|224:240|296:208|248:136,2,140
104,192,114838,5,2
104,192,115052,1,8
176,271,115481,1,8
256,192,115910,2,4,B|424:192,2,140
56,192,117838,5,2
56,192,118052,1,8
168,192,118481,1,8
280,192,118910,1,8
392,192,119338,2,4,B|464:255|440:136|512:200,2,140
184,192,121267,5,0
184,192,121481,2,4,B|352:192,4,140
256,104,123624,5,8
328,192,124052,1,8
256,280,124481,1,8
112,192,125124,5,2
112,192,125338,1,8
184,280,125767,1,8
256,192,126195,1,8
424,192,126838,5,2
424,192,127052,2,8,B|424:40,2,140
256,192,128552,5,2
256,192,128767,1,8
368,192,129195,1,8
256,192,129624,2,4,B|88:192,2,140
336,88,131767,5,8
384,192,132195,1,8
336,296,132624,1,8
232,264,133052,2,4,B|232:88,2,140
256,344,134981,5,0
256,280,135195,1,8
344,208,135624,1,4
312,104,136052,1,8
199,104,136481,1,4
168,208,136910,1,4
168,208,137124,1,4
