osu file format v12

[General]
AudioFilename: 01-River.mp3
AudioLeadIn: 0
PreviewTime: 80021
Countdown: 0
SampleSet: Soft
StackLeniency: 0.7
Mode: 0
LetterboxInBreaks: 0
WidescreenStoryboard: 0

[Editor]
DistanceSpacing: 0.5
BeatDivisor: 4
GridSize: 4

[Metadata]
Title:River
TitleUnicode:River
Artist:JKT48
ArtistUnicode:JKT48
Creator:selova
Version:vvota
Source:
Tags:AKB48
BeatmapID:288640
BeatmapSetID:107501

[Difficulty]
HPDrainRate:7
CircleSize:4
OverallDifficulty:7
ApproachRate:8
SliderMultiplier:1.8
SliderTickRate:2

[Events]
//Background and Video events
0,0,"BG.jpg",0,0
//Break Periods
2,117973,123784
//Storyboard Layer 0 (Background)
//Storyboard Layer 1 (Fail)
//Storyboard Layer 2 (Pass)
//Storyboard Layer 3 (Foreground)
//Storyboard Sound Samples
//Background Colour Transformations
3,100,163,162,255

[TimingPoints]
7351,563.380281690141,4,2,0,40,1,0
25379,-80,4,2,0,50,0,0
42280,-66.6666666666667,4,3,0,80,0,0
43407,-66.6666666666667,4,1,0,50,0,1
43689,-66.6666666666667,4,1,0,50,0,0
45660,-66.6666666666667,4,1,0,50,0,1
45942,-66.6666666666667,4,1,0,50,0,0
47914,-66.6666666666667,4,1,0,50,0,1
48196,-66.6666666666667,4,1,0,50,0,0
57632,-66.6666666666667,4,1,0,10,0,0
57773,-66.6666666666667,4,1,0,50,0,0
58196,-66.6666666666667,4,1,0,10,0,0
58336,-66.6666666666667,4,1,0,50,0,0
58759,-66.6666666666667,4,1,0,10,0,0
58900,-66.6666666666667,4,1,0,50,0,0
61435,-80,4,2,0,50,0,0
81717,-80,4,2,0,60,0,1
112421,-80,4,2,0,60,0,0
113266,-80,4,2,0,60,0,1
117773,-80,4,2,0,60,0,0
147069,-80,4,2,0,60,0,1
177773,-80,4,2,0,60,0,0
178618,-80,4,2,0,60,0,1
182843,-80,4,2,0,60,0,0
185379,-80,4,2,0,60,0,1
205660,-133.333333333333,4,2,0,60,0,0
222562,-133.333333333333,4,3,0,70,0,0
223689,-80,4,2,0,60,0,1
236365,-80,4,2,0,60,0,0
237210,-80,4,2,0,60,0,1
272703,-80,4,2,0,60,0,0

[Colours]
Combo1 : 149,0,4
Combo2 : 41,201,201
Combo3 : 128,128,128
Combo4 : 0,128,192

[HitObjects]
256,80,2843,1,8,0:0:0:0:
256,112,3125,1,8,0:0:0:0:
168,184,3407,2,8,L|192:224,1,45
344,184,3829,2,8,L|320:224,1,45,8|12,0:0|0:0,0:0:0:0:
256,192,5660,1,4,3:0:0:0:
264,320,7341,5,8,1:0:0:0:
276,304,7491,2,0,L|316:232,2,45
144,332,7914,1,8,3:0:0:0:
128,348,8055,2,0,L|88:396,2,45,8|8|8,3:0|3:0|3:0,0:0:0:0:
80,280,8477,6,0,L|48:216,1,45
40,160,8759,1,2,0:0:0:0:
40,160,8900,2,0,L|88:136,1,45
136,200,9181,1,2,0:0:0:0:
136,200,9322,2,0,L|192:232,1,45
256,192,9604,5,0,0:0:0:0:
344,240,9745,2,0,L|368:256,2,22.5
360,152,10027,1,0,0:0:0:0:
368,128,10167,1,8,0:0:0:0:
384,112,10308,1,8,0:0:0:0:
408,104,10449,1,8,2:0:0:0:
432,104,10590,1,8,2:0:0:0:
456,112,10731,5,8,3:0:0:0:
456,232,11012,1,8,0:0:0:0:
336,232,11294,1,0,0:0:0:0:
237,166,11576,1,0,0:0:0:0:
224,48,11858,5,0,0:0:0:0:
160,112,11998,2,0,L|104:104,2,45
237,166,12421,1,2,3:0:0:0:
237,166,12562,2,2,L|298:166,1,45,2|2,3:0|3:0,3:0:0:0:
336,232,12843,1,2,3:0:0:0:
280,296,12984,6,0,L|208:296,1,45,8|0,3:0|0:0,0:0:0:0:
152,328,13266,1,2,0:0:0:0:
152,328,13407,2,0,L|112:280,1,45,8|0,3:0|0:0,0:0:0:0:
96,208,13689,1,0,0:0:0:0:
96,208,13829,2,0,L|168:200,1,45,8|0,3:0|0:0,0:0:0:0:
224,232,14111,6,0,P|224:176|192:136,1,90,8|8,0:0|0:0,0:0:0:0:
96,48,14674,2,0,L|136:80,1,45,0|8,0:0|0:0,0:0:0:0:
96,208,15097,2,0,L|56:176,1,45,0|8,0:0|0:0,0:0:0:0:
23,99,15520,1,8,0:0:0:0:
96,48,15801,1,2,3:0:0:0:
176,88,16083,1,0,3:0:0:0:
256,48,16365,6,0,L|360:48,1,90
440,88,16928,2,8,L|488:64,2,45
400,112,17351,1,8,0:0:0:0:
368,136,17491,2,0,P|352:192|360:229,1,90,8|0,3:0|0:0,0:0:0:0:
384,272,17914,2,0,L|280:280,1,90,8|2,3:0|0:0,0:0:0:0:
247,286,18336,1,0,3:0:0:0:
104,360,18618,6,0,P|136:320|132:274,1,90
128,264,19041,1,0,0:0:0:0:
120,248,19181,1,2,3:0:0:0:
112,232,19322,1,8,0:0:0:0:
104,216,19463,1,8,0:0:0:0:
96,200,19604,1,8,0:0:0:0:
88,184,19745,5,8,3:0:0:0:
136,64,20027,1,8,0:0:0:0:
264,136,20308,2,0,P|312:104|328:72,2,90,0|0|0,3:0|0:0|3:0,0:0:0:0:
184,240,21153,5,0,0:0:0:0:
208,264,21294,1,0,0:0:0:0:
232,280,21435,2,0,P|280:288|320:272,1,90,8|0,0:0|0:0,0:0:0:0:
352,260,21858,1,0,0:0:0:0:
384,248,21998,2,0,P|416:288|416:328,1,90,8|2,3:0|0:0,0:0:0:0:
408,352,22421,2,0,P|368:384|328:384,1,90,8|2,3:0|0:0,0:0:0:0:
304,368,22843,1,8,0:0:0:0:
256,280,23125,5,0,0:0:0:0:
256,104,24252,1,0,0:0:0:0:
200,192,24534,5,2,0:0:0:0:
200,192,24674,1,2,0:0:0:0:
200,192,24815,1,2,0:0:0:0:
200,192,24956,1,2,0:0:0:0:
200,192,25097,1,2,0:0:0:0:
200,192,25238,1,2,0:0:0:0:
200,192,25379,6,0,P|112:168|96:96,1,168.75,0|2,3:0|0:0,0:0:0:0:
104,72,25942,1,8,0:0:0:0:
256,8,26224,2,0,L|256:72,1,56.25,2|0,0:0|0:0,0:0:0:0:
272,152,26505,2,0,P|328:136|344:88,1,112.5,2|2,3:0|0:0,0:0:0:0:
344,88,26928,1,0,0:0:0:0:
344,88,27069,1,8,0:0:0:0:
160,96,27351,6,0,L|96:96,1,56.25
84,104,27632,2,0,L|20:144,1,56.25,2|2,0:0|0:0,0:0:0:0:
16,152,27914,1,2,0:0:0:0:
112,344,28196,2,0,L|88:280,1,56.25,2|0,3:0|0:0,0:0:0:0:
176,304,28477,1,2,0:0:0:0:
176,304,28618,1,2,0:0:0:0:
176,304,28759,6,0,L|200:192,1,112.5,0|0,3:0|0:0,0:0:0:0:
264,256,29181,1,0,0:0:0:0:
264,256,29322,2,0,L|320:152,1,112.5,2|0,3:0|0:0,0:0:0:0:
360,248,29745,1,0,0:0:0:0:
360,248,29886,2,0,L|464:176,1,112.5,0|0,3:0|0:0,0:0:0:0:
448,288,30308,1,0,0:0:0:0:
472,368,30449,6,0,P|504:352|512:320,2,56.25,2|0|0,3:0|0:0|0:0,0:0:0:0:
444,376,30872,1,0,3:0:0:0:
416,376,31012,1,0,3:0:0:0:
392,360,31153,1,0,0:0:0:0:
372,340,31294,1,0,0:0:0:0:
360,316,31435,1,0,0:0:0:0:
356,288,31576,1,2,3:0:0:0:
308,100,31858,5,0,0:0:0:0:
332,116,31998,1,0,0:0:0:0:
348,140,32139,1,0,0:0:0:0:
360,164,32280,1,0,0:0:0:0:
360,192,32421,1,0,0:0:0:0:
264,320,32703,2,0,L|200:368,1,56.25,2|0,3:0|0:0,0:0:0:0:
192,360,32984,1,0,0:0:0:0:
160,360,33125,1,0,0:0:0:0:
144,336,33266,6,0,L|120:280,1,56.25,0|2,0:0|0:0,0:0:0:0:
112,256,33548,2,0,L|112:192,1,56.25,0|2,0:0|0:0,0:0:0:0:
112,168,33829,2,0,L|89:116,1,56.25,0|2,0:0|0:0,0:0:0:0:
80,88,34111,2,0,L|112:32,1,56.25,0|2,0:0|0:0,0:0:0:0:
128,16,34393,6,0,L|248:16,1,112.5
408,192,34956,2,0,L|296:192,1,112.5,8|0,0:0|0:0,0:0:0:0:
264,192,35379,1,0,0:0:0:0:
232,192,35520,1,0,0:0:0:0:
120,320,35801,2,0,P|64:280|56:240,1,112.5,0|8,0:0|0:0,0:0:0:0:
168,112,36365,1,0,0:0:0:0:
168,112,36505,1,2,0:0:0:0:
168,112,36646,6,0,P|224:152|232:192,1,112.5
48,280,37210,2,0,L|48:160,1,112.5,8|0,0:0|0:0,0:0:0:0:
48,136,37632,1,0,0:0:0:0:
48,112,37773,2,2,L|48:56,2,56.25,0|2|2,0:0|0:0|0:0,0:0:0:0:
160,280,38336,2,0,P|184:288|216:280,2,56.25,8|0|0,0:0|0:0|0:0,0:0:0:0:
140,264,38759,1,0,0:0:0:0:
128,240,38900,5,6,0:0:0:0:
128,216,39463,1,6,0:0:0:0:
128,192,40027,1,6,0:0:0:0:
128,168,40590,1,6,0:0:0:0:
456,264,41153,2,0,L|328:264,1,112.5,4|0,3:0|0:0,0:0:0:0:
224,144,41717,2,0,P|237:126|269:118,1,56.25,2|0,0:0|0:0,0:0:0:0:
280,192,41998,2,0,P|266:209|234:217,1,56.25,2|0,0:0|0:0,0:0:0:0:
160,216,42280,6,0,L|120:184,5,45.0000017166138,8|0|0|0|0|0,3:0|0:0|0:0|0:0|0:0|0:0,0:0:0:0:
112,168,42843,2,0,L|88:112,5,45.0000017166138,8|0|0|0|0|0,0:0|0:0|0:0|0:0|0:0|0:0,0:0:0:0:
88,104,43407,6,0,P|136:48|192:48,1,135.000005149842,4|0,0:0|0:0,0:0:0:0:
216,56,43829,1,0,0:0:0:0:
240,64,43970,1,8,0:0:0:0:
264,64,44111,1,0,0:0:0:0:
288,56,44252,1,0,0:0:0:0:
480,120,44534,1,2,0:0:0:0:
328,248,44815,1,2,0:0:0:0:
496,360,45097,2,0,B|416:368|384:312|384:312|440:240|368:168,1,270.000010299683,8|4,0:0|0:0,0:0:0:0:
192,136,45942,5,0,0:0:0:0:
184,160,46083,1,0,0:0:0:0:
184,184,46224,1,8,0:0:0:0:
192,208,46365,1,0,0:0:0:0:
208,232,46505,1,0,0:0:0:0:
400,264,46787,1,0,0:0:0:0:
240,384,47069,1,0,0:0:0:0:
64,280,47351,2,0,P|32:216|48:144,1,135.000005149842,8|8,0:0|0:0,0:0:0:0:
112,56,47914,6,0,P|168:40|240:72,1,135.000005149842,4|0,0:0|0:0,0:0:0:0:
256,88,48336,1,0,0:0:0:0:
272,112,48477,1,8,0:0:0:0:
272,136,48618,1,0,0:0:0:0:
264,160,48759,1,0,0:0:0:0:
112,264,49041,1,2,0:0:0:0:
272,360,49322,1,2,0:0:0:0:
416,240,49604,2,0,B|424:304|368:320|368:320|336:224|224:264,1,270.000010299683,8|0,0:0|0:0,0:0:0:0:
236,260,51294,5,2,3:0:0:0:
120,328,51576,2,0,P|96:312|72:272,2,67.5000025749208,8|0|0,0:0|0:0|0:0,0:0:0:0:
144,336,51998,1,2,3:0:0:0:
168,344,52139,1,2,3:0:0:0:
304,352,52421,6,0,P|400:312|384:136,1,270.000010299683,4|8,0:0|0:0,0:0:0:0:
368,48,53266,2,0,P|320:96|328:168,1,135.000005149842,0|2,0:0|0:0,0:0:0:0:
440,128,53829,2,0,P|464:96|456:56,2,67.5000025749208,0|0|8,0:0|0:0|0:0,0:0:0:0:
324,159,54393,1,2,2:0:0:0:
304,168,54534,1,2,2:0:0:0:
280,168,54674,6,0,P|208:152|160:80,1,135.000005149842,8|0,0:0|0:0,0:0:0:0:
0,24,55238,2,0,P|80:24|128:56,1,135.000005149842,8|0,0:0|0:0,0:0:0:0:
128,192,55801,1,2,0:0:0:0:
192,64,56083,1,0,0:0:0:0:
328,24,56365,1,8,2:0:0:0:
344,32,56505,1,8,2:0:0:0:
368,32,56646,1,0,0:0:0:0:
384,24,56787,1,8,0:0:0:0:
416,376,57210,6,0,P|318:314|302:234,1,202.500007724762,2|0,0:0|0:0,0:0:0:0:
160,152,57773,6,0,P|237:125|337:180,1,202.500007724762,2|0,0:0|0:0,0:0:0:0:
484,103,58336,6,0,P|468:183|348:239,1,202.500007724762,2|0,0:0|0:0,0:0:0:0:
184,296,58900,6,0,P|221:260|301:244,1,135.000005149842,2|4,0:0|0:0,0:0:0:0:
256,192,59322,12,8,61153,0:0:0:0:
120,96,61435,5,4,0:0:0:0:
48,184,61717,1,0,0:0:0:0:
48,216,61858,1,0,0:0:0:0:
64,248,61998,1,8,0:0:0:0:
160,304,62280,1,2,0:0:0:0:
0,384,62562,2,0,P|66:350|112:360,1,112.5
208,384,63125,1,8,0:0:0:0:
480,144,63689,6,0,L|368:144,1,112.5
256,144,64252,1,0,0:0:0:0:
200,240,64534,1,0,0:0:0:0:
312,240,64815,1,0,0:0:0:0:
112,72,65097,2,0,P|48:80|8:136,1,112.5
88,288,65660,2,0,L|88:176,1,112.5
64,40,66224,5,0,0:0:0:0:
35,35,66365,1,0,0:0:0:0:
0,48,66505,2,0,L|0:160,1,112.5
56,256,67069,1,0,0:0:0:0:
136,336,67351,2,0,P|192:368|248:352,2,112.5
96,176,68196,5,0,0:0:0:0:
216,72,68477,2,0,P|264:128|232:208,1,168.75
192,248,69041,2,0,P|192:312|248:336,1,112.5
344,336,69604,1,0,0:0:0:0:
432,272,69886,2,0,L|472:232,1,56.25
488,176,70167,2,0,L|488:64,1,112.5
256,56,70731,6,0,L|256:112,1,56.25
280,160,71012,2,0,P|336:176|384:152,1,112.5
382,154,71576,1,0,0:0:0:0:
336,296,71858,1,0,0:0:0:0:
336,296,71998,2,0,P|272:296|232:336,1,112.5
216,352,72421,2,0,L|96:352,1,112.5
15,230,72984,5,0,0:0:0:0:
6,211,73125,1,0,0:0:0:0:
0,192,73266,2,0,P|16:136|64:104,1,112.5
224,48,73829,2,0,P|208:104|160:136,1,112.5
208,208,74393,2,0,L|336:224,1,112.5
432,248,74956,5,0,0:0:0:0:
304,336,75238,1,0,0:0:0:0:
72,336,75520,2,0,L|184:336,1,112.5
184,336,76083,1,0,0:0:0:0:
256,248,76365,1,0,0:0:0:0:
488,248,76646,2,0,L|376:248,1,112.5
256,248,77210,6,0,P|144:216|96:112,1,225
304,48,78055,1,0,0:0:0:0:
304,48,78196,1,0,0:0:0:0:
304,48,78336,2,0,B|288:112|216:128,1,112.5
256,152,78759,2,0,L|368:152,1,112.5
392,160,79181,1,0,0:0:0:0:
408,176,79322,1,0,0:0:0:0:
416,200,79463,1,0,0:0:0:0:
256,328,80027,5,0,0:0:0:0:
256,304,80590,1,0,0:0:0:0:
256,280,81153,1,0,0:0:0:0:
256,256,81717,6,0,P|200:176|72:184,1,225
104,336,82562,1,0,0:0:0:0:
104,336,82703,2,0,P|160:320|168:240,1,112.5
176,264,83125,2,0,P|152:200|168:160,1,112.5
256,96,83689,1,0,0:0:0:0:
345,161,83970,6,0,P|360:200|336:264,1,112.5
256,344,84534,1,0,0:0:0:0:
456,320,84815,2,0,L|400:352,1,56.25
504,208,85238,2,0,L|504:152,1,56.25
376,72,85660,2,0,B|320:64|296:24|296:24|272:24,1,112.5
256,24,86083,1,0,0:0:0:0:
224,24,86224,6,0,B|192:24|192:24|160:64|112:72|112:72|80:128,1,168.75
80,136,86787,1,0,0:0:0:0:
56,336,87069,1,0,0:0:0:0:
56,336,87210,2,0,P|102:325|126:269,1,112.5
128,240,87632,2,0,L|128:184,2,56.25
256,352,88196,1,0,0:0:0:0:
256,352,88336,1,0,0:0:0:0:
256,352,88477,6,0,L|368:360,1,112.5
368,360,89041,1,0,0:0:0:0:
472,192,89322,1,0,0:0:0:0:
472,192,89463,1,0,0:0:0:0:
472,192,89604,2,0,L|360:184,1,112.5
344,184,90027,2,0,P|264:152|248:128,1,112.5
248,120,90449,1,0,0:0:0:0:
240,104,90590,1,0,0:0:0:0:
232,88,90731,6,0,B|192:48|192:48|80:48,1,168.75
0,160,91294,2,0,B|40:200|40:200|152:200,1,168.75
176,200,91858,1,0,0:0:0:0:
368,40,92139,2,0,P|432:104|400:176,1,168.75
400,200,92703,1,0,0:0:0:0:
104,320,92984,6,0,B|192:328|240:264|240:264|336:264,1,225
32,296,93829,2,0,B|-24:216|24:136,1,168.75
40,120,94393,1,0,0:0:0:0:
256,16,94674,2,0,P|257:49|193:113,1,112.5
112,272,95238,6,0,B|152:208|192:200|192:200|336:200,1,225
400,368,96083,1,0,0:0:0:0:
400,368,96224,1,0,0:0:0:0:
400,368,96365,2,0,P|464:336|472:280,1,112.5
328,248,96928,2,0,P|264:280|256:336,1,112.5
240,336,97351,1,0,0:0:0:0:
224,352,97491,6,0,P|112:352|48:320,1,168.75
0,192,98055,2,0,P|112:192|176:224,1,168.75
224,352,98618,2,0,P|305:275|330:208,1,168.75
266,87,99181,2,0,P|184:163|159:230,1,168.75
120,136,99745,6,0,L|56:40,1,112.5
120,136,100308,1,0,0:0:0:0:
264,88,100590,1,0,0:0:0:0:
264,88,100731,2,0,L|384:88,1,112.5
400,88,101153,2,0,L|456:120,2,56.25
336,216,101717,1,0,0:0:0:0:
264,352,101998,6,0,P|227:346|176:296,1,112.5
176,296,102562,1,0,0:0:0:0:
16,376,102843,1,0,0:0:0:0:
16,376,102984,2,0,L|16:256,1,112.5
16,240,103407,2,0,L|16:168,2,56.25
128,72,103970,1,0,0:0:0:0:
128,72,104111,1,0,0:0:0:0:
128,72,104252,6,0,P|240:88|256:192,1,225
112,320,105097,1,0,0:0:0:0:
112,320,105238,2,0,L|248:328,1,112.5
294,331,105660,2,0,P|358:323|398:283,2,112.5
256,264,106505,6,0,B|232:200|272:152|272:152|344:152|384:96,1,225
496,16,107351,1,0,0:0:0:0:
480,32,107491,1,0,0:0:0:0:
472,48,107632,2,0,L|352:48,1,112.5
256,48,108196,1,0,0:0:0:0:
48,128,108759,6,0,P|96:224|216:192,1,225
151,138,109604,2,0,P|88:216|120:336,1,225
256,384,110449,1,0,0:0:0:0:
397,329,110731,2,0,P|424:216|361:138,2,225
312,304,112139,2,0,P|256:296|200:304,1,112.5
256,192,113266,12,0,115238,0:0:0:0:
256,192,115520,5,0,0:0:0:0:
256,192,116083,1,0,0:0:0:0:
256,192,116646,1,0,0:0:0:0:
256,192,116787,2,0,L|192:240,1,56.25
416,88,117210,1,0,0:0:0:0:
416,288,117491,5,0,0:0:0:0:
416,272,117632,1,0,0:0:0:0:
416,256,117773,1,0,0:0:0:0:
256,192,124534,12,8,126505,0:0:0:0:
344,112,126787,5,0,0:0:0:0:
344,112,127069,1,0,0:0:0:0:
48,352,127914,5,0,0:0:0:0:
48,352,128196,1,0,0:0:0:0:
464,272,129041,5,0,0:0:0:0:
464,272,129322,1,0,0:0:0:0:
144,96,129886,5,0,0:0:0:0:
144,96,130027,1,0,0:0:0:0:
144,96,130167,2,0,P|88:160|88:208,1,112.5
88,200,130590,2,0,L|208:240,1,112.5
208,240,131012,1,0,0:0:0:0:
416,320,131294,5,0,0:0:0:0:
432,328,131576,1,0,0:0:0:0:
224,64,132421,5,0,0:0:0:0:
200,48,132703,1,0,0:0:0:0:
32,368,133548,5,0,0:0:0:0:
56,352,133829,1,0,0:0:0:0:
80,336,134111,1,0,0:0:0:0:
200,272,134393,1,0,0:0:0:0:
208,256,134534,1,0,0:0:0:0:
216,232,134674,2,0,L|216:120,1,112.5
128,40,135238,2,0,P|72:40|24:80,2,112.5
216,128,136083,5,0,0:0:0:0:
232,128,136224,1,0,0:0:0:0:
248,128,136365,1,0,0:0:0:0:
368,120,136646,2,0,L|408:80,1,56.25
368,120,136928,2,0,P|400:184|384:224,1,112.5
376,232,137351,2,0,L|264:272,1,112.5
240,280,137773,1,0,0:0:0:0:
112,192,138055,5,0,0:0:0:0:
88,360,138336,1,0,0:0:0:0:
64,344,138477,1,0,0:0:0:0:
40,328,138618,2,0,B|0:288|0:288|0:216,1,112.5
112,192,139181,2,0,B|152:232|152:232|152:304,1,112.5
48,144,139745,2,0,B|8:104|8:104|8:32,1,112.5
200,48,140308,5,0,0:0:0:0:
272,168,140590,2,0,P|328:136|328:80,1,112.5
332,93,141153,1,0,0:0:0:0:
160,184,141435,1,0,0:0:0:0:
160,184,141576,1,0,0:0:0:0:
160,184,141717,2,0,P|104:216|104:272,1,112.5
99,260,142280,1,0,0:0:0:0:
256,360,142562,6,0,B|328:360|328:360|360:328|416:328,1,168.75
480,352,143125,2,0,P|416:312|416:232,1,112.5
408,248,143548,1,0,0:0:0:0:
408,216,143689,2,0,L|408:152,1,56.25
336,32,144111,1,0,0:0:0:0:
248,160,144393,1,0,0:0:0:0:
232,160,144534,1,0,0:0:0:0:
216,152,144674,1,0,0:0:0:0:
208,136,144815,1,0,0:0:0:0:
512,312,145379,5,0,0:0:0:0:
256,88,145942,1,0,0:0:0:0:
0,312,146505,1,0,0:0:0:0:
144,184,147069,6,0,P|200:128|176:48,1,168.75
152,8,147632,2,0,L|280:8,1,112.5
296,8,148055,1,0,0:0:0:0:
424,104,148336,1,0,0:0:0:0:
424,104,148477,1,0,0:0:0:0:
344,240,148759,1,0,0:0:0:0:
504,280,149041,1,0,0:0:0:0:
416,24,149322,6,0,P|344:96|408:176,1,168.75
400,176,149886,2,0,L|512:176,1,112.5
448,256,150308,2,0,L|296:256,1,112.5
304,256,150731,1,0,0:0:0:0:
168,152,151012,1,0,0:0:0:0:
256,8,151294,1,0,0:0:0:0:
272,32,151435,1,0,0:0:0:0:
288,56,151576,6,0,P|304:120|216:176,1,168.75
192,176,152139,1,0,0:0:0:0:
112,24,152421,1,0,0:0:0:0:
112,24,152562,2,0,L|208:88,1,112.5
232,104,152984,1,0,0:0:0:0:
360,264,153266,2,0,L|306:164,1,112.5
511,20,153829,6,0,P|511:159|447:207,1,225
224,312,154674,1,0,0:0:0:0:
224,312,154815,1,0,0:0:0:0:
224,312,154956,2,0,B|124:268|124:268|72:212|80:124,1,225
256,168,155801,1,0,0:0:0:0:
368,48,156083,6,0,P|424:144|392:184,1,168.75
386,253,156646,2,0,P|327:191|351:119,1,168.75
368,48,157210,2,0,L|248:48,1,112.5
128,120,157773,2,0,L|72:120,2,56.25
387,254,158336,6,0,P|280:336|208:304,1,225
128,120,159181,2,0,P|248:160|288:256,1,225
232,144,160027,2,0,P|240:72|288:24,1,112.5
456,48,160590,6,0,P|512:120|416:144,1,225
264,40,161435,1,0,0:0:0:0:
288,56,161576,1,0,0:0:0:0:
304,80,161717,2,0,P|320:128|240:184,1,112.5
216,328,162280,2,0,P|208:272|248:224,1,112.5
496,168,162843,6,0,B|440:144|392:168|392:168|328:168,1,168.75
200,240,163407,2,0,L|368:240,1,168.75
416,240,163970,2,0,L|456:280,2,56.25
328,104,164534,1,0,0:0:0:0:
304,88,164674,1,0,0:0:0:0:
296,64,164815,1,0,0:0:0:0:
304,40,164956,1,0,0:0:0:0:
320,16,165097,6,0,L|144:16,1,168.75
120,16,165660,1,0,0:0:0:0:
0,192,165942,1,0,0:0:0:0:
0,192,166083,2,0,P|64:176|80:128,1,112.5
80,96,166505,2,0,L|48:48,2,56.25
216,224,167069,1,0,0:0:0:0:
352,96,167351,6,0,B|296:144|296:144|240:120|184:136,1,168.75
168,152,167914,1,0,0:0:0:0:
88,320,168196,1,0,0:0:0:0:
88,320,168336,2,0,P|160:312|192:216,1,168.75
80,128,169041,1,0,0:0:0:0:
168,0,169322,1,0,0:0:0:0:
176,8,169463,1,0,0:0:0:0:
184,16,169604,6,0,P|256:40|400:8,1,225
504,128,170449,1,0,0:0:0:0:
480,136,170590,2,0,L|368:176,1,112.5
352,184,171012,2,0,P|360:248|424:280,2,112.5
224,64,171858,6,0,P|128:128|112:240,1,225
264,256,172703,1,0,0:0:0:0:
264,256,172843,1,0,0:0:0:0:
264,256,172984,2,0,P|240:192|192:160,2,112.5
48,336,174111,6,0,L|272:336,1,225
432,272,174956,2,0,P|480:128|424:48,1,225
312,0,175801,1,0,0:0:0:0:
200,104,176083,2,0,P|296:152|408:120,2,225
136,32,177491,2,0,L|24:40,1,112.5
256,192,178618,12,0,180590,0:0:0:0:
120,272,180872,5,0,0:0:0:0:
256,88,181435,1,0,0:0:0:0:
392,272,181998,1,0,0:0:0:0:
392,272,182139,2,0,P|432:224|416:152,1,112.5
424,152,182562,1,0,0:0:0:0:
408,128,182703,1,0,0:0:0:0:
392,104,182843,1,0,0:0:0:0:
376,80,182984,1,0,0:0:0:0:
400,72,185379,6,0,B|344:104|336:160|336:160|368:232|336:288,1,225
256,352,186224,1,0,0:0:0:0:
167,268,186505,2,0,B|144:232|176:160|176:160|168:104|112:72,1,225
12,160,187351,1,0,0:0:0:0:
52,276,187632,5,0,0:0:0:0:
80,292,187773,1,0,0:0:0:0:
112,296,187914,1,0,0:0:0:0:
144,296,188055,1,0,0:0:0:0:
168,288,188196,2,0,L|280:288,1,112.5
368,216,188618,1,0,0:0:0:0:
368,216,188759,2,0,L|240:216,1,112.5
224,216,189181,1,0,0:0:0:0:
136,48,189463,2,0,L|280:48,1,112.5
296,48,189886,6,0,P|376:96|368:216,1,225
256,344,190731,1,0,0:0:0:0:
144,216,191012,2,0,P|136:96|216:48,1,225
288,200,191858,1,0,0:0:0:0:
144,288,192139,5,0,0:0:0:0:
144,288,192280,2,0,P|72:272|40:224,1,112.5
16,160,192703,1,0,0:0:0:0:
16,160,192843,2,0,L|0:104,2,56.25
32,200,193266,2,0,P|96:184|120:136,1,112.5
120,112,193689,1,0,0:0:0:0:
200,16,193970,2,0,P|256:32|264:128,1,112.5
248,144,194393,6,0,B|304:168|352:112|352:112|472:112,1,225
504,36,195238,1,0,0:0:0:0:
248,144,195520,6,0,B|192:168|144:112|144:112|24:112,1,225
8,36,196365,1,0,0:0:0:0:
248,96,196646,6,0,L|368:96,1,112.5
384,96,197069,1,0,0:0:0:0:
480,192,197351,2,0,P|456:232|384:248,1,112.5
360,248,197773,2,0,P|296:256|264:288,2,112.5
488,360,198618,1,0,0:0:0:0:
328,336,198900,6,0,P|272:288|232:144,1,225
400,128,199745,1,0,0:0:0:0:
251,256,200027,2,0,P|163:248|72:120,1,225
196,16,200872,2,0,L|232:64,1,56.25
256,88,201153,6,0,P|288:96|372:80,1,112.5
420,160,201576,1,0,0:0:0:0:
420,160,201717,2,0,P|364:220|352:256,1,112.5
284,188,202139,1,0,0:0:0:0:
284,188,202280,2,0,P|220:160|156:156,1,112.5
316,324,202843,1,0,0:0:0:0:
256,64,203125,1,0,0:0:0:0:
256,64,203266,6,0,L|184:64,1,56.25
0,160,203970,1,0,0:0:0:0:
216,360,204534,1,0,0:0:0:0:
488,152,205097,1,0,0:0:0:0:
168,192,205660,6,0,L|48:264,1,135.000005149842
256,336,206646,1,0,0:0:0:0:
256,336,206787,1,0,0:0:0:0:
424,80,207632,1,0,0:0:0:0:
328,40,207914,6,0,P|320:104|376:160,1,135.000005149842
488,272,209181,1,0,0:0:0:0:
488,272,209322,2,0,L|392:288,1,67.5000025749208
256,312,209886,1,0,0:0:0:0:
64,288,210167,6,0,P|80:232|152:200,1,135.000005149842
312,192,211153,1,0,0:0:0:0:
328,192,211294,1,0,0:0:0:0:
344,192,211435,1,0,0:0:0:0:
456,96,211717,1,0,0:0:0:0:
128,16,212139,1,0,0:0:0:0:
8,192,212421,6,0,P|80:208|112:248,1,101.250003862381
64,360,212984,2,0,P|32:304|32:264,1,101.250003862381
192,240,213548,2,0,P|152:288|120:304,1,67.5000025749208
112,296,213970,1,0,0:0:0:0:
192,128,214252,1,0,0:0:0:0:
192,128,214393,1,0,0:0:0:0:
400,80,214674,6,0,P|384:136|312:160,1,135.000005149842
192,128,215660,1,0,0:0:0:0:
192,128,215801,2,0,L|136:128,1,33.7500012874604
128,128,216083,1,0,0:0:0:0:
256,0,216646,1,0,0:0:0:0:
376,40,216928,6,0,P|352:80|256:104,1,135.000005149842
96,104,217914,1,0,0:0:0:0:
80,112,218055,1,0,0:0:0:0:
64,120,218196,2,0,P|32:160|24:200,1,67.5000025749208
64,328,218900,1,0,0:0:0:0:
216,368,219181,6,0,P|192:320|112:280,1,135.000005149842
200,152,220167,1,0,0:0:0:0:
200,152,220308,2,0,P|272:120|336:120,1,135.000005149842
464,288,221294,1,0,0:0:0:0:
464,288,221435,6,0,P|368:296|336:288,1,101.250003862381
208,232,221998,2,0,P|272:216|312:224,1,101.250003862381
336,232,222562,2,0,L|360:232,7,16.8750006437302
384,224,223125,2,0,L|400:208,7,16.8750006437302
424,192,223689,6,0,P|464:128|448:32,1,168.75
432,8,224252,1,0,0:0:0:0:
272,72,224534,1,0,0:0:0:0:
272,72,224674,2,0,P|192:64|168:32,1,112.5
160,16,225097,2,0,L|48:16,1,112.5
0,176,225660,1,0,0:0:0:0:
80,384,225942,6,0,P|112:320|80:232,1,168.75
112,304,226505,2,0,P|160:344|240:360,1,112.5
240,360,226928,2,0,L|384:312,1,112.5
392,312,227351,2,0,P|456:344|464:400,2,112.5
248,232,228196,6,0,B|208:208|216:160|216:160|168:160|128:144,1,168.75,0|0,0:0|0:0,3:0:0:0:
112,128,228759,1,0,0:0:0:0:
288,32,229041,1,0,0:0:0:0:
288,32,229181,2,0,B|350:11|350:11|399:24,1,112.5
384,216,229604,2,0,B|336:176|336:176|336:112,1,112.5
440,48,230167,1,0,0:0:0:0:
440,48,230449,6,0,L|216:48,1,225
16,152,231294,1,0,0:0:0:0:
40,168,231435,1,0,0:0:0:0:
56,192,231576,2,0,P|88:264|72:312,1,112.5
176,368,232139,6,0,P|288:352|320:256,2,225
240,160,233548,2,0,P|328:128|432:200,1,225
320,304,234393,1,0,0:0:0:0:
430,197,234674,2,0,P|455:111|368:16,1,225
272,96,235520,2,0,P|322:122|377:113,2,112.5
184,48,236365,2,0,P|42:44|28:209,1,337.5
136,320,237491,5,0,0:0:0:0:
224,176,237773,1,0,0:0:0:0:
416,232,238055,1,0,0:0:0:0:
416,232,238196,1,0,0:0:0:0:
416,232,238336,2,0,L|368:272,1,56.25
344,280,238618,2,0,L|288:280,1,56.25
256,280,238900,1,0,0:0:0:0:
144,136,239181,1,0,0:0:0:0:
336,40,239463,5,0,0:0:0:0:
464,304,240027,1,0,0:0:0:0:
176,376,240590,1,0,0:0:0:0:
24,128,241153,1,0,0:0:0:0:
368,176,241717,5,0,0:0:0:0:
232,240,241998,1,0,0:0:0:0:
240,96,242280,1,0,0:0:0:0:
448,32,242562,1,0,0:0:0:0:
448,32,242703,2,0,L|504:16,2,56.25
408,48,243125,2,0,P|368:112|376:144,1,112.5
408,296,243689,1,0,0:0:0:0:
192,336,243970,6,0,B|136:288|136:288|112:232|144:192,1,168.75
216,128,244534,2,0,P|221:202|205:234,1,112.5
72,136,245097,1,0,0:0:0:0:
256,24,245379,1,0,0:0:0:0:
440,136,245660,1,0,0:0:0:0:
440,136,245801,1,0,0:0:0:0:
440,136,245942,1,0,0:0:0:0:
432,328,246224,6,0,P|376:288|344:232,1,112.5
240,96,246787,2,0,P|296:136|320:176,1,112.5
344,192,247210,2,0,P|416:184|456:152,1,112.5
472,136,247632,1,0,0:0:0:0:
392,16,247914,2,0,L|272:16,1,112.5
168,16,248477,6,0,P|80:48|56:96,1,112.5
40,224,249041,1,0,0:0:0:0:
200,280,249322,1,0,0:0:0:0:
232,272,249463,1,0,0:0:0:0:
256,248,249604,2,0,P|248:184|208:160,1,112.5
40,224,250167,2,0,L|160:224,1,112.5
256,96,250731,5,0,0:0:0:0:
256,96,250872,1,0,0:0:0:0:
480,96,251153,1,0,0:0:0:0:
480,96,251294,2,0,P|489:185|448:256,1,168.75
432,264,251858,1,0,0:0:0:0:
256,312,252139,1,0,0:0:0:0:
152,160,252421,1,0,0:0:0:0:
336,80,252703,1,0,0:0:0:0:
360,232,252984,6,0,P|280:208|240:144,1,112.5
248,160,253407,1,0,0:0:0:0:
256,128,253548,1,0,0:0:0:0:
128,60,253829,2,0,P|72:72|12:168,1,168.75
16,184,254393,1,0,0:0:0:0:
88,328,254674,1,0,0:0:0:0:
240,320,254956,1,0,0:0:0:0:
264,328,255097,1,0,0:0:0:0:
288,336,255238,6,0,B|352:344|352:344|416:336|448:304,1,168.75
464,280,255801,1,0,0:0:0:0:
424,72,256083,1,0,0:0:0:0:
400,80,256224,1,0,0:0:0:0:
368,88,256365,2,0,L|208:88,2,112.5
488,192,257210,1,0,0:0:0:0:
376,304,257491,6,0,P|272:280|200:176,1,225
192,40,258336,2,0,P|288:104|296:208,1,225
168,352,259181,1,0,0:0:0:0:
24,208,259463,1,0,0:0:0:0:
192,40,259745,5,0,0:0:0:0:
256,184,260027,1,0,0:0:0:0:
320,40,260308,1,0,0:0:0:0:
440,192,260590,1,0,0:0:0:0:
440,192,260731,1,0,0:0:0:0:
400,352,261012,1,0,0:0:0:0:
376,344,261153,1,0,0:0:0:0:
352,328,261294,1,0,0:0:0:0:
344,304,261435,1,0,0:0:0:0:
440,192,261717,1,0,0:0:0:0:
320,40,261998,5,0,0:0:0:0:
256,184,262280,1,0,0:0:0:0:
192,40,262562,1,0,0:0:0:0:
72,192,262843,1,0,0:0:0:0:
72,192,262984,1,0,0:0:0:0:
112,352,263266,1,0,0:0:0:0:
136,344,263407,1,0,0:0:0:0:
160,328,263548,1,0,0:0:0:0:
168,304,263689,1,0,0:0:0:0:
72,192,263970,1,0,0:0:0:0:
56,216,264111,1,0,0:0:0:0:
48,240,264252,6,0,P|48:304|80:360,1,112.5
376,192,264815,1,0,0:0:0:0:
512,48,265097,1,0,0:0:0:0:
512,48,265238,2,0,P|464:80|448:136,1,112.5
432,136,265660,2,0,P|368:117|320:136,1,112.5
200,272,266224,1,0,0:0:0:0:
392,312,266505,6,0,P|432:248|376:112,1,225
104,64,267351,1,0,0:0:0:0:
120,88,267491,1,0,0:0:0:0:
144,104,267632,2,0,P|208:128|288:96,1,112.5
296,108,268055,2,0,B|352:136|360:196|360:196|360:264,1,168.75
264,360,268759,6,0,B|184:336|160:264|160:264|80:232,1,225
8,104,269604,1,0,0:0:0:0:
8,104,269745,2,0,L|160:156,1,112.5
152,152,270167,1,0,0:0:0:0:
288,248,270449,1,0,0:0:0:0:
448,192,270731,2,0,P|448:80|344:40,2,225
360,136,272139,2,0,L|240:136,1,112.5
64,192,273266,5,0,0:0:0:0:
276,360,274111,2,0,L|276:240,1,112.5
336,176,275520,5,0,0:0:0:0:
308,168,275660,1,0,0:0:0:0:
280,164,275801,2,0,B|232:160|212:200|172:196,1,112.5
148,192,276224,1,0,0:0:0:0:
120,184,276365,1,0,0:0:0:0:
304,320,276646,5,0,0:0:0:0:
456,136,276928,1,0,0:0:0:0:
208,64,277210,1,0,0:0:0:0:
304,320,277491,1,0,0:0:0:0:
