osu file format v12

[General]
AudioFilename: JKT48 - Gomen ne Summer.mp3
AudioLeadIn: 0
PreviewTime: -1
Countdown: 1
SampleSet: None
StackLeniency: 0.7
Mode: 0
LetterboxInBreaks: 1
WidescreenStoryboard: 1

[Editor]
DistanceSpacing: 0.8
BeatDivisor: 4
GridSize: 8

[Metadata]
Title:Gomen ne Summer
TitleUnicode:Gomen ne Summer
Artist:JKT48
ArtistUnicode:JKT48
Creator:izl98th
Version:Summer
Source:JKT48
Tags:
BeatmapID:305120
BeatmapSetID:118729

[Difficulty]
HPDrainRate:9
CircleSize:5
OverallDifficulty:8
ApproachRate:8
SliderMultiplier:1.4
SliderTickRate:1

[Events]
//Background and Video events
0,0,"JKT48 Generasi 1_wirademoneyes.jpg",0,0
//Break Periods
//Storyboard Layer 0 (Background)
//Storyboard Layer 1 (Fail)
//Storyboard Layer 2 (Pass)
//Storyboard Layer 3 (Foreground)
//Storyboard Sound Samples
//Background Colour Transformations
3,100,252,12,30

[TimingPoints]
14900,500,4,1,0,100,1,0
44807,-100,4,1,0,100,0,1
57304,-100,4,1,0,100,0,1
59381,-100,4,1,0,100,0,1
61808,-100,4,1,0,100,0,1
63927,-100,4,1,0,100,0,1
65879,-100,4,1,0,100,0,1
70261,-100,4,1,0,100,0,1
71926,-100,4,1,0,100,0,1
74787,-100,4,1,0,100,0,1
76407,-100,4,1,0,100,0,1
78903,-100,4,1,0,100,0,1
80937,-100,4,1,0,100,0,1
114549,-100,4,1,0,100,0,1
128267,-100,4,1,0,100,0,1
131574,-100,4,1,0,100,0,1
134754,-100,4,1,0,100,0,1
142026,-100,4,1,0,100,0,1
144476,-100,4,1,0,100,0,1
146247,-100,4,1,0,100,0,1
148539,-100,4,1,0,100,0,1
151099,-100,4,1,0,100,0,1
154238,-100,4,1,0,100,0,1
156611,-100,4,1,0,100,0,1
159132,-100,4,1,0,100,0,1
161574,-100,4,1,0,100,0,1
163987,-100,4,1,0,100,0,1
166110,-100,4,1,0,100,0,1
168095,-100,4,1,0,100,0,1
194807,-100,4,1,0,100,0,1
197159,-100,4,1,0,100,0,1
199280,-100,4,1,0,100,0,1
201244,-100,4,1,0,100,0,1
206484,-100,4,1,0,100,0,1
208482,-100,4,1,0,100,0,1
210949,-100,4,1,0,100,0,1
213165,-100,4,1,0,100,0,1
215024,-100,4,1,0,100,0,1
217022,-100,4,1,0,100,0,1
237276,-100,4,1,0,100,0,1

[Colours]
Combo1 : 251,203,191
Combo2 : 200,2,2
Combo3 : 250,95,90
Combo4 : 242,24,57
Combo5 : 255,252,251

[HitObjects]
256,168,18275,1,0,0:0:0:0:
248,120,19900,1,0,0:0:0:0:
208,120,21525,1,0,0:0:0:0:
160,128,23150,1,0,0:0:0:0:
216,128,24775,5,0,0:0:0:0:
264,120,26400,1,0,0:0:0:0:
312,120,28025,1,0,0:0:0:0:
360,120,29525,1,0,0:0:0:0:
288,128,29900,1,0,0:0:0:0:
288,128,30150,1,0,0:0:0:0:
232,136,30525,1,0,0:0:0:0:
232,136,30900,1,0,0:0:0:0:
232,136,31650,1,0,0:0:0:0:
272,136,33275,5,0,0:0:0:0:
328,120,34900,1,0,0:0:0:0:
368,120,35775,1,0,0:0:0:0:
296,128,36650,1,0,0:0:0:0:
248,128,37400,1,0,0:0:0:0:
184,136,38150,5,0,0:0:0:0:
144,136,39025,1,0,0:0:0:0:
184,136,39775,1,0,0:0:0:0:
240,128,40400,1,0,0:0:0:0:
288,128,41400,1,0,0:0:0:0:
336,128,42275,1,0,0:0:0:0:
288,128,42900,1,0,0:0:0:0:
288,128,43025,1,0,0:0:0:0:
216,136,43525,1,0,0:0:0:0:
176,144,43900,1,0,0:0:0:0:
176,144,44650,5,0,0:0:0:0:
272,136,45525,1,0,0:0:0:0:
312,128,46275,1,0,0:0:0:0:
368,128,47150,1,0,0:0:0:0:
288,128,47900,1,0,0:0:0:0:
208,128,48775,1,0,0:0:0:0:
160,136,49525,1,0,0:0:0:0:
96,144,49775,1,0,0:0:0:0:
96,144,50025,1,0,0:0:0:0:
160,136,50400,1,0,0:0:0:0:
224,136,52025,5,0,0:0:0:0:
272,128,52775,1,0,0:0:0:0:
336,128,53650,1,0,0:0:0:0:
384,128,54400,1,0,0:0:0:0:
192,160,55150,1,0,0:0:0:0:
256,192,56775,12,0,59025,0:0:0:0:
144,216,58900,2,0,L|344:104,1,210
344,104,60525,2,0,L|152:192,2,210
120,80,62900,6,0,L|384:240,1,280
344,24,64650,2,0,L|184:184,1,210
120,72,66275,2,0,L|416:232,1,315
400,72,68400,6,0,L|144:200,1,280
96,56,69775,2,0,B|256:136|280:144|280:144,4,175
112,232,74150,2,0,L|200:56,3,175
200,56,76650,2,0,L|336:152,1,140
144,128,79025,1,0,0:0:0:0:
216,128,79900,1,0,0:0:0:0:
288,112,80775,1,0,0:0:0:0:
384,120,81525,1,0,0:0:0:0:
288,112,82400,1,0,0:0:0:0:
224,136,82650,1,0,0:0:0:0:
176,136,83025,1,0,0:0:0:0:
176,136,84400,5,0,0:0:0:0:
264,128,85275,1,0,0:0:0:0:
368,112,86025,1,0,0:0:0:0:
264,128,86775,1,0,0:0:0:0:
144,120,87650,1,0,0:0:0:0:
224,120,88525,1,0,0:0:0:0:
304,112,89275,1,0,0:0:0:0:
304,112,90150,5,0,0:0:0:0:
240,112,90900,1,0,0:0:0:0:
160,120,91650,1,0,0:0:0:0:
104,120,92525,1,0,0:0:0:0:
160,120,92900,1,0,0:0:0:0:
232,120,93400,1,0,0:0:0:0:
312,112,93775,1,0,0:0:0:0:
352,112,94150,1,0,0:0:0:0:
312,112,95025,5,0,0:0:0:0:
256,120,95775,1,0,0:0:0:0:
200,160,96525,1,0,0:0:0:0:
136,112,97275,1,0,0:0:0:0:
232,112,97775,1,0,0:0:0:0:
176,120,98150,1,0,0:0:0:0:
80,112,98650,1,0,0:0:0:0:
232,112,99025,1,0,0:0:0:0:
320,112,99275,1,0,0:0:0:0:
80,120,101025,5,0,0:0:0:0:
136,120,102650,1,0,0:0:0:0:
200,120,103525,1,0,0:0:0:0:
272,136,104275,1,0,0:0:0:0:
304,128,105150,5,0,0:0:0:0:
344,136,105900,1,0,0:0:0:0:
384,136,106775,1,0,0:0:0:0:
264,120,107525,1,0,0:0:0:0:
200,128,108775,5,0,0:0:0:0:
144,136,109525,1,0,0:0:0:0:
104,128,110400,1,0,0:0:0:0:
208,128,111150,1,0,0:0:0:0:
312,120,112025,5,0,0:0:0:0:
368,120,112775,1,0,0:0:0:0:
272,128,113275,1,0,0:0:0:0:
192,128,113650,1,0,0:0:0:0:
144,136,114650,5,0,0:0:0:0:
296,128,115650,1,0,0:0:0:0:
376,128,116525,1,0,0:0:0:0:
272,128,117275,1,0,0:0:0:0:
160,136,118150,1,0,0:0:0:0:
120,136,118900,1,0,0:0:0:0:
224,128,120525,5,0,0:0:0:0:
312,120,121400,1,0,0:0:0:0:
184,128,122150,1,0,0:0:0:0:
80,144,122900,1,0,0:0:0:0:
136,136,123525,1,0,0:0:0:0:
184,128,123775,1,0,0:0:0:0:
184,128,124025,1,0,0:0:0:0:
232,136,124400,1,0,0:0:0:0:
232,136,124775,1,0,0:0:0:0:
232,136,125025,1,0,0:0:0:0:
272,136,125150,1,0,0:0:0:0:
272,136,126275,5,0,0:0:0:0:
200,136,127400,1,0,0:0:0:0:
136,128,128150,1,0,0:0:0:0:
200,136,129025,1,0,0:0:0:0:
288,112,129775,1,0,0:0:0:0:
344,112,130650,1,0,0:0:0:0:
464,112,131525,1,0,0:0:0:0:
344,112,132275,1,0,0:0:0:0:
288,136,133025,1,0,0:0:0:0:
200,152,133900,5,0,0:0:0:0:
136,152,134650,1,0,0:0:0:0:
88,144,135400,1,0,0:0:0:0:
224,120,136275,1,0,0:0:0:0:
304,112,137025,1,0,0:0:0:0:
432,112,138275,5,0,0:0:0:0:
288,120,138775,1,0,0:0:0:0:
200,120,139150,1,0,0:0:0:0:
112,128,139525,1,0,0:0:0:0:
112,128,139900,1,0,0:0:0:0:
112,128,140275,1,0,0:0:0:0:
112,128,140525,1,0,0:0:0:0:
112,128,140650,1,0,0:0:0:0:
112,128,140900,1,0,0:0:0:0:
240,128,141150,1,0,0:0:0:0:
240,128,142025,5,0,0:0:0:0:
296,120,142775,1,0,0:0:0:0:
336,120,143650,1,0,0:0:0:0:
368,128,144400,1,0,0:0:0:0:
416,120,145150,1,0,0:0:0:0:
416,120,146025,5,0,0:0:0:0:
360,120,146775,1,0,0:0:0:0:
320,128,147275,1,0,0:0:0:0:
320,128,147650,1,0,0:0:0:0:
232,128,149025,5,0,0:0:0:0:
232,128,150025,1,0,0:0:0:0:
288,128,150900,1,0,0:0:0:0:
328,128,151650,1,0,0:0:0:0:
376,120,152525,1,0,0:0:0:0:
376,120,152900,1,0,0:0:0:0:
376,120,153275,1,0,0:0:0:0:
320,128,153525,1,0,0:0:0:0:
320,128,153775,1,0,0:0:0:0:
272,128,154150,1,0,0:0:0:0:
272,128,154525,1,0,0:0:0:0:
272,128,155400,5,0,0:0:0:0:
336,128,156275,1,0,0:0:0:0:
400,120,157025,1,0,0:0:0:0:
336,128,157775,1,0,0:0:0:0:
272,128,158650,1,0,0:0:0:0:
224,128,159900,1,0,0:0:0:0:
176,136,160650,1,0,0:0:0:0:
120,120,161400,1,0,0:0:0:0:
120,120,162275,1,0,0:0:0:0:
256,112,163025,1,0,0:0:0:0:
256,112,163900,1,0,0:0:0:0:
296,112,164650,5,0,0:0:0:0:
240,120,165900,1,0,0:0:0:0:
200,120,166275,1,0,0:0:0:0:
200,120,166525,1,0,0:0:0:0:
160,120,166775,1,0,0:0:0:0:
104,128,167150,1,0,0:0:0:0:
104,128,167900,1,0,0:0:0:0:
240,112,169525,5,0,0:0:0:0:
240,112,170400,1,0,0:0:0:0:
256,192,170775,12,0,179525,0:0:0:0:
200,120,180525,5,0,0:0:0:0:
240,112,181275,1,0,0:0:0:0:
288,112,182150,1,0,0:0:0:0:
352,128,182775,1,0,0:0:0:0:
352,128,183775,1,0,0:0:0:0:
272,128,184650,1,0,0:0:0:0:
224,136,185400,1,0,0:0:0:0:
176,136,186150,5,0,0:0:0:0:
136,128,187025,1,0,0:0:0:0:
208,128,187775,1,0,0:0:0:0:
280,128,188650,1,0,0:0:0:0:
336,120,189400,1,0,0:0:0:0:
336,120,190275,5,0,0:0:0:0:
272,120,190900,1,0,0:0:0:0:
216,128,191775,1,0,0:0:0:0:
128,128,192525,1,0,0:0:0:0:
128,128,193400,5,0,0:0:0:0:
176,128,193775,1,0,0:0:0:0:
176,128,194025,1,0,0:0:0:0:
176,128,194150,1,0,0:0:0:0:
176,128,194400,1,0,0:0:0:0:
224,128,194650,1,0,0:0:0:0:
184,200,195150,6,0,L|320:120,2,140
88,144,196275,2,0,L|352:208,1,245
368,80,197650,2,0,L|128:168,1,245
96,96,199275,2,0,L|416:192,1,315
368,40,200775,2,0,B|176:112|80:136|240:160|408:168|304:224|304:232,3,385
232,80,206400,1,0,0:0:0:0:
272,88,206775,1,0,0:0:0:0:
328,104,207025,1,0,0:0:0:0:
328,104,207275,1,0,0:0:0:0:
368,96,207650,1,0,0:0:0:0:
328,104,208525,5,0,0:0:0:0:
216,112,209275,1,0,0:0:0:0:
128,104,210025,1,0,0:0:0:0:
248,104,210900,1,0,0:0:0:0:
360,104,211650,1,0,0:0:0:0:
416,112,212400,1,0,0:0:0:0:
296,128,213275,1,0,0:0:0:0:
240,136,214150,5,0,0:0:0:0:
152,136,214900,1,0,0:0:0:0:
72,120,215650,1,0,0:0:0:0:
232,104,216525,1,0,0:0:0:0:
376,112,217275,1,0,0:0:0:0:
376,112,218525,5,0,0:0:0:0:
304,120,219400,1,0,0:0:0:0:
224,128,219650,1,0,0:0:0:0:
152,128,220025,1,0,0:0:0:0:
152,128,220275,1,0,0:0:0:0:
280,120,221400,5,0,0:0:0:0:
368,112,222275,1,0,0:0:0:0:
192,128,223025,1,0,0:0:0:0:
112,120,223775,1,0,0:0:0:0:
280,112,224650,1,0,0:0:0:0:
400,104,225525,1,0,0:0:0:0:
168,120,226275,1,0,0:0:0:0:
256,192,226400,12,0,232775,0:0:0:0:
272,128,234025,5,0,0:0:0:0:
272,128,235525,1,0,0:0:0:0:
304,136,236275,1,0,0:0:0:0:
248,136,237150,1,0,0:0:0:0:
