osu file format v12

[General]
AudioFilename: JKT48 - Fortune Cookie Yang Mencinta.mp3
AudioLeadIn: 0
PreviewTime: 222847
Countdown: 0
SampleSet: Soft
StackLeniency: 0.7
Mode: 0
LetterboxInBreaks: 1
WidescreenStoryboard: 1

[Editor]
DistanceSpacing: 0.9
BeatDivisor: 4
GridSize: 4

[Metadata]
Title:Fortune Cookie Yang Mencinta
TitleUnicode:Fortune Cookie Yang Mencinta
Artist:JKT48
ArtistUnicode:JKT48
Creator:selova
Version:Tolonglah
Source:
Tags:in love koisuru AKB48
BeatmapID:297457
BeatmapSetID:115007

[Difficulty]
HPDrainRate:3
CircleSize:3
OverallDifficulty:3
ApproachRate:3
SliderMultiplier:0.9
SliderTickRate:1

[Events]
//Background and Video events
0,0,"kue.jpg",0,0
//Break Periods
2,122532,126993
2,211249,225345
//Storyboard Layer 0 (Background)
//Storyboard Layer 1 (Fail)
//Storyboard Layer 2 (Pass)
//Storyboard Layer 3 (Foreground)
//Storyboard Sound Samples
//Background Colour Transformations
3,100,163,162,255

[TimingPoints]
575,491.76297024834,4,2,0,53,1,0
79257,-100,4,2,0,63,0,1
108885,-100,4,2,0,63,0,0
167774,-100,4,2,0,63,0,1
197403,-100,4,2,0,63,0,0
226785,-100,4,2,0,63,0,1
256414,-100,4,2,0,63,0,0
260102,-100,4,2,0,63,0,1
260348,-100,4,2,0,63,0,0
264037,-100,4,2,0,63,0,1
264282,-100,4,2,0,63,0,0
270061,-100,4,2,0,63,0,1
270306,-100,4,2,0,63,0,0
272028,-100,4,2,0,63,0,1
272274,-100,4,2,0,63,0,0
273995,-100,4,2,0,63,0,1
274241,-100,4,2,0,63,0,0
275962,-100,4,2,0,63,0,1
276208,-100,4,2,0,63,0,0

[Colours]
Combo1 : 255,94,174
Combo2 : 255,255,23
Combo3 : 0,128,255

[HitObjects]
128,80,24179,2,0,L|232:80,1,90,0|2,0:0|0:0,0:0:0:0:
256,8,25163,2,0,P|300:56|296:96,1,90,0|8,0:0|0:0,0:0:0:0:
304,160,26146,2,0,P|336:192|392:216,2,90,0|8|0,0:0|0:0|0:0,0:0:0:0:
228,304,28113,6,0,P|180:332|140:328,1,90,0|2,0:0|0:0,0:0:0:0:
72,296,29097,1,0,0:0:0:0:
108,224,29589,2,0,P|108:168|84:136,2,90,8|0|8,0:0|0:0|0:0,0:0:0:0:
32,200,31064,1,0,0:0:0:0:
36,80,32047,6,0,P|152:56|236:176,1,270,0|2,0:0|0:0,0:0:0:0:
204,240,34014,2,0,B|288:264|320:176|320:176|400:128|448:172,1,270,0|2,0:0|0:0,0:0:0:0:
396,236,35981,5,0,0:0:0:0:
276,348,36965,1,0,0:0:0:0:
116,324,37948,2,0,B|64:276|64:276|32:228|64:156,1,180,2|0,0:0|0:0,0:0:0:0:
128,24,39916,6,0,P|176:48|192:100,1,90,0|2,0:0|0:0,0:0:0:0:
156,152,40899,2,0,B|204:172|248:140|248:140|256:196|312:212,1,180
360,248,42374,1,8,0:0:0:0:
440,228,42866,2,0,P|404:140|324:132,1,180
260,172,44341,5,2,0:0:0:0:
224,244,44833,2,0,P|180:280|144:276,1,90,0|8,0:0|0:0,0:0:0:0:
76,244,45817,2,0,P|40:208|40:168,1,90,0|2,0:0|0:0,0:0:0:0:
24,88,46800,2,0,P|80:96|112:128,1,90,0|8,0:0|0:0,0:0:0:0:
172,160,47784,6,0,B|252:184|288:100|288:100|388:108|380:184,1,270,0|2,0:0|0:0,0:0:0:0:
372,244,49751,2,0,B|352:308|416:340|480:308|464:236|464:236|448:184|464:160,1,270,0|2,0:0|0:0,0:0:0:0:
508,100,51718,5,0,0:0:0:0:
372,16,52701,1,0,0:0:0:0:
268,140,53685,2,0,B|184:140|156:80|156:80|124:72|92:88,1,180,2|0,0:0|0:0,0:0:0:0:
60,144,55160,1,8,0:0:0:0:
4,204,55652,6,0,B|40:240|88:224|88:224|116:256|80:308|80:308|112:344|168:336,1,270,0|2,0:0|0:0,0:0:0:0:
236,312,57619,2,0,B|272:272|360:288|368:316|356:348|312:348|288:328|340:232|400:228,1,270,0|2,0:0|0:0,0:0:0:0:
464,268,59586,6,0,B|496:192|428:152|428:152|360:92|416:24,1,270,0|2,0:0|0:0,0:0:0:0:
476,80,61553,2,0,B|408:152|280:80|280:80|204:76,1,270,0|2,0:0|0:0,0:0:0:0:
144,100,63520,6,0,L|64:272,2,180,0|2|0,0:0|0:0|0:0,0:0:0:0:
116,24,65979,1,2,0:0:0:0:
52,76,66471,2,0,B|60:232|212:148|240:260,1,270,0|2,0:0|0:0,0:0:0:0:
188,312,68438,6,0,P|260:324|312:272,2,135,0|2|0,0:0|0:0|0:0,0:0:0:0:
120,272,70405,1,0,0:0:0:0:
32,188,71142,6,0,L|160:108,1,135,2|8,0:0|0:0,0:0:0:0:
216,76,72372,1,0,0:0:0:0:
308,156,73110,2,0,P|336:236|396:264,1,135,2|8,0:0|0:0,0:0:0:0:
428,320,74339,2,0,P|456:276|448:232,1,90
408,172,75322,6,0,P|384:112|408:80,1,90,0|8,0:0|0:0,0:0:0:0:
352,24,76306,2,0,L|196:24,1,135,2|0,0:0|0:0,0:0:0:0:
128,104,77781,1,8,0:0:0:0:
112,184,78273,2,0,P|176:168|200:136,1,90,0|8,0:0|3:0,0:0:0:0:
260,108,79257,6,0,P|328:124|336:232,1,180,4|2,0:0|0:0,0:0:0:0:
304,292,80732,1,8,0:0:0:0:
232,332,81224,2,0,P|272:368|380:320,1,180,0|2,0:0|0:0,0:0:0:0:
428,260,82699,1,8,0:0:0:0:
396,188,83191,6,0,L|348:104,1,90,0|2,0:0|0:0,0:0:0:0:
380,36,84174,2,0,P|316:68|196:64,1,180
132,52,85649,1,8,0:0:0:0:
72,0,86141,2,0,P|52:36|60:88,2,90,0|8|0,0:0|0:0|0:0,0:0:0:0:
88,160,88108,6,0,P|96:200|152:140,1,180,2|0,0:0|0:0,0:0:0:0:
52,268,90075,2,0,P|84:320|80:356,1,90,0|8,0:0|0:0,0:0:0:0:
164,356,91059,6,0,P|212:324|336:328,1,180,0|2,0:0|0:0,0:0:0:0:
404,364,92534,1,8,0:0:0:0:
492,228,93518,1,8,0:0:0:0:
332,224,94501,1,8,0:0:0:0:
280,288,94993,6,0,P|360:300|412:208,1,180,4|2,0:0|0:0,0:0:0:0:
360,168,96468,1,8,0:0:0:0:
400,96,96960,2,0,L|468:32,1,90,0|8,0:0|0:0,0:0:0:0:
392,0,97944,2,0,B|348:40|348:40|284:24|224:40,1,180
156,76,99419,5,8,0:0:0:0:
136,156,99911,2,0,P|196:152|220:116,1,90,0|2,0:0|0:0,0:0:0:0:
288,104,100894,2,0,L|348:196,2,90,0|8|0,0:0|0:0|0:0,0:0:0:0:
232,44,102369,1,2,0:0:0:0:
152,32,102861,6,0,P|96:52|96:168,1,180
152,208,104336,1,2,0:0:0:0:
232,228,104828,2,0,B|283:212|284:108|369:111,1,180
430,147,106304,1,2,0:0:0:0:
366,195,106795,6,0,P|455:220|508:154,2,180,0|2|4,0:0|0:0|0:0,0:0:0:0:
308,140,109254,6,0,P|264:128|220:128,1,90,8|0,0:0|0:0,0:0:0:0:
148,92,110238,2,0,P|140:136|160:184,1,90,2|0,0:0|0:0,0:0:0:0:
228,212,111221,1,8,0:0:0:0:
300,252,111713,2,0,L|312:344,1,90
232,360,112696,6,0,P|172:292|96:320,1,180,0|2,0:0|0:0,0:0:0:0:
32,368,114172,1,8,0:0:0:0:
4,292,114664,2,0,L|4:196,1,90
60,144,115647,1,0,0:0:0:0:
112,204,116139,1,8,0:0:0:0:
192,216,116631,6,0,P|208:152|136:76,1,180,0|2,0:0|0:0,0:0:0:0:
80,16,118106,1,8,0:0:0:0:
160,0,118598,2,0,L|340:0,1,180,0|2,0:0|0:0,0:0:0:0:
408,44,120073,1,8,0:0:0:0:
480,80,120565,2,0,P|452:112|400:124,1,90
372,104,128433,6,0,P|408:128|424:172,1,90,0|2,0:0|0:0,0:0:0:0:
424,252,129416,2,0,P|392:296|300:284,2,135,0|0|8,0:0|0:0|0:0,0:0:0:0:
348,224,131383,1,0,0:0:0:0:
248,156,132121,6,0,P|224:120|260:32,1,135,0|2,0:0|0:0,0:0:0:0:
304,100,133351,1,0,0:0:0:0:
316,220,134088,2,0,P|252:240|176:220,1,135,0|8,0:0|0:0,0:0:0:0:
128,168,135318,1,0,0:0:0:0:
40,248,136055,6,0,B|64:312|128:308|128:308|184:304|224:360,1,225,0|2,0:0|0:0,0:0:0:0:
340,384,138022,2,0,B|408:340|356:248|356:248|300:244|304:212,1,225,0|2,0:0|0:0,0:0:0:0:
400,80,140235,1,0,0:0:0:0:
256,156,141219,1,2,0:0:0:0:
116,84,142202,6,2,P|84:104|72:164,2,90,0|0|2,0:0|0:0|0:0,0:0:0:0:
152,156,143678,1,8,0:0:0:0:
212,208,144169,6,0,L|304:232,1,90,0|2,0:0|0:0,0:0:0:0:
372,268,145153,2,0,P|380:304|360:352,1,90,0|2,0:0|0:0,0:0:0:0:
284,372,146136,2,0,P|216:348|152:384,2,135,0|2|0,0:0|0:0|0:0,0:0:0:0:
312,296,148103,6,0,L|272:204,1,90,0|2,0:0|0:0,0:0:0:0:
236,144,149087,2,0,P|176:120|112:160,2,135,0|2|0,0:0|0:0|0:0,0:0:0:0:
312,120,151054,2,0,L|400:76,1,90,0|2,0:0|0:0,0:0:0:0:
472,64,152037,5,0,0:0:0:0:
448,140,152529,1,2,0:0:0:0:
392,80,153021,2,0,P|348:40|272:36,1,135,0|2,0:0|0:0,0:0:0:0:
212,140,154496,1,0,0:0:0:0:
132,128,154988,2,0,P|136:176|176:208,1,90,0|2,0:0|0:0,0:0:0:0:
240,236,155972,6,0,P|272:288|272:360,1,135,0|2,0:0|0:0,0:0:0:0:
196,328,157201,2,0,L|100:328,1,90
48,220,158430,2,0,L|48:116,1,90
152,64,159660,6,0,P|224:84|288:56,1,135,2|0,0:0|0:0,0:0:0:0:
352,28,160889,2,0,P|412:68|416:136,1,135,0|2,0:0|0:0,0:0:0:0:
340,220,162365,1,0,0:0:0:0:
260,216,162856,2,0,P|272:172|320:144,1,90,2|0,0:0|0:0,0:0:0:0:
388,156,163840,5,0,0:0:0:0:
320,304,164823,1,0,0:0:0:0:
208,256,165561,2,0,L|116:256,1,90,2|2,0:0|0:0,0:0:0:0:
32,168,166790,2,0,P|24:112|44:80,1,90,0|8,0:0|3:0,0:0:0:0:
104,36,167774,6,0,P|160:24|192:44,1,90,4|8,0:0|0:0,0:0:0:0:
248,92,168757,2,0,P|308:96|368:44,2,135
168,88,170724,2,0,L|120:164,1,90,0|8,0:0|0:0,0:0:0:0:
144,240,171708,5,0,0:0:0:0:
216,204,172200,1,8,0:0:0:0:
288,244,172692,2,0,P|304:292|256:372,1,135
180,280,174167,1,8,0:0:0:0:
116,232,174659,2,0,L|104:136,1,90,0|8,0:0|0:0,0:0:0:0:
28,124,175642,6,0,P|104:140|200:80,1,180,0|2,0:0|0:0,0:0:0:0:
252,40,177117,1,8,0:0:0:0:
332,56,177609,2,0,B|360:152|360:152|420:204,1,180,0|2,0:0|0:0,0:0:0:0:
492,244,179084,1,8,0:0:0:0:
452,316,179576,6,0,P|424:348|296:328,1,180,0|0,0:0|0:0,0:0:0:0:
256,264,181052,1,2,0:0:0:0:
164,132,182035,1,2,0:0:0:0:
76,268,183019,1,2,0:0:0:0:
28,332,183510,6,0,P|84:348|128:332,1,90,4|8,0:0|0:0,0:0:0:0:
164,276,184494,2,0,B|144:180|60:188|60:188|24:124|72:64,1,270,0|8,0:0|0:0,0:0:0:0:
120,20,186461,1,0,0:0:0:0:
168,88,186953,1,8,0:0:0:0:
244,112,187444,6,0,P|308:96|328:72,1,90,0|8,0:0|0:0,0:0:0:0:
392,36,188428,2,0,P|460:64|484:124,1,135
428,224,189903,1,8,0:0:0:0:
368,276,190395,1,0,0:0:0:0:
320,212,190887,2,0,L|220:240,1,90,8|0,0:0|0:0,0:0:0:0:
128,360,192362,6,0,P|76:264|108:200,1,180,2|0,0:0|0:0,0:0:0:0:
172,168,193837,1,8,0:0:0:0:
240,124,194329,2,0,P|245:209|168:249,1,180,2|0,0:0|0:0,0:0:0:0:
100,208,195804,1,8,0:0:0:0:
100,128,196296,2,0,P|136:72|164:56,1,90,0|2,0:0|0:0,0:0:0:0:
236,48,197280,6,0,L|336:48,1,90,4|8,0:0|0:0,0:0:0:0:
408,56,198263,2,0,P|456:88|468:124,1,90,0|8,0:0|0:0,0:0:0:0:
472,196,199247,2,0,P|420:184|392:144,1,90,0|8,0:0|0:0,0:0:0:0:
316,144,200230,2,0,L|252:208,1,90,2|2,0:0|0:0,0:0:0:0:
176,228,201214,6,0,P|172:152|152:136,1,90,0|8,0:0|0:0,0:0:0:0:
120,80,202197,2,0,L|56:8,1,90,0|8,0:0|0:0,0:0:0:0:
24,88,203181,2,0,L|88:160,1,90,0|8,0:0|0:0,0:0:0:0:
132,220,204164,2,2,P|144:264|132:320,1,90,2|0,0:0|0:0,0:0:0:0:
204,352,205148,6,0,P|264:324|304:328,1,90,0|8,0:0|0:0,0:0:0:0:
364,352,206131,2,0,P|420:336|432:304,1,90,0|8,0:0|0:0,0:0:0:0:
420,232,207115,2,0,P|412:172|444:144,1,90,0|8,0:0|0:0,0:0:0:0:
460,76,208098,2,2,L|380:24,1,90
256,192,209082,12,0,211049,0:0:0:0:
408,36,226785,6,0,P|352:24|320:44,1,90,4|8,0:0|0:0,0:0:0:0:
264,92,227769,2,0,P|204:96|144:44,2,135
344,88,229736,2,0,L|396:164,1,90,0|8,0:0|0:0,0:0:0:0:
368,240,230720,5,0,0:0:0:0:
296,204,231211,1,8,0:0:0:0:
224,244,231703,2,0,P|208:292|256:372,1,135
332,280,233178,1,8,0:0:0:0:
396,232,233670,2,0,L|408:136,1,90,0|8,0:0|0:0,0:0:0:0:
484,124,234654,6,0,P|408:140|312:80,1,180,0|2,0:0|0:0,0:0:0:0:
260,40,236129,1,8,0:0:0:0:
180,56,236621,2,0,B|152:152|152:152|92:204,1,180,0|2,0:0|0:0,0:0:0:0:
20,244,238096,1,8,0:0:0:0:
60,316,238588,6,0,P|88:348|212:316,1,180,0|0,0:0|0:0,0:0:0:0:
136,284,240063,1,2,0:0:0:0:
288,340,241047,1,2,0:0:0:0:
240,188,242030,1,2,0:0:0:0:
252,108,242522,6,0,P|184:128|172:232,1,180,4|2,0:0|0:0,0:0:0:0:
208,296,243997,1,8,0:0:0:0:
280,336,244489,2,0,P|240:372|132:324,1,180,0|2,0:0|0:0,0:0:0:0:
88,264,245964,1,8,0:0:0:0:
116,188,246456,6,0,L|164:104,1,90,0|2,0:0|0:0,0:0:0:0:
132,36,247440,2,0,P|196:68|316:64,1,180
380,52,248915,1,8,0:0:0:0:
440,0,249407,2,0,P|460:36|452:88,2,90,0|8|0,0:0|0:0|0:0,0:0:0:0:
424,160,251374,6,0,P|416:200|360:140,1,180,2|0,0:0|0:0,0:0:0:0:
460,268,253341,2,0,P|428:320|432:356,1,90,0|8,0:0|0:0,0:0:0:0:
348,356,254324,6,0,P|320:300|200:268,1,180,0|2,0:0|0:0,0:0:0:0:
132,260,255799,2,0,P|120:196|136:172,1,90,0|4,0:0|0:0,0:0:0:0:
204,140,256783,6,0,P|248:128|292:128,1,90,8|0,0:0|0:0,0:0:0:0:
364,92,257767,2,0,P|372:136|352:184,1,90,8|0,0:0|0:0,0:0:0:0:
284,212,258750,1,8,0:0:0:0:
212,252,259242,2,0,L|200:344,1,90
280,360,260225,6,0,P|340:292|416:320,1,180,0|2,0:0|0:0,0:0:0:0:
480,368,261701,1,8,0:0:0:0:
508,292,262192,2,0,L|508:196,1,90
472,132,263176,1,0,0:0:0:0:
396,160,263668,1,8,0:0:0:0:
376,240,264159,6,0,P|344:224|316:168,1,90,0|8,0:0|0:0,0:0:0:0:
292,100,265143,2,0,P|272:60|220:44,1,90,0|8,0:0|0:0,0:0:0:0:
156,72,266127,1,2,0:0:0:0:
124,148,266618,2,0,P|84:112|72:68,2,90,8|0|0,0:0|0:0|0:0,0:0:0:0:
184,200,268094,6,0,B|216:252|176:296|128:252|128:252|72:296|112:360|148:360,1,270,2|0,0:0|0:0,0:0:0:0:
224,348,270061,6,0,P|316:344|404:376,1,180,0|2,0:0|0:0,0:0:0:0:
472,344,271536,1,8,0:0:0:0:
480,264,272028,6,0,P|456:164|488:96,1,180,0|2,0:0|0:0,0:0:0:0:
424,48,273503,1,8,0:0:0:0:
344,32,273995,6,0,P|280:80|184:60,1,180,0|2,0:0|0:0,0:0:0:0:
120,108,275470,1,8,0:0:0:0:
152,184,275962,6,2,P|168:224|156:276,2,90,6|2|2,0:0|0:0|0:0,0:0:0:0:
88,232,277437,2,0,P|80:276|104:324,1,90
256,284,278912,6,0,L|256:192,1,90,2|0,0:0|0:0,0:0:0:0:
