osu file format v12

[General]
AudioFilename: JKT48 - Fortune Cookie Yang Mencinta.mp3
AudioLeadIn: 2507
PreviewTime: 222847
Countdown: 0
SampleSet: Soft
StackLeniency: 0.7
Mode: 0
LetterboxInBreaks: 1
WidescreenStoryboard: 0

[Editor]
DistanceSpacing: 1.7
BeatDivisor: 4
GridSize: 8

[Metadata]
Title:Fortune Cookie Yang Mencinta
TitleUnicode:Fortune Cookie Yang Mencinta
Artist:JKT48
ArtistUnicode:JKT48
Creator:selova
Version:Kue Cinta
Source:
Tags:in love koisuru AKB48
BeatmapID:297455
BeatmapSetID:115007

[Difficulty]
HPDrainRate:6
CircleSize:4
OverallDifficulty:7
ApproachRate:8
SliderMultiplier:1.8
SliderTickRate:1

[Events]
//Background and Video events
0,0,"kue.jpg",0,0
//Break Periods
2,122532,127437
//Storyboard Layer 0 (Background)
//Storyboard Layer 1 (Fail)
//Storyboard Layer 2 (Pass)
//Storyboard Layer 3 (Foreground)
//Storyboard Sound Samples
//Background Colour Transformations
3,100,163,162,255

[TimingPoints]
575,491.76297024834,4,2,0,43,1,0
23933,-133.333333333333,4,2,0,53,0,0
55652,-100,4,2,0,53,0,0
79257,-100,4,2,0,63,0,1
108885,-100,4,2,0,63,0,0
112328,-100,4,2,0,63,0,1
112574,-100,4,2,0,63,0,0
116262,-100,4,2,0,63,0,1
116508,-100,4,2,0,63,0,0
128187,-133.333333333333,4,2,0,53,0,0
144169,-100,4,2,0,63,0,0
167774,-100,4,2,0,63,0,1
197403,-100,4,2,0,63,0,0
200845,-100,4,2,0,63,0,1
201091,-100,4,2,0,63,0,0
204779,-100,4,2,0,63,0,1
205025,-100,4,2,0,63,0,0
226785,-100,4,2,0,63,0,1
256414,-100,4,2,0,63,0,0
260102,-100,4,2,0,63,0,1
260348,-100,4,2,0,63,0,0
263791,-100,4,2,0,63,0,1
264037,-100,4,2,0,63,0,0
270061,-100,4,2,0,63,0,1
270306,-100,4,2,0,63,0,0
272028,-100,4,2,0,63,0,1
272274,-100,4,2,0,63,0,0
273995,-100,4,2,0,63,0,1
274241,-100,4,2,0,63,0,0
275962,-100,4,2,0,63,0,1
276085,-100,4,2,0,63,0,0
276331,-100,4,2,0,63,0,1
276454,-100,4,2,0,63,0,0
276699,-100,4,2,0,63,0,1
276822,-100,4,2,0,63,0,0
277929,-80,4,2,0,63,0,0
278912,-100,4,2,0,63,0,0

[Colours]
Combo1 : 255,94,174
Combo2 : 255,255,23
Combo3 : 0,128,255

[HitObjects]
72,104,575,1,0,0:0:0:0:
256,276,943,1,0,0:0:0:0:
440,104,1312,1,8,0:0:0:0:
256,336,1804,2,2,L|256:384,3,45
440,280,2542,5,0,0:0:0:0:
256,108,2910,1,0,0:0:0:0:
72,280,3279,1,8,0:0:0:0:
256,48,3771,2,2,L|256:0,3,45
132,264,4509,5,0,0:0:0:0:
380,264,4877,1,0,0:0:0:0:
256,48,5246,1,8,0:0:0:0:
256,336,5738,2,2,L|256:388,3,45
380,120,6476,5,0,0:0:0:0:
132,120,6844,1,0,0:0:0:0:
256,336,7213,1,8,0:0:0:0:
256,84,7705,1,0,3:0:0:0:
256,108,7828,1,0,3:0:0:0:
256,132,7951,1,0,3:0:0:0:
256,156,8074,1,0,3:0:0:0:
256,180,8197,1,0,3:0:0:0:
256,204,8320,1,0,3:0:0:0:
256,228,8443,6,0,P|224:284|184:304,1,90,4|2,0:0|0:0,0:0:0:0:
16,192,8934,2,0,L|112:192,1,90,0|2,0:0|0:0,0:0:0:0:
224,192,9426,1,0,0:0:0:0:
124,132,9672,1,8,0:0:0:0:
124,252,9918,1,8,0:0:0:0:
236,72,10164,6,0,P|152:36|56:32,1,180,0|2,0:0|0:0,0:0:0:0:
32,184,10902,2,0,P|80:156|104:96,1,90,0|2,0:0|0:0,0:0:0:0:
20,36,11393,1,0,0:0:0:0:
96,128,11639,1,8,0:0:0:0:
212,128,11885,1,8,0:0:0:0:
432,192,12131,6,0,B|352:192|352:192|304:224|256:192,1,180,0|2,0:0|0:0,0:0:0:0:
96,128,12869,2,0,L|208:128,1,90,0|2,0:0|0:0,0:0:0:0:
304,128,13360,1,0,0:0:0:0:
324,244,13606,1,8,0:0:0:0:
208,256,13852,1,8,0:0:0:0:
80,192,14098,6,0,B|160:192|160:192|208:160|256:192,1,180,0|2,0:0|0:0,0:0:0:0:
416,256,14836,2,0,L|312:256,1,90,0|2,0:0|0:0,0:0:0:0:
208,256,15327,1,0,0:0:0:0:
188,140,15573,1,8,0:0:0:0:
304,128,15819,1,8,0:0:0:0:
324,304,16065,6,0,B|304:348|256:364|256:364|228:328|168:332,1,180,0|2,0:0|0:0,0:0:0:0:
0,324,16803,2,0,P|44:368|96:368,1,90,0|2,0:0|0:0,0:0:0:0:
180,332,17294,1,2,0:0:0:0:
256,244,17540,1,8,0:0:0:0:
332,332,17786,1,8,0:0:0:0:
440,384,18032,6,0,P|484:320|448:232,1,180,0|2,0:0|0:0,0:0:0:0:
448,232,18770,1,0,0:0:0:0:
296,56,19261,1,2,0:0:0:0:
256,168,19507,1,8,0:0:0:0:
372,168,19753,1,8,0:0:0:0:
188,56,19999,6,0,B|116:52|88:112|88:112|168:148|160:224|160:224|80:288|4:216|48:152,1,450
160,224,21474,2,0,P|184:272|180:308,1,90,2|8,0:0|0:0,0:0:0:0:
96,384,21966,2,0,B|120:324|180:308|180:308|340:308,1,270,0|8,0:0|0:0,0:0:0:0:
476,376,22950,2,0,B|396:376|396:376|348:372|332:308,1,180,2|2,0:0|0:0,0:0:0:0:
368,192,23687,1,8,0:0:0:0:
472,120,23933,6,0,P|504:192|476:252,1,135.000005149842,0|0,3:0|0:0,0:0:0:0:
420,300,24671,1,2,0:0:0:0:
340,260,24917,1,2,0:0:0:0:
336,172,25163,1,2,0:0:0:0:
404,116,25409,1,8,0:0:0:0:
336,172,25654,1,8,0:0:0:0:
248,176,25900,6,0,P|180:140|160:72,1,135.000005149842,0|2,0:0|0:0,0:0:0:0:
284,40,26638,2,0,P|268:80|244:96,1,67.5000025749208,0|2,0:0|0:0,0:0:0:0:
160,88,27130,1,0,0:0:0:0:
100,24,27376,1,8,0:0:0:0:
188,16,27621,1,8,0:0:0:0:
100,208,27867,6,0,P|104:132|60:84,1,135.000005149842,0|2,0:0|0:0,0:0:0:0:
144,44,28605,2,0,L|212:44,1,67.5000025749208,0|2,0:0|0:0,0:0:0:0:
296,76,29097,1,0,0:0:0:0:
304,164,29343,1,8,0:0:0:0:
220,140,29589,1,8,0:0:0:0:
384,108,29834,6,0,P|400:172|360:236,1,135.000005149842,0|2,0:0|0:0,0:0:0:0:
280,244,30572,1,0,0:0:0:0:
200,208,30818,1,2,0:0:0:0:
204,120,31064,1,0,0:0:0:0:
292,104,31310,1,8,0:0:0:0:
340,176,31556,1,8,0:0:0:0:
200,208,31801,6,0,L|60:208,1,135.000005149842
0,140,32539,2,2,L|76:140,1,67.5000025749208
156,140,33031,1,2,0:0:0:0:
156,140,33277,1,0,0:0:0:0:
332,224,33769,6,0,B|328:268|300:292|300:292|300:372,1,135.000005149842,0|2,0:0|0:0,0:0:0:0:
212,349,34506,2,0,B|212:292|212:292|184:268|180:224,1,135.000005149842,0|2,0:0|0:0,0:0:0:0:
256,176,35244,1,2,0:0:0:0:
332,224,35490,1,8,0:0:0:0:
248,252,35736,6,0,P|176:200|216:108,1,202.500007724762,0|8,0:0|0:0,0:0:0:0:
268,176,36719,2,0,L|120:176,1,135.000005149842,0|8,0:0|0:0,0:0:0:0:
56,216,37457,1,8,0:0:0:0:
48,304,37703,2,0,P|136:272|132:176,1,202.500007724762,0|8,0:0|0:0,0:0:0:0:
56,24,38686,2,0,P|36:80|84:132,1,135.000005149842,0|8,0:0|0:0,0:0:0:0:
172,104,39424,1,8,0:0:0:0:
288,32,39670,6,0,B|320:48|340:76|340:76|404:92,1,135.000005149842,0|2,3:0|0:0,0:0:0:0:
468,152,40407,1,8,0:0:0:0:
488,68,40653,1,0,0:0:0:0:
376,160,40899,2,0,L|344:232,1,67.5000025749208,0|8,0:0|0:0,0:0:0:0:
352,308,41391,1,8,0:0:0:0:
432,280,41637,2,0,P|376:220|300:236,1,135.000005149842,0|2,0:0|0:0,0:0:0:0:
320,368,42374,2,0,L|352:308,1,67.5000025749208,0|2,0:0|0:0,0:0:0:0:
256,192,42866,2,0,B|228:248|228:248|172:260|172:312,1,135.000005149842,0|8,0:0|0:0,0:0:0:0:
252,332,43604,5,0,0:0:0:0:
308,264,43850,1,0,0:0:0:0:
256,192,44096,1,2,0:0:0:0:
204,124,44341,1,2,0:0:0:0:
256,52,44587,1,2,0:0:0:0:
312,120,44833,1,0,0:0:0:0:
204,264,45079,1,8,0:0:0:0:
156,192,45325,1,8,0:0:0:0:
256,52,45571,6,0,L|392:52,1,135.000005149842,0|2,0:0|0:0,0:0:0:0:
468,76,46308,2,0,P|480:124|464:164,1,67.5000025749208,0|2,0:0|0:0,0:0:0:0:
456,220,46800,2,0,P|420:200|408:172,2,67.5000025749208,0|8|8,0:0|0:0|0:0,0:0:0:0:
368,120,47538,6,0,L|228:120,1,135.000005149842,0|2,0:0|0:0,0:0:0:0:
128,192,48276,2,0,L|204:192,1,67.5000025749208,0|2,0:0|0:0,0:0:0:0:
384,192,48767,2,8,L|308:192,1,67.5000025749208,0|8,0:0|0:0,0:0:0:0:
196,192,49259,1,8,0:0:0:0:
384,192,49505,2,0,P|416:248|380:304,1,135.000005149842,0|2,0:0|0:0,0:0:0:0:
196,304,50243,2,0,L|128:304,1,67.5000025749208,0|2,0:0|0:0,0:0:0:0:
316,304,50734,2,0,L|384:304,2,67.5000025749208,0|8|8,0:0|0:0|0:0,0:0:0:0:
256,356,51472,5,0,0:0:0:0:
256,356,51718,1,0,0:0:0:0:
140,120,52210,1,2,0:0:0:0:
140,120,52455,2,0,P|144:184|92:224,1,135.000005149842,0|8,0:0|0:0,0:0:0:0:
48,148,53193,1,8,0:0:0:0:
88,68,53439,6,0,P|120:36|208:36,1,135.000005149842,0|2,0:0|0:0,0:0:0:0:
284,76,54177,2,0,L|372:76,1,67.5000025749208,8|0,0:0|0:0,0:0:0:0:
424,128,54668,1,0,0:0:0:0:
384,204,54914,1,8,0:0:0:0:
384,204,55037,1,8,0:0:0:0:
384,204,55160,1,8,0:0:0:0:
444,268,55406,1,8,0:0:0:0:
444,268,55529,1,8,0:0:0:0:
444,268,55652,6,0,P|404:316|360:328,1,90,4|2,3:0|0:0,0:0:0:0:
264,348,56144,2,0,P|284:300|328:276,1,90,0|2,0:0|0:0,0:0:0:0:
316,164,56635,2,0,L|256:84,1,90,0|2,0:0|0:0,0:0:0:0:
344,8,57127,2,0,L|404:84,1,90,0|2,0:0|0:0,0:0:0:0:
384,196,57619,6,2,P|340:232|284:240,1,90,0|2,0:0|0:0,0:0:0:0:
251,319,58111,2,0,P|221:287|207:244,1,90,0|2,0:0|0:0,0:0:0:0:
128,187,58603,2,0,P|160:157|203:143,1,90,0|2,0:0|0:0,0:0:0:0:
260,64,59094,2,0,P|290:96|304:139,1,90,8|2,0:0|0:0,0:0:0:0:
236,236,59586,6,0,L|146:236,1,90,0|2,0:0|0:0,0:0:0:0:
8,144,60078,2,0,L|104:144,1,90,0|2,0:0|0:0,0:0:0:0:
92,328,60570,2,0,P|64:268|80:212,1,90,0|2,0:0|0:0,0:0:0:0:
156,56,61061,2,0,P|184:116|168:172,1,90,8|2,0:0|0:0,0:0:0:0:
208,252,61553,6,0,L|316:252,1,90,0|2,0:0|0:0,0:0:0:0:
392,184,62045,2,0,B|424:236|424:236|432:280,1,90,0|2,0:0|0:0,0:0:0:0:
472,156,62537,2,0,B|440:104|440:104|432:60,1,90,0|2,0:0|0:0,0:0:0:0:
392,184,63028,2,0,L|300:184,1,90,8|2,0:0|0:0,0:0:0:0:
184,184,63520,5,0,0:0:0:0:
152,72,63766,1,0,0:0:0:0:
248,140,64012,1,2,0:0:0:0:
128,140,64258,1,2,0:0:0:0:
224,72,64504,1,0,0:0:0:0:
116,208,64750,1,8,0:0:0:0:
8,72,64995,1,8,0:0:0:0:
224,72,65241,6,0,B|288:64|316:116|316:116|384:148,1,180,0|2,0:0|0:0,0:0:0:0:
432,252,65979,2,0,L|344:212,1,90,0|2,0:0|0:0,0:0:0:0:
236,160,66471,1,0,0:0:0:0:
256,276,66717,1,8,0:0:0:0:
344,200,66963,1,8,0:0:0:0:
236,160,67208,1,8,0:0:0:0:
144,240,67454,6,0,P|172:288|172:324,1,90,0|2,0:0|0:0,0:0:0:0:
72,244,67946,2,0,P|56:188|64:148,1,90,0|2,0:0|0:0,0:0:0:0:
112,52,68438,1,0,0:0:0:0:
0,96,68684,1,8,0:0:0:0:
140,192,68930,1,8,0:0:0:0:
252,148,69175,6,0,B|300:148|328:116|328:116|380:80|428:108,1,180,0|2,0:0|0:0,0:0:0:0:
440,236,69913,2,0,P|396:200|384:168,1,90,0|2,0:0|0:0,0:0:0:0:
500,148,70405,1,0,0:0:0:0:
376,348,70897,1,8,0:0:0:0:
320,244,71142,6,0,P|396:244|456:324,1,180,0|2,0:0|0:0,0:0:0:0:
340,344,71880,2,0,L|244:344,1,90,0|2,0:0|0:0,0:0:0:0:
140,304,72372,2,0,P|160:360|148:392,2,90,0|8|8,0:0|0:0|0:0,0:0:0:0:
64,216,73110,2,0,P|52:152|72:40,1,180,0|2,0:0|0:0,0:0:0:0:
148,132,73847,2,0,P|180:172|244:196,1,90,0|2,0:0|0:0,0:0:0:0:
328,220,74339,2,0,P|366:242|393:278,2,90,0|8|8,0:0|0:0|0:0,0:0:0:0:
256,312,75077,1,0,0:0:0:0:
184,220,75322,5,0,0:0:0:0:
184,220,75445,1,2,0:0:0:0:
256,128,75691,1,0,0:0:0:0:
256,128,75814,1,2,0:0:0:0:
328,220,76060,1,0,0:0:0:0:
328,220,76183,1,2,0:0:0:0:
256,312,76429,1,0,0:0:0:0:
256,312,76552,1,2,0:0:0:0:
256,196,76798,1,0,0:0:0:0:
256,240,77044,1,0,0:0:0:0:
256,72,77781,5,2,0:0:0:0:
144,192,78027,1,0,0:0:0:0:
256,360,78273,1,0,0:0:0:0:
104,288,78519,2,0,L|196:288,1,90,0|8,0:0|0:0,0:0:0:0:
312,288,79011,1,8,3:0:0:0:
312,288,79134,1,8,3:0:0:0:
312,288,79257,6,0,P|360:248|360:208,1,90,4|2,0:0|0:0,0:0:0:0:
404,72,79748,2,0,P|372:120|368:160,1,90,0|2,0:0|0:0,0:0:0:0:
480,112,80240,2,0,P|484:36|472:-4,1,90,0|2,0:0|0:0,0:0:0:0:
364,40,80732,1,8,0:0:0:0:
248,24,80978,2,0,B|196:28|156:8|156:8|112:52|120:88,1,180,0|2,0:0|0:0,0:0:0:0:
140,244,81715,2,0,P|176:176|168:144,1,90,8|2,0:0|0:0,0:0:0:0:
56,164,82207,1,0,0:0:0:0:
40,280,82453,1,2,0:0:0:0:
56,308,82576,1,2,0:0:0:0:
88,316,82699,1,2,0:0:0:0:
200,344,82945,1,2,0:0:0:0:
232,336,83068,1,2,0:0:0:0:
256,312,83191,6,0,L|256:220,1,90,4|2,3:0|0:0,0:0:0:0:
144,48,83682,2,0,P|168:108|204:128,1,90,0|2,0:0|0:0,0:0:0:0:
324,121,84174,2,0,P|357:91|368:48,1,90,0|2,0:0|0:0,0:0:0:0:
256,80,84666,1,8,0:0:0:0:
176,200,84912,2,0,P|256:236|336:200,1,180,0|2,0:0|0:0,0:0:0:0:
248,120,85649,2,0,P|192:100|140:112,1,90,8|0,0:0|0:0,0:0:0:0:
84,208,86141,2,0,P|100:264|132:296,2,90,2|8|8,0:0|0:0|0:0,0:0:0:0:
200,208,86879,1,0,0:0:0:0:
248,316,87125,6,0,P|192:352|60:344,1,180,0|8,0:0|0:0,0:0:0:0:
300,272,88108,1,0,0:0:0:0:
400,336,88354,2,0,L|416:240,1,90,8|8,0:0|0:0,0:0:0:0:
488,156,88846,2,0,P|436:88|332:96,1,180,0|2,0:0|0:0,0:0:0:0:
388,196,89584,1,8,0:0:0:0:
208,44,90075,5,0,0:0:0:0:
268,144,90321,1,8,0:0:0:0:
152,136,90567,1,8,0:0:0:0:
68,52,90813,2,0,P|112:124|92:240,1,180,0|2,0:0|0:0,0:0:0:0:
84,332,91551,2,0,P|36:288|32:248,1,90,0|2,0:0|0:0,0:0:0:0:
148,248,92042,1,0,0:0:0:0:
196,356,92288,1,8,0:0:0:0:
80,356,92534,1,8,0:0:0:0:
16,256,92780,6,0,B|-8:184|24:144|24:144|80:104,1,180,0|2,0:0|0:0,0:0:0:0:
284,40,93518,2,0,B|260:60|260:60|252:84|252:84|212:116,1,90,0|2,0:0|0:0,0:0:0:0:
136,176,94009,1,0,0:0:0:0:
236,236,94255,1,8,0:0:0:0:
236,236,94378,1,8,0:0:0:0:
236,236,94501,1,8,0:0:0:0:
340,184,94747,1,8,0:0:0:0:
340,184,94870,1,8,0:0:0:0:
340,184,94993,6,0,P|356:120|344:92,1,90,4|2,3:0|0:0,0:0:0:0:
444,32,95485,2,0,P|456:84|488:116,1,90,0|2,0:0|0:0,0:0:0:0:
504,224,95977,2,0,P|482:271|448:296,1,90,0|8,0:0|0:0,0:0:0:0:
344,348,96468,1,8,0:0:0:0:
460,368,96714,2,0,P|420:280|336:256,1,180
248,320,97452,1,8,0:0:0:0:
268,204,97698,1,8,0:0:0:0:
152,228,97944,2,0,P|92:240|28:204,1,135
29,205,98435,2,0,L|16:104,1,90,8|0,0:0|0:0,0:0:0:0:
196,40,98927,5,0,0:0:0:0:
160,152,99173,1,2,0:0:0:0:
256,84,99419,1,0,0:0:0:0:
140,84,99665,1,2,0:0:0:0:
236,152,99911,1,0,0:0:0:0:
244,268,100157,1,8,0:0:0:0:
244,268,100279,1,8,0:0:0:0:
244,268,100402,1,8,0:0:0:0:
164,352,100648,6,0,P|116:316|104:196,1,180,0|2,0:0|0:0,0:0:0:0:
192,40,101386,2,0,P|196:104|168:132,1,90,0|2,0:0|0:0,0:0:0:0:
68,140,101878,1,0,0:0:0:0:
88,24,102124,1,8,0:0:0:0:
172,108,102369,2,0,P|256:128|292:120,1,90,8|0,0:0|0:0,0:0:0:0:
352,60,102861,6,0,P|400:104|424:168,1,135,0|2,0:0|0:0,0:0:0:0:
416,204,103353,1,8,0:0:0:0:
332,288,103599,1,0,0:0:0:0:
216,176,103845,2,0,L|316:176,1,90
416,204,104336,1,8,0:0:0:0:
332,288,104582,2,0,P|284:228|280:128,1,180
344,32,105320,1,8,0:0:0:0:
108,192,105812,5,0,0:0:0:0:
108,192,106058,2,0,P|56:152|40:124,1,90,8|8,0:0|0:0,0:0:0:0:
160,144,106549,2,0,P|180:204|108:292,1,180,0|2,0:0|0:0,0:0:0:0:
224,332,107287,2,0,L|324:352,1,90,0|2,0:0|0:0,0:0:0:0:
300,248,107779,2,0,L|400:268,1,90,0|2,0:0|0:0,0:0:0:0:
380,164,108271,2,0,L|480:184,1,90,0|2,0:0|0:0,0:0:0:0:
464,64,108762,5,0,0:0:0:0:
400,0,109008,1,0,0:0:0:0:
356,108,109254,5,0,0:0:0:0:
328,4,109500,1,0,0:0:0:0:
256,140,109746,5,0,0:0:0:0:
256,4,109992,1,2,0:0:0:0:
156,108,110238,21,2,0:0:0:0:
184,4,110484,1,2,0:0:0:0:
48,64,110729,21,0,0:0:0:0:
112,0,110975,1,0,0:0:0:0:
156,108,111221,21,2,0:0:0:0:
252,204,111467,1,0,0:0:0:0:
356,108,111713,1,0,0:0:0:0:
252,204,111959,1,2,0:0:0:0:
76,360,112451,5,2,0:0:0:0:
328,264,112942,5,0,0:0:0:0:
192,264,113188,1,2,0:0:0:0:
324,236,113434,5,0,0:0:0:0:
200,292,113680,1,2,0:0:0:0:
308,208,113926,5,0,0:0:0:0:
224,316,114172,1,2,0:0:0:0:
276,192,114418,5,0,0:0:0:0:
256,324,114664,1,2,0:0:0:0:
240,192,114909,5,0,0:0:0:0:
292,316,115155,1,2,0:0:0:0:
208,212,115401,5,0,0:0:0:0:
316,292,115647,1,2,0:0:0:0:
192,240,115893,5,0,0:0:0:0:
460,192,116385,5,0,0:0:0:0:
236,48,116876,5,0,0:0:0:0:
156,136,117122,1,2,0:0:0:0:
324,216,117368,5,0,0:0:0:0:
236,136,117614,1,0,0:0:0:0:
160,308,117860,21,0,0:0:0:0:
236,216,118106,1,2,0:0:0:0:
68,136,118352,5,0,0:0:0:0:
156,216,118598,1,0,0:0:0:0:
236,48,118843,5,0,0:0:0:0:
68,136,119089,1,2,0:0:0:0:
160,308,119335,1,2,0:0:0:0:
324,216,119581,1,2,0:0:0:0:
196,176,119827,5,2,0:0:0:0:
432,176,120319,6,0,P|464:260|388:304,1,180
324,216,121056,1,8,0:0:0:0:
256,152,128187,5,0,0:0:0:0:
124,268,128679,1,0,0:0:0:0:
192,212,128925,1,2,0:0:0:0:
200,300,129171,1,0,0:0:0:0:
112,184,129416,2,0,P|92:120|140:56,1,135.000005149842,0|8,0:0|0:0,0:0:0:0:
288,168,130154,2,0,P|232:176|168:132,1,135.000005149842
248,92,130892,1,8,0:0:0:0:
288,168,131138,1,8,0:0:0:0:
232,280,131383,2,0,B|268:248|268:248|324:256|356:212,1,135.000005149842,0|8,0:0|0:0,0:0:0:0:
372,136,132121,5,0,0:0:0:0:
204,88,132613,1,0,0:0:0:0:
276,140,132859,1,2,0:0:0:0:
192,168,133105,1,2,0:0:0:0:
120,116,133351,2,0,B|108:164|108:164|120:204|120:204|108:256,1,135.000005149842,0|8,0:0|0:0,0:0:0:0:
56,312,134088,5,0,0:0:0:0:
228,288,134580,1,0,0:0:0:0:
300,340,134826,1,8,0:0:0:0:
384,320,135072,1,8,0:0:0:0:
460,276,135318,2,0,P|460:184|436:140,1,135.000005149842,0|8,0:0|0:0,0:0:0:0:
336,48,136055,2,0,P|336:140|360:184,1,135.000005149842
404,104,136793,1,8,0:0:0:0:
272,12,137039,2,0,L|196:8,2,67.5000025749208
320,252,138022,6,0,P|256:272|192:252,1,135.000005149842
192,132,138760,2,0,P|256:112|320:132,1,135.000005149842,8|0,0:0|0:0,0:0:0:0:
256,192,139498,1,8,0:0:0:0:
256,192,139743,1,8,0:0:0:0:
96,192,139989,6,2,L|56:192,2,33.7500012874604
136,312,140481,2,2,L|104:344,2,33.7500012874604
256,352,140973,2,2,L|256:388,5,33.7500012874604
376,312,141956,2,2,L|408:344,2,33.7500012874604
416,192,142448,2,2,L|456:192,2,33.7500012874604
308,144,142940,1,2,0:0:0:0:
308,144,143063,1,2,0:0:0:0:
308,144,143186,1,2,0:0:0:0:
152,220,143555,1,2,0:0:0:0:
316,264,143923,1,2,0:0:0:0:
316,264,144046,1,2,0:0:0:0:
316,264,144169,6,0,P|300:320|272:356,1,90,4|0,3:0|0:0,0:0:0:0:
232,240,144661,2,0,P|248:176|272:140,1,90,8|0,0:0|0:0,0:0:0:0:
312,52,145153,2,0,P|252:40|220:24,1,90
40,108,145645,2,0,B|88:132|140:104|140:104|168:124|228:140,1,180,8|0,0:0|0:0,0:0:0:0:
316,180,146382,1,0,0:0:0:0:
240,268,146628,1,8,0:0:0:0:
144,200,146874,1,0,0:0:0:0:
220,112,147120,2,0,P|284:76|352:76,1,135
380,16,147612,2,0,P|388:68|412:112,1,90,2|0,0:0|0:0,0:0:0:0:
464,284,148103,6,0,P|492:224|480:168,1,90
336,192,148595,2,0,P|384:220|424:224,1,90,8|0,0:0|0:0,0:0:0:0:
424,108,149087,1,0,0:0:0:0:
324,48,149333,1,8,0:0:0:0:
324,48,149456,1,8,0:0:0:0:
324,48,149579,1,8,0:0:0:0:
260,144,149825,6,0,P|196:132|132:64,1,135,0|2,0:0|0:0,0:0:0:0:
120,16,150316,2,0,P|71:72|67:108,1,90,0|8,0:0|0:0,0:0:0:0:
116,192,150808,1,0,0:0:0:0:
224,148,151054,1,2,0:0:0:0:
152,312,151300,1,2,0:0:0:0:
40,344,151546,2,2,L|16:388,3,45
48,332,152037,6,0,B|80:280|80:280|124:216|196:244,1,180,0|8,0:0|0:0,0:0:0:0:
248,336,152775,1,0,0:0:0:0:
184,236,153021,2,0,P|176:176|196:136,1,90
192,140,153390,1,8,0:0:0:0:
200,132,153513,1,8,0:0:0:0:
384,128,153759,2,0,P|344:164|304:168,1,90,0|2,0:0|0:0,0:0:0:0:
256,24,154250,2,0,P|296:60|308:100,1,90,0|8,0:0|0:0,0:0:0:0:
196,136,154742,1,0,0:0:0:0:
80,128,154988,2,0,B|28:104|24:56|24:56|48:20,2,135,2|0|2,0:0|0:0|0:0,0:0:0:0:
168,204,155972,5,0,0:0:0:0:
52,212,156217,1,0,0:0:0:0:
168,232,156463,1,8,0:0:0:0:
236,328,156709,1,0,0:0:0:0:
192,220,156955,1,0,0:0:0:0:
252,120,157201,1,8,0:0:0:0:
168,204,157447,1,8,0:0:0:0:
4,140,157693,6,0,P|36:88|152:60,1,180,0|2,0:0|0:0,0:0:0:0:
136,232,158430,2,0,P|108:176|108:136,1,90,0|2,0:0|0:0,0:0:0:0:
224,148,158922,1,0,0:0:0:0:
420,276,159414,1,8,0:0:0:0:
332,352,159660,2,0,P|308:272|352:172,1,180,0|0,0:0|0:0,0:0:0:0:
432,108,160397,2,0,P|440:48|416:16,2,90,2|0|2,0:0|0:0|0:0,0:0:0:0:
316,128,161135,6,0,L|132:84,1,180
76,312,162119,2,0,P|96:368|132:388,2,90,0|2|2,0:0|0:0|0:0,0:0:0:0:
160,232,162856,1,2,0:0:0:0:
276,212,163102,2,0,P|252:288|164:320,1,180
48,188,163840,6,0,L|24:140,1,45,0|2,0:0|0:0,0:0:0:0:
180,56,164332,2,0,L|200:96,1,45,0|2,0:0|0:0,0:0:0:0:
308,140,164700,2,0,L|356:140,1,45,0|2,0:0|0:0,0:0:0:0:
436,220,165069,1,0,0:0:0:0:
332,276,165315,1,2,0:0:0:0:
244,200,165561,1,2,0:0:0:0:
480,40,166053,1,2,0:0:0:0:
168,152,166790,1,0,0:0:0:0:
284,356,167282,1,8,3:0:0:0:
284,356,167405,1,8,3:0:0:0:
284,356,167528,1,8,3:0:0:0:
172,328,167774,6,0,P|136:272|136:232,1,90,4|0,0:0|0:0,0:0:0:0:
236,196,168266,1,8,0:0:0:0:
352,204,168512,2,0,P|368:156|360:112,2,90,0|0|2,0:0|0:0|0:0,0:0:0:0:
260,276,169249,1,8,0:0:0:0:
172,200,169495,2,0,P|136:144|144:64,1,135,0|2,0:0|0:0,0:0:0:0:
138,77,169987,2,0,L|48:76,1,90,0|8,0:0|0:0,0:0:0:0:
232,116,170479,1,0,0:0:0:0:
320,40,170724,1,0,0:0:0:0:
408,120,170970,1,8,0:0:0:0:
408,120,171093,1,8,0:0:0:0:
408,120,171216,1,8,0:0:0:0:
428,236,171462,1,8,0:0:0:0:
424,252,171585,1,8,0:0:0:0:
416,268,171708,6,0,B|396:288|396:288|340:312,1,90,0|0,3:0|0:0,0:0:0:0:
224,288,172200,2,0,L|304:248,1,90,8|0,0:0|0:0,0:0:0:0:
328,96,172692,2,0,P|340:148|336:188,1,90,2|2,0:0|0:0,0:0:0:0:
228,144,173183,1,8,0:0:0:0:
116,108,173429,2,0,P|144:64|196:56,1,90
228,144,173921,2,0,L|204:236,1,90,0|8,0:0|0:0,0:0:0:0:
116,308,174413,1,0,0:0:0:0:
36,224,174659,2,0,L|12:124,2,90,2|8|8,0:0|0:0|0:0,0:0:0:0:
116,308,175396,1,0,0:0:0:0:
228,340,175642,6,0,L|368:344,1,135,0|2,0:0|0:0,0:0:0:0:
396,344,176134,1,8,0:0:0:0:
464,248,176380,2,0,P|432:184|448:128,1,90
468,56,176872,1,8,0:0:0:0:
468,56,176994,1,8,0:0:0:0:
468,56,177117,1,8,0:0:0:0:
364,112,177363,2,0,B|296:124|256:84|256:84|192:132,1,180,0|2,0:0|0:0,0:0:0:0:
64,136,178101,2,0,B|96:64|164:64|164:64|212:32,1,180
324,36,178839,1,8,0:0:0:0:
340,152,179084,1,8,0:0:0:0:
260,236,179330,6,0,P|160:212|172:124,1,180
248,144,180068,2,0,L|136:288,1,180,8|0,0:0|0:0,0:0:0:0:
56,368,180806,1,8,0:0:0:0:
36,252,181052,1,8,0:0:0:0:
140,308,181297,6,0,B|176:344|224:336|224:336|288:316|320:328,1,180,2|2,0:0|0:0,0:0:0:0:
432,360,182281,1,2,0:0:0:0:
372,156,182773,1,2,0:0:0:0:
512,48,183019,1,2,0:0:0:0:
512,224,183264,1,2,0:0:0:0:
312,212,183510,6,0,B|276:152|312:100|312:100|312:40,1,180,4|8,0:0|0:0,0:0:0:0:
372,156,184248,2,0,P|392:208|384:248,1,90
260,348,184740,1,8,0:0:0:0:
260,348,184863,1,8,0:0:0:0:
260,348,184986,1,8,0:0:0:0:
156,296,185231,2,0,P|112:252|104:132,1,180,0|2,0:0|0:0,0:0:0:0:
208,192,185969,2,0,P|256:208|300:200,1,90,8|0,0:0|0:0,0:0:0:0:
180,88,186461,2,0,P|124:60|44:72,1,135,0|2,0:0|0:0,0:0:0:0:
53,67,186953,2,0,L|20:160,1,90,8|0,0:0|0:0,0:0:0:0:
84,252,187444,5,0,0:0:0:0:
196,216,187690,1,0,0:0:0:0:
272,308,187936,2,0,P|312:264|316:224,2,90,8|0|0,0:0|0:0|0:0,0:0:0:0:
168,364,188674,2,0,P|104:384|8:320,1,180,8|0,0:0|0:0,0:0:0:0:
184,168,189657,2,0,P|180:120|144:88,2,90,0|8|0,0:0|0:0|0:0,0:0:0:0:
68,172,190395,1,0,0:0:0:0:
72,56,190641,1,8,0:0:0:0:
184,88,190887,1,8,0:0:0:0:
292,48,191133,6,0,L|416:48,1,90
368,280,191870,1,8,0:0:0:0:
368,280,192116,2,0,P|424:268|444:232,2,90,0|2|2,0:0|0:0|0:0,0:0:0:0:
184,136,193100,2,0,P|128:204|180:288,1,180,0|2,0:0|0:0,0:0:0:0:
260,216,193837,1,8,0:0:0:0:
436,64,194329,1,0,0:0:0:0:
380,168,194575,2,0,P|420:216|476:216,1,90,8|8,0:0|0:0,0:0:0:0:
476,108,195067,6,0,P|392:76|300:84,1,180,0|2,0:0|0:0,0:0:0:0:
204,144,195804,2,0,L|112:144,1,90,0|2,0:0|0:0,0:0:0:0:
48,240,196296,2,0,P|75:274|77:318,1,90,0|2,0:0|0:0,0:0:0:0:
188,360,196788,2,0,P|215:325|217:281,1,90,0|2,0:0|0:0,0:0:0:0:
140,192,197280,5,0,0:0:0:0:
240,136,197526,1,0,0:0:0:0:
232,252,197771,1,8,0:0:0:0:
136,80,198017,2,0,L|232:28,1,90
348,68,198509,1,8,0:0:0:0:
348,184,198755,1,8,0:0:0:0:
184,132,199001,6,0,L|288:132,1,90
392,128,199493,1,8,0:0:0:0:
340,232,199739,1,8,0:0:0:0:
276,132,199984,1,0,0:0:0:0:
464,232,200230,2,0,L|416:312,1,90,0|8,0:0|0:0,0:0:0:0:
184,340,200968,1,8,0:0:0:0:
88,128,201460,5,0,0:0:0:0:
152,228,201706,1,8,0:0:0:0:
36,232,201951,1,2,0:0:0:0:
20,88,202197,2,0,P|60:52|104:52,1,90
184,128,202689,1,8,0:0:0:0:
236,260,202935,6,0,P|184:248|152:228,1,90,2|0,0:0|0:0,0:0:0:0:
60,156,203427,1,0,0:0:0:0:
144,72,203673,1,8,0:0:0:0:
252,120,203918,1,2,0:0:0:0:
184,272,204164,2,0,L|164:180,1,90
348,36,204902,1,0,0:0:0:0:
364,268,205394,5,0,0:0:0:0:
256,332,205640,1,8,0:0:0:0:
256,204,205886,1,2,0:0:0:0:
352,288,206131,5,0,0:0:0:0:
228,320,206377,1,2,0:0:0:0:
284,208,206623,1,8,0:0:0:0:
348,316,206869,5,2,0:0:0:0:
224,292,207115,1,0,0:0:0:0:
308,196,207361,1,2,0:0:0:0:
316,320,207607,5,8,0:0:0:0:
204,264,207853,1,2,0:0:0:0:
324,224,208098,1,0,0:0:0:0:
292,344,208344,5,0,0:0:0:0:
148,136,208836,1,0,0:0:0:0:
148,136,209082,6,0,P|216:108|232:72,1,90,0|2,0:0|0:0,0:0:0:0:
444,28,209820,2,0,L|244:28,1,180,0|2,0:0|0:0,0:0:0:0:
148,44,210557,1,8,0:0:0:0:
148,44,210803,1,8,0:0:0:0:
56,116,211049,6,0,P|72:168|60:220,1,90
152,348,211787,2,0,P|208:288|204:192,1,180
100,244,212524,1,8,0:0:0:0:
208,288,212770,1,8,0:0:0:0:
296,212,213016,6,0,L|380:152,1,90,0|2,0:0|0:0,0:0:0:0:
184,16,213754,1,0,0:0:0:0:
160,44,214246,1,0,0:0:0:0:
136,72,214737,1,0,0:0:0:0:
52,152,214983,6,2,P|56:200|80:236,2,90
168,164,215721,1,0,0:0:0:0:
184,164,215844,1,0,0:0:0:0:
204,164,215967,1,0,0:0:0:0:
224,164,216090,1,0,0:0:0:0:
240,164,216213,1,0,0:0:0:0:
332,216,216458,1,8,0:0:0:0:
252,276,216704,1,0,0:0:0:0:
168,164,216950,6,2,P|152:104|172:72,2,90
268,104,217688,1,0,0:0:0:0:
284,96,217811,1,0,0:0:0:0:
300,88,217934,1,0,0:0:0:0:
316,80,218057,1,0,0:0:0:0:
332,72,218180,1,0,0:0:0:0:
448,52,218425,1,8,0:0:0:0:
416,164,218671,1,0,0:0:0:0:
432,280,218917,6,2,P|476:264|504:228,2,90
324,232,219655,1,0,0:0:0:0:
308,224,219778,1,0,0:0:0:0:
292,220,219901,1,0,0:0:0:0:
276,220,220024,1,0,0:0:0:0:
260,224,220147,1,0,0:0:0:0:
160,288,220393,1,8,0:0:0:0:
280,312,220638,1,0,0:0:0:0:
168,164,220884,6,2,L|112:92,2,90
260,224,221622,1,0,0:0:0:0:
272,212,221745,1,0,0:0:0:0:
276,196,221868,1,0,0:0:0:0:
276,180,221991,1,0,0:0:0:0:
272,164,222114,1,0,0:0:0:0:
196,76,222360,2,0,P|248:52|288:48,1,90,8|0,0:0|0:0,0:0:0:0:
380,108,222851,5,0,0:0:0:0:
380,108,222974,1,2,0:0:0:0:
462,192,223220,1,0,0:0:0:0:
462,192,223343,1,2,0:0:0:0:
380,276,223589,1,0,0:0:0:0:
380,276,223712,1,2,0:0:0:0:
298,192,223958,1,0,0:0:0:0:
298,192,224081,1,2,0:0:0:0:
381,192,224327,1,0,0:0:0:0:
204,192,224573,1,6,0:0:0:0:
164,192,225064,5,6,0:0:0:0:
124,192,225556,1,6,0:0:0:0:
84,192,226048,1,0,0:0:0:0:
48,304,226294,1,0,3:0:0:0:
48,304,226417,1,0,3:0:0:0:
48,304,226540,1,0,3:0:0:0:
48,304,226663,1,0,3:0:0:0:
48,304,226785,6,0,P|88:252|80:212,1,90,4|2,0:0|0:0,0:0:0:0:
60,56,227277,2,0,P|52:104|64:144,1,90,0|2,0:0|0:0,0:0:0:0:
172,96,227769,1,0,0:0:0:0:
120,200,228015,1,8,0:0:0:0:
232,168,228261,1,8,0:0:0:0:
324,208,228507,2,0,B|340:268|316:316|316:316|240:352,1,180,0|2,0:0|0:0,0:0:0:0:
140,316,229244,2,0,L|224:280,1,90,0|2,0:0|0:0,0:0:0:0:
284,180,229736,2,0,P|232:144|232:64,1,135,0|2,0:0|0:0,0:0:0:0:
260,28,230228,2,0,L|160:28,1,90,8|0,0:0|0:0,0:0:0:0:
60,144,230720,5,0,0:0:0:0:
76,260,230965,2,0,L|164:300,1,90,2|0,0:0|0:0,0:0:0:0:
272,324,231457,2,0,P|248:260|260:224,1,90,2|0,0:0|0:0,0:0:0:0:
400,204,231949,2,0,P|380:244|336:260,1,90,2|8,0:0|0:0,0:0:0:0:
300,148,232441,2,0,L|300:48,1,90
416,68,232933,1,2,0:0:0:0:
472,172,233178,1,8,0:0:0:0:
356,156,233424,1,0,0:0:0:0:
484,88,233670,2,0,P|480:36|448:8,2,90,0|8|8,0:0|0:0|0:0,0:0:0:0:
356,156,234408,1,0,0:0:0:0:
256,92,234654,6,0,B|208:56|148:92|148:92|80:92,1,180,0|8,0:0|0:0,0:0:0:0:
140,212,235391,2,0,P|188:188|204:132,1,90
140,60,235883,1,8,0:0:0:0:
20,260,236375,2,0,P|24:336|136:364,1,180
212,316,237112,1,8,0:0:0:0:
328,324,237358,2,0,P|380:344|400:376,2,90,0|0|8,0:0|0:0|0:0,0:0:0:0:
132,196,238342,6,0,P|192:128|208:40,1,180
96,80,239080,1,8,0:0:0:0:
60,192,239325,2,0,P|76:240|128:264,2,90,0|0|8,0:0|0:0|0:0,0:0:0:0:
288,128,240309,2,0,L|468:128,1,180,2|0,0:0|0:0,0:0:0:0:
472,244,241047,2,0,P|440:288|428:336,1,90,2|0,0:0|0:0,0:0:0:0:
316,352,241538,2,0,P|348:308|360:260,1,90,2|0,0:0|0:0,0:0:0:0:
284,184,242030,1,8,0:0:0:0:
204,360,242276,1,0,3:0:0:0:
204,360,242399,1,0,3:0:0:0:
204,360,242522,6,0,P|156:316|168:208,1,180,4|8,0:0|0:0,0:0:0:0:
116,52,243260,2,0,P|116:104|92:136,1,90
0,64,243751,1,8,0:0:0:0:
108,24,243997,1,8,0:0:0:0:
220,64,244243,2,0,B|288:64|340:40|340:40|416:40,1,180,0|2,0:0|0:0,0:0:0:0:
492,112,244981,2,0,P|488:168|460:196,1,90,0|2,0:0|0:0,0:0:0:0:
392,320,245472,2,0,P|360:248|368:156,1,135,0|2,0:0|0:0,0:0:0:0:
392,140,245964,2,0,L|296:140,1,90,8|0,0:0|0:0,0:0:0:0:
160,188,246456,5,0,0:0:0:0:
264,240,246702,1,2,0:0:0:0:
164,304,246948,1,8,0:0:0:0:
248,140,247194,2,0,L|168:84,1,90,2|0,0:0|0:0,0:0:0:0:
60,68,247685,1,2,0:0:0:0:
104,180,247931,2,0,P|88:232|36:264,1,90,8|2,0:0|0:0,0:0:0:0:
296,40,248669,5,0,0:0:0:0:
248,148,248915,1,8,0:0:0:0:
360,116,249161,2,0,P|408:104|464:108,1,90,2|0,0:0|0:0,0:0:0:0:
444,288,249652,2,0,P|420:208|424:176,1,90,2|8,0:0|0:0,0:0:0:0:
512,224,250144,1,0,0:0:0:0:
468,364,250390,6,0,B|392:372|368:304|368:304|276:304,1,180,0|8,0:0|0:0,0:0:0:0:
196,304,251128,2,0,B|144:304|144:304|120:372|44:364,1,180,0|8,0:0|0:0,0:0:0:0:
40,248,251865,1,8,0:0:0:0:
44,132,252111,2,0,B|120:124|144:192|144:192|196:192,1,180
300,248,252849,1,8,0:0:0:0:
460,76,253341,5,0,0:0:0:0:
464,224,253587,2,0,B|484:168|484:168|412:180|364:112,1,180,8|8,0:0|0:0,0:0:0:0:
312,32,254324,2,0,L|220:32,1,90,0|2,0:0|0:0,0:0:0:0:
140,116,254816,2,0,L|240:116,1,90,0|2,0:0|0:0,0:0:0:0:
312,200,255308,2,0,L|216:200,1,90,0|2,0:0|0:0,0:0:0:0:
140,284,255799,2,0,L|264:284,1,90,0|2,0:0|0:0,0:0:0:0:
336,336,256291,5,0,0:0:0:0:
424,260,256537,1,0,0:0:0:0:
448,376,256783,1,8,0:0:0:0:
336,248,257029,2,0,P|328:184|352:156,1,90,2|0,0:0|0:0,0:0:0:0:
428,84,257521,1,8,0:0:0:0:
340,164,257767,5,8,0:0:0:0:
272,68,258012,1,2,0:0:0:0:
448,180,258258,2,0,P|444:228|416:268,1,90,0|8,0:0|0:0,0:0:0:0:
292,336,258750,2,0,P|240:312|224:272,1,90,8|0,0:0|0:0,0:0:0:0:
248,136,259242,2,0,P|236:72|172:24,2,135,0|8|8,0:0|0:0|0:0,0:0:0:0:
144,192,260225,6,0,L|52:192,1,90,0|2,0:0|0:0,0:0:0:0:
128,284,260717,2,0,L|220:284,1,90,8|0,0:0|0:0,0:0:0:0:
344,348,261209,2,0,P|324:292|328:252,1,90,2|0,0:0|0:0,0:0:0:0:
360,68,261701,2,0,P|380:124|376:164,1,90,8|0,0:0|0:0,0:0:0:0:
272,200,262192,5,2,0:0:0:0:
216,100,262438,1,0,0:0:0:0:
332,104,262684,1,8,0:0:0:0:
220,272,262930,1,0,0:0:0:0:
112,100,263176,1,2,0:0:0:0:
332,104,263422,1,8,0:0:0:0:
492,276,263914,5,0,0:0:0:0:
276,364,264405,2,0,L|392:360,1,90,0|8,0:0|0:0,0:0:0:0:
484,356,264897,1,2,0:0:0:0:
384,292,265143,2,0,P|364:216|380:188,1,90,0|8,0:0|0:0,0:0:0:0:
440,116,265635,1,8,0:0:0:0:
448,232,265881,1,2,0:0:0:0:
348,180,266127,6,0,P|296:160|284:108,1,90
280,16,266618,1,8,0:0:0:0:
360,100,266864,1,2,0:0:0:0:
244,104,267110,2,8,P|200:120|152:112,1,90,0|8,0:0|0:0,0:0:0:0:
28,308,267848,6,0,P|104:280|208:296,1,180,0|2,0:0|0:0,0:0:0:0:
296,360,268585,2,0,P|316:312|308:272,1,90,0|2,0:0|0:0,0:0:0:0:
212,212,269077,2,0,L|256:132,1,90,0|2,0:0|0:0,0:0:0:0:
432,196,269569,2,0,P|368:208|340:200,1,90,0|2,0:0|0:0,0:0:0:0:
256,132,270061,5,0,0:0:0:0:
256,132,270184,1,2,0:0:0:0:
212,212,270429,1,0,0:0:0:0:
212,212,270552,1,2,0:0:0:0:
304,212,270798,1,0,0:0:0:0:
304,212,270921,1,2,0:0:0:0:
256,288,271167,1,0,0:0:0:0:
256,288,271290,1,2,0:0:0:0:
180,140,271536,5,8,0:0:0:0:
332,140,271782,1,8,0:0:0:0:
256,240,272028,5,0,0:0:0:0:
256,240,272151,1,2,0:0:0:0:
180,140,272396,1,0,0:0:0:0:
180,140,272519,1,2,0:0:0:0:
256,40,272765,1,0,0:0:0:0:
256,40,272888,1,2,0:0:0:0:
332,140,273134,1,0,0:0:0:0:
332,140,273257,1,2,0:0:0:0:
164,228,273503,21,8,0:0:0:0:
348,228,273749,1,8,0:0:0:0:
256,104,273995,21,0,0:0:0:0:
256,104,274118,1,2,0:0:0:0:
164,228,274364,1,0,0:0:0:0:
164,228,274486,1,2,0:0:0:0:
256,352,274732,1,0,0:0:0:0:
256,352,274855,1,2,0:0:0:0:
348,228,275101,1,0,0:0:0:0:
348,228,275224,1,2,0:0:0:0:
144,108,275470,5,8,0:0:0:0:
368,108,275716,1,8,0:0:0:0:
256,308,275962,6,0,L|256:356,1,45,6|2,0:0|0:0,0:0:0:0:
148,132,276331,22,0,L|106:108,1,45,6|2,0:0|0:0,0:0:0:0:
364,132,276699,22,0,L|405:108,1,45,6|2,0:0|0:0,0:0:0:0:
176,352,277191,22,0,P|256:392|336:352,1,180,0|2,0:0|0:0,0:0:0:0:
256,272,277929,22,0,B|192:240|136:184|192:120|224:144|224:144|256:168|256:168|288:144|288:144|320:120|376:184|320:240|272:268,1,450,2|6,0:0|0:0,0:0:0:0:
256,56,279404,1,0,0:0:0:0:
