osu file format v5

[General]
AudioFilename: Chyangnang.mp3
AudioLeadIn: 0
PreviewTime: -1
Countdown: 1
SampleSet: Normal
StackLeniency: 0.7
Mode: 0
LetterboxInBreaks: 1
EditorDistanceSpacing: 1

[Metadata]
Title:Jyangnang
Artist:JJ Lin
Creator:deepsea
Version:Hard
Source:
Tags:

[Difficulty]
HPDrainRate:5
CircleSize:5
OverallDifficulty:7
SliderMultiplier:1.4
SliderTickRate:2

[Events]
//Background and Video events
//Break Periods
2,120269,140160
//Storyboard Layer 0 (Background)
//Storyboard Layer 1 (Fail)
//Storyboard Layer 2 (Pass)
//Storyboard Layer 3 (Foreground)
//Storyboard Sound Samples
//Background Colour Transformations
3,100,0,0,0

[TimingPoints]
20589,500,4,1,0,100,1,0
20595,-100,4,1,0,100,0,0
30462,-200,4,1,0,100,0,0
31836,-100,4,1,0,100,0,0
32092,-100,4,1,0,100,0,0

[Colours]
Combo1 : 255,0,128
Combo2 : 255,255,0
Combo3 : 0,64,128
Combo4 : 255,128,0

[HitObjects]
16,104,20589,5,8
16,32,20839,1,0
72,64,21089,1,0
136,32,21339,1,0
192,64,21589,1,0
192,136,21839,1,0
256,104,22089,1,0
320,136,22339,1,0
320,64,22589,1,8
376,32,22839,1,0
440,64,23089,1,0
496,32,23339,1,0
496,104,23589,1,0
256,192,24089,5,6
16,280,24589,5,8
16,352,24839,1,0
72,320,25089,1,0
136,352,25339,1,0
192,320,25589,1,0
192,248,25839,1,0
256,280,26089,1,0
320,248,26339,1,0
320,320,26589,1,8
376,352,26839,1,0
440,320,27089,1,0
496,352,27339,1,0
496,280,27589,1,0
256,192,28089,5,4
112,192,28589,5,8
112,120,28839,1,0
112,48,29089,1,0
112,120,29339,1,0
112,192,29589,1,0
112,264,29839,1,0
184,264,30089,1,0
256,264,30339,1,0
256,192,30589,2,2,B|256:48,1,140
400,200,32089,5,4
256,192,32589,6,0,B|256:96,1,70,8|0
256,192,33089,2,0,B|352:192,1,70
256,192,33589,2,0,B|256:288,1,70
256,192,34089,2,0,B|170:192,1,70,0|0
256,192,34589,1,4
256,192,35089,12,4,36589
112,192,37089,5,8
184,192,37339,1,0
256,192,37589,1,0
328,192,37839,1,0
400,192,38089,2,0,B|400:368,1,140
328,328,38839,1,0
256,328,39089,1,8
184,328,39339,1,0
112,328,39589,1,0
40,328,39839,1,0
40,256,40089,1,8
40,112,40589,6,0,B|40:32,1,70,8|0
112,40,41089,2,0,B|208:40,2,70
128,176,42089,1,0
128,248,42339,1,0
200,248,42589,2,0,B|304:248,1,70,8|0
336,248,43089,2,0,B|336:168,1,70
336,104,43589,2,0,B|248:104,1,70,8|0
192,104,44089,1,0
80,184,44589,5,8
136,224,44839,1,0
192,184,45089,1,0
248,224,45339,1,0
304,184,45589,1,0
360,224,45839,1,0
416,184,46089,1,0
328,72,46589,1,8
256,72,46839,2,0,B|256:160,5,70
256,280,48589,5,8
216,216,48839,1,0
296,216,49089,1,0
256,280,49339,1,0
216,216,49589,1,0
296,216,49839,1,0
256,152,50089,2,0,B|88:152,1,140,0|8
48,152,50839,1,0
40,224,51089,1,0
80,280,51339,1,0
152,280,51589,1,0
192,224,51839,1,0
152,168,52089,1,0
80,168,52339,1,0
112,224,52589,1,0
248,224,53089,6,0,B|352:224,1,70,8|0
384,224,53589,2,0,B|384:304,1,70
312,296,54089,2,0,B|152:296,1,140
104,296,54839,1,0
104,224,55089,2,0,B|40:168,1,70,8|0
104,224,55589,2,0,B|168:168,1,70,0|0
104,224,56089,1,0
216,136,56589,5,8
256,72,56839,1,0
288,136,57089,1,0
256,200,57339,1,0
256,200,57589,2,0,B|256:328,2,105
192,232,58589,1,8
144,288,58839,2,0,B|48:288,1,70
80,216,59339,1,0
80,144,59589,1,0
80,72,59839,1,0
80,144,60089,1,0
152,144,60339,1,0
224,144,60589,1,0
352,192,61089,5,8
408,224,61339,1,0
352,264,61589,1,0
408,304,61839,1,0
352,344,62089,1,0
232,272,62589,1,0
160,272,62839,2,0,B|160:352,5,70,0|8|0|0|0|0
144,200,64589,5,8
144,128,64839,1,0
144,56,65089,1,0
144,128,65339,1,0
72,128,65589,1,0
144,128,65839,1,0
216,128,66089,1,0
352,128,66589,2,0,B|440:128,1,70,8|0
256,192,67089,12,4,68589
184,88,69089,5,8
320,88,69339,1,0
408,200,69589,1,0
320,312,69839,1,0
176,312,70089,1,8
96,192,70339,1,0
256,96,70839,6,0,B|256:16,1,70,8|0
336,248,71339,2,0,B|376:312,1,70,0|0
176,248,71839,2,0,B|136:312,1,70,8|0
256,192,72339,5,0
256,120,72589,2,2,B|96:120,1,140
112,192,73339,1,0
112,264,73589,1,0
184,264,73839,2,0,B|344:264,1,140
392,264,74589,2,2,B|392:112,1,140
320,120,75339,1,0
112,136,76089,5,0
72,192,76339,1,0
72,264,76589,2,2,B|96:344|192:344,1,140
176,272,77339,1,0
400,136,78089,5,0
440,192,78339,1,0
440,264,78589,2,2,B|416:344|320:344,1,140
336,272,79339,1,0
256,192,79839,12,4,83089
256,192,83589,5,4
200,272,84089,5,8
264,240,84339,1,0
328,216,84589,1,0
392,192,84839,1,0
392,192,85089,1,0
328,168,85339,1,0
264,144,85589,1,0
200,112,85839,1,0
192,192,86089,2,0,B|344:192,1,140,8|0
400,192,86839,1,0
400,120,87089,2,0,B|400:24,2,70,8|0|0
328,120,87839,6,0,B|248:120,1,70,0|8
184,120,88339,2,0,B|184:200,1,70
184,256,88839,2,0,B|272:256,1,70
328,256,89339,2,0,B|328:160,1,70
400,184,89839,2,0,B|496:184,1,70,0|8
472,112,90339,2,0,B|312:112,1,140
264,112,91089,2,0,B|264:216,1,70,8|0
264,112,91589,2,0,B|264:32,1,70
192,40,92089,5,8
120,40,92339,1,0
48,40,92589,2,2,B|48:192,1,140
48,248,93339,1,0
120,248,93589,2,0,B|120:352,2,70,8|0|0
120,176,94339,5,8
120,176,94589,1,0
120,32,95089,1,8
120,32,95339,1,0
192,32,95589,2,0,B|192:120,2,70,8|0|0
264,32,96339,5,0
320,64,96589,1,8
264,104,96839,1,0
320,144,97089,1,0
264,184,97339,1,0
320,224,97589,1,8
264,264,97839,1,0
320,304,98089,1,0
264,344,98339,2,0,B|120:344,1,140
124,344,99089,2,0,B|24:344,1,70
124,344,99589,2,0,B|224:344,1,70
160,280,100089,5,8
128,216,100339,1,0
72,176,100589,1,0
128,136,100839,1,0
168,80,101089,1,0
200,136,101339,1,0
256,176,101589,1,0
200,216,101839,1,0
160,280,102089,1,8
232,280,102339,2,0,B|384:280,1,140
376,208,103089,2,0,B|376:104,2,70,8|0|0
304,200,103839,5,0
232,200,104089,1,8
160,200,104339,1,0
88,200,104589,1,0
16,200,104839,1,0
16,200,105089,1,0
88,200,105339,1,0
160,200,105589,1,0
232,200,105839,1,0
304,200,106089,1,8
376,200,106339,2,0,B|376:56,1,140
304,56,107089,2,0,B|216:56,2,70
296,128,107839,5,0
296,200,108089,2,0,B|296:360,2,140
296,128,109339,1,8
256,72,109589,2,0,B|168:72,2,70
216,128,110339,5,0
216,200,110589,2,0,B|216:368,1,140
216,272,111339,1,8
216,200,111589,1,0
216,128,111839,1,0
144,128,112089,1,0
96,176,112339,5,0
96,248,112589,1,8
96,320,112839,1,0
168,320,113089,1,0
240,320,113339,1,0
240,248,113589,1,8
240,176,113839,1,0
168,176,114089,1,0
168,248,114339,2,0,B|328:248,1,140
308,248,115089,1,0
308,248,115339,1,0
256,192,115589,12,4,120089
184,272,141089,5,0
256,80,141339,1,8
328,272,141589,1,0
136,152,141839,1,0
376,152,142089,1,0
184,272,142339,1,0
144,328,142839,5,0
256,48,143089,1,8
352,328,143339,1,0
80,152,143589,1,0
432,152,143839,1,0
144,328,144089,1,0
144,328,144339,1,0
144,264,144589,6,2,B|144:96,1,140
144,56,145339,1,0
216,56,145589,2,2,B|384:56,1,140
424,56,146339,1,0
424,128,146589,2,2,B|424:272,1,140
424,336,147339,1,0
352,336,147589,1,4
216,352,148089,6,0,B|120:352,1,70
72,352,148589,2,2,B|72:192,1,140
144,208,149339,1,0
296,32,150089,6,0,B|392:32,1,70
440,32,150589,2,2,B|440:192,1,140
368,176,151339,1,0
256,192,151839,12,0,154589
200,192,154839,6,0,B|296:192,3,70
336,192,155839,1,0
456,48,156089,5,8
384,48,156339,1,0
312,48,156589,1,0
240,48,156839,1,0
312,48,157089,1,8
240,48,157339,1,0
168,48,157589,1,0
96,48,157839,1,0
48,96,158089,2,0,B|48:152|64:184|96:208|136:224,1,140,8|0
176,184,158839,1,0
232,224,159089,1,0
232,224,159339,1,0
288,184,159589,1,8
432,48,159839,5,0
432,120,160089,2,0,B|432:208,1,70
432,256,160589,1,8
432,256,160839,1,0
360,256,161089,1,0
360,256,161339,1,0
288,256,161589,1,8
288,256,161839,1,0
216,256,162089,1,0
216,256,162339,2,0,B|160:256|136:240|112:208|120:168,1,140
48,200,163089,1,0
64,128,163339,1,0
120,88,163589,1,8
184,64,163839,1,0
456,72,164089,5,8
456,144,164339,1,0
256,192,164589,12,0,165589
248,192,166089,5,0
248,264,166339,1,0
176,264,166589,2,0,B|32:264,1,140,8|0
32,192,167339,1,0
32,120,167589,2,0,B|32:24,2,70
104,120,168339,5,0
176,120,168589,1,8
248,120,168839,1,0
320,120,169089,1,0
392,120,169339,1,0
392,192,169589,2,0,B|392:272,1,70,8|0
392,328,170089,1,0
392,328,170339,2,0,B|248:328,1,140
184,328,171089,2,0,B|184:240,2,70,0|0|8
184,328,171839,1,0
32,192,172089,5,0
72,136,172339,1,0
112,192,172589,1,8
152,136,172839,1,0
192,192,173089,1,0
232,136,173339,1,0
272,192,173589,1,8
312,136,173839,1,0
352,192,174089,1,0
400,240,174339,2,0,B|400:328|360:360|312:352,1,140
272,328,175089,1,0
208,296,175339,1,0
144,264,175589,1,8
16,112,175839,5,0
88,112,176089,2,0,B|192:112,1,70
158,112,176589,2,0,B|248:112,1,70,8|0
158,112,177089,2,0,B|160:208,1,70
158,112,177589,2,0,B|160:24,2,70,8|0|0
158,112,178339,2,0,B|160:280,1,140
96,272,179089,1,0
144,320,179339,1,0
208,344,179589,1,8
256,224,179839,6,0,B|256:144,1,70
256,192,180589,12,4,181589
256,192,182339,5,0
256,192,182589,12,4,183339
256,160,183589,5,0
216,216,183839,1,0
288,216,184089,1,0
328,160,184339,5,0
312,88,184589,1,8
256,40,184839,1,0
184,48,185089,1,0
128,88,185339,1,0
128,160,185589,2,0,B|128:288|168:320|192:352|232:352,1,210,8|0
232,280,186589,1,0
272,336,186839,1,0
256,192,187589,12,4,189589
