osu file format v14

[General]
AudioFilename: optc.mp3
AudioLeadIn: 0
PreviewTime: 199245
Countdown: 0
SampleSet: Soft
StackLeniency: 0.7
Mode: 0
LetterboxInBreaks: 0
WidescreenStoryboard: 1

[Editor]
Bookmarks: 19995,35995,67995,83995,119995,139995,155995,191995,207995,229995,245995
DistanceSpacing: 1.2
BeatDivisor: 16
GridSize: 8
TimelineZoom: 1.6

[Metadata]
Title:Jiang Nan (Cantonese Ver.)
TitleUnicode:江南(粤语版)
Artist:JJ Lin
ArtistUnicode:林俊杰
Creator:Shad0w1and
Version:Misty Rain
Source:
Tags:西界 Jun Jie Kvantuma Rozo m1223961117 DreaM117er ShallICompareThee
BeatmapID:839759
BeatmapSetID:384284

[Difficulty]
HPDrainRate:5
CircleSize:4
OverallDifficulty:6
ApproachRate:7
SliderMultiplier:2
SliderTickRate:1

[Events]
//Background and Video events
0,0,"BG.png",0,0
//Break Periods
2,119995,139095
2,191995,193845
//Storyboard Layer 0 (Background)
//Storyboard Layer 1 (Fail)
//Storyboard Layer 2 (Pass)
//Storyboard Layer 3 (Foreground)
//Storyboard Sound Samples

[TimingPoints]
19995,1000,4,2,1,60,1,0
67995,-90.9090909090909,4,2,1,80,0,0
83995,-76.9230769230769,4,2,1,100,0,1
115995,-83.3333333333333,4,2,1,100,0,0
118495,-83.3333333333333,4,2,1,5,0,0
139995,-90.9090909090909,4,2,1,80,0,0
155995,-76.9230769230769,4,2,1,100,0,1
187995,-83.3333333333333,4,2,1,60,0,0
191995,-100,4,2,1,40,0,0
207995,-71.4285714285714,4,2,1,100,0,1
223995,-100,4,2,1,60,0,0
228995,-100,4,2,1,40,0,0
229995,1000,4,2,1,60,1,0
245995,-111.111111111111,4,2,1,40,0,0
249995,1237.11340206186,4,2,1,40,1,0
249995,-125,4,2,1,40,0,0
253706,1304.34782608696,4,2,1,40,1,0

[Colours]
Combo1 : 248,175,106
Combo2 : 203,204,196
Combo3 : 139,203,239
Combo4 : 249,100,130

[HitObjects]
0,200,19995,6,0,L|120:192,1,100,6|0,0:0|0:0,0:0:0:0:
184,240,20745,1,0,0:0:0:0:
253,128,20995,2,0,L|261:184,1,50
357,211,21495,2,0,L|365:155,1,50
446,257,21995,6,0,P|341:311|266:257,1,200,0|8,0:0|0:0,0:0:0:0:
157,112,23495,1,0,0:0:0:0:
49,270,23995,6,0,L|57:372,1,100,2|0,0:0|0:0,0:0:0:0:
154,293,24745,2,0,L|162:233,2,50
242,351,25495,1,0,0:0:0:0:
357,286,25745,1,0,0:0:0:0:
357,286,25870,1,0,0:0:0:0:
357,286,25995,6,0,P|364:237|353:173,1,100
295,103,26745,1,0,0:0:0:0:
211,164,26995,2,0,L|142:154,1,50
106,264,27495,2,0,L|169:254,1,50
318,168,27995,6,0,P|312:224|305:272,1,100,6|0,0:0|0:0,0:0:0:0:
200,302,28745,1,0,0:0:0:0:
165,200,28995,2,0,L|98:174,1,50
0,176,29495,2,0,L|33:234,1,50
93,113,29995,6,0,P|119:98|148:74,1,50
211,147,30495,2,0,P|252:140|321:117,1,100,0|8,0:0|0:0,0:0:0:0:
307,122,31495,1,0,0:0:0:0:
248,313,31995,6,0,P|284:344|333:368,1,100,2|0,0:0|0:0,0:0:0:0:
284,221,32745,1,0,0:0:0:0:
187,235,32995,2,0,P|158:233|137:229,1,50
222,142,33495,1,0,0:0:0:0:
284,221,33745,1,0,0:0:0:0:
284,221,33870,1,0,0:0:0:0:
284,221,33995,6,0,P|286:270|284:325,1,100
399,99,34995,1,12,0:0:0:0:
69,12,35995,6,0,P|67:64|74:122,1,100,2|0,0:0|0:0,0:0:0:0:
133,199,36745,1,0,0:0:0:0:
256,168,36995,1,0,0:0:0:0:
175,106,37245,1,0,0:0:0:0:
168,224,37495,2,0,L|165:276,1,50
59,350,37995,6,0,L|70:298,1,50
168,224,38495,1,0,0:0:0:0:
215,325,38745,1,0,0:0:0:0:
298,251,38995,2,0,L|352:244,1,50,8|0,0:0|0:0,0:0:0:0:
431,174,39495,1,0,0:0:0:0:
431,174,39995,6,0,L|406:124,1,50,2|0,0:0|0:0,0:0:0:0:
308,103,40495,2,0,L|305:156,1,50
347,244,40995,1,0,0:0:0:0:
71,335,41495,1,0,0:0:0:0:
25,250,41745,1,0,0:0:0:0:
119,256,41995,6,0,P|161:256|225:249,1,100
297,193,42745,1,0,0:0:0:0:
372,130,42995,2,0,L|428:128,1,50
386,225,43495,1,0,0:0:0:0:
283,101,43745,1,0,0:0:0:0:
218,250,43995,6,0,P|219:298|223:353,1,100,2|0,0:0|0:0,0:0:0:0:
322,249,44745,1,0,0:0:0:0:
193,143,44995,1,0,0:0:0:0:
293,167,45245,1,0,0:0:0:0:
185,250,45495,2,0,L|136:259,1,50
193,143,45995,6,0,P|220:148|263:153,1,50
344,163,46495,1,0,0:0:0:0:
309,73,46745,1,0,0:0:0:0:
284,241,46995,2,0,L|290:300,1,50,8|0,0:0|0:0,0:0:0:0:
387,328,47495,1,0,0:0:0:0:
162,126,47995,6,0,L|112:122,1,50,2|0,0:0|0:0,0:0:0:0:
0,215,48495,2,0,L|61:209,1,50
150,214,48995,1,0,0:0:0:0:
222,134,49245,1,0,0:0:0:0:
112,122,49495,5,0,0:0:0:0:
151,215,49745,1,0,0:0:0:0:
257,228,49995,2,0,P|281:227|327:228,1,50
438,314,50495,2,0,P|407:311|376:306,1,50
306,227,50995,5,0,0:0:0:0:
291,117,51245,1,0,0:0:0:0:
457,96,51495,1,0,0:0:0:0:
371,167,51745,1,0,0:0:0:0:
202,100,51995,6,0,P|152:104|92:103,1,100,2|0,0:1|0:0,0:0:0:0:
265,22,52745,1,0,0:0:0:0:
291,117,52995,2,0,L|281:181,1,50
387,255,53495,2,0,L|379:192,1,50
348,346,53995,6,0,P|399:353|444:335,1,100
483,249,54745,1,0,0:0:0:0:
507,153,54995,2,0,L|512:103,1,50,8|0,0:0|0:0,0:0:0:0:
398,130,55495,2,0,L|410:189,1,50
275,315,55995,6,0,P|266:282|262:249,1,50,2|0,0:0|0:0,0:0:0:0:
230,178,56495,2,0,L|175:181,1,50
282,88,56995,2,0,L|336:97,1,50
428,64,57495,1,0,0:0:0:0:
284,271,57995,6,0,L|279:329,1,50
378,247,58495,1,0,0:0:0:0:
310,174,58745,1,0,0:0:0:0:
245,257,58995,2,0,P|216:269|179:277,1,50
70,214,59495,2,0,P|91:205|124:197,1,50
245,257,59995,6,0,P|290:272|346:280,1,100,2|0,0:0|0:0,0:0:0:0:
430,232,60745,1,0,0:0:0:0:
508,291,60995,1,0,0:0:0:0:
473,383,61245,1,0,0:0:0:0:
375,374,61495,2,0,P|345:379|322:382,1,50
187,322,61995,6,0,P|214:327|257:332,1,50
320,277,62495,1,0,0:0:0:0:
260,192,62745,1,0,0:0:0:0:
330,119,62995,2,0,L|382:88,1,50,8|0,0:0|0:0,0:0:0:0:
408,5,63495,1,0,0:0:0:0:
470,214,63995,6,0,P|473:240|473:271,1,50,2|0,0:0|0:0,0:0:0:0:
374,289,64495,2,0,P|360:312|336:336,1,50
178,289,64995,1,0,0:0:0:0:
270,247,65245,1,0,0:0:0:0:
205,97,65495,5,0,0:0:0:0:
189,194,65745,1,0,0:0:0:0:
270,247,65995,2,0,L|278:313,1,50
363,202,66495,2,0,L|373:130,1,50
271,150,66995,5,0,0:0:0:0:
270,247,67245,1,0,0:0:0:0:
137,278,67495,1,0,0:0:0:0:
185,193,67745,1,0,0:0:0:0:
261,344,67995,6,0,P|303:356|386:356,1,110.000003356934,6|0,0:0|0:0,0:0:0:0:
464,300,68745,1,0,0:0:0:0:
375,239,68995,2,0,L|361:173,1,55.0000016784668
492,147,69495,2,0,L|479:205,1,55.0000016784668
347,256,69995,6,0,L|276:273,1,55.0000016784668
182,220,70495,2,0,L|118:207,1,55.0000016784668
193,324,70995,1,0,0:0:0:0:
292,191,71245,1,0,0:0:0:0:
306,352,71495,1,0,0:0:0:0:
182,220,71745,1,0,0:0:0:0:
389,139,71995,6,0,P|373:197|349:258,1,110.000003356934,2|0,0:0|0:0,0:0:0:0:
251,207,72745,1,0,0:0:0:0:
154,146,72995,2,0,P|125:152|98:162,2,55.0000016784668
158,255,73745,1,0,0:0:0:0:
11,201,73995,6,0,P|3:146|11:81,1,110.000003356934
89,17,74745,1,0,0:0:0:0:
167,92,74995,2,0,P|158:122|151:156,1,55.0000016784668
173,314,75495,2,0,P|181:286|186:260,1,55.0000016784668
307,317,75995,6,0,P|353:324|417:317,1,110.000003356934,2|0,0:0|0:0,0:0:0:0:
267,220,76745,1,0,0:0:0:0:
209,312,76995,2,0,P|214:339|219:373,1,55.0000016784668
77,274,77495,1,0,0:0:0:0:
160,218,77745,1,0,0:0:0:0:
70,160,77995,6,0,L|60:80,1,55.0000016784668,2|0,0:0|0:0,0:0:0:0:
184,62,78495,2,0,L|166:124,1,55.0000016784668
160,218,78995,1,0,0:0:0:0:
262,250,79245,2,0,P|305:243|372:250,1,110.000003356934
504,360,79995,6,0,P|438:380|392:376,1,110.000003356934,2|0,0:0|0:0,0:0:0:0:
231,312,80745,1,0,0:0:0:0:
339,290,80995,2,0,L|350:230,1,55.0000016784668
253,153,81495,2,0,L|240:219,1,55.0000016784668
339,290,81995,5,6,0:0:0:0:
191,78,82245,1,0,0:0:0:0:
366,159,82495,1,0,0:0:0:0:
225,285,82745,1,0,0:0:0:0:
123,220,82995,6,0,L|61:216,1,55.0000016784668,4|0,0:0|0:0,0:0:0:0:
92,105,83495,2,0,L|53:62,1,55.0000016784668
165,77,83870,1,0,0:0:0:0:
165,77,83995,6,0,P|169:105|168:142,1,64.9999970245363,6|0,0:0|0:0,0:0:0:0:
70,304,84495,2,0,P|64:275|63:232,1,64.9999970245363
92,105,84995,1,2,0:3:0:0:
162,240,85245,1,0,0:0:0:0:
353,126,85495,1,0,0:0:0:0:
201,141,85745,1,0,0:0:0:0:
272,325,85995,6,0,P|321:280|366:223,1,129.999994049073,2|0,0:0|0:0,0:0:0:0:
441,71,86745,1,0,0:0:0:0:
353,126,86995,1,2,0:3:0:0:
445,168,87245,2,0,P|477:162|513:136,2,64.9999970245363
295,45,87995,6,0,P|256:46|208:52,1,64.9999970245363,2|0,0:0|0:0,0:0:0:0:
87,112,88495,2,0,P|94:145|114:186,1,64.9999970245363
325,164,88995,1,2,0:3:0:0:
178,116,89245,1,0,0:0:0:0:
105,7,89495,1,0,0:0:0:0:
258,46,89745,1,0,0:0:0:0:
213,207,89995,6,0,B|161:220|117:202|117:202|139:251,1,129.999994049073,2|0,0:0|0:0,0:0:0:0:
205,357,90745,1,0,0:0:0:0:
205,357,90995,2,0,P|236:357|280:348,1,64.9999970245363,2|0,0:3|0:0,0:0:0:0:
438,245,91495,1,0,0:0:0:0:
322,250,91745,1,0,0:0:0:0:
443,331,91995,6,0,P|439:260|430:193,1,129.999994049073,2|0,0:0|0:0,0:0:0:0:
362,100,92745,1,0,0:0:0:0:
337,214,92995,2,0,P|299:219|246:222,1,64.9999970245363,2|0,0:3|0:0,0:0:0:0:
121,142,93495,1,0,0:0:0:0:
261,141,93745,1,0,0:0:0:0:
160,205,93995,6,0,P|172:151|168:65,1,129.999994049073,2|0,0:0|0:0,0:0:0:0:
73,123,94745,1,0,0:0:0:0:
90,256,94995,2,0,P|112:276|144:290,1,64.9999970245363,2|0,0:3|0:0,0:0:0:0:
336,301,95495,1,0,0:0:0:0:
232,357,95745,1,0,0:0:0:0:
249,253,95995,6,0,L|261:163,1,64.9999970245363,2|0,0:0|0:0,0:0:0:0:
155,140,96495,2,0,L|159:204,1,64.9999970245363
232,357,96995,2,0,P|272:353|306:340,2,64.9999970245363,2|0|0,0:3|0:0|0:0,0:0:0:0:
249,253,97745,1,0,0:0:0:0:
128,384,97995,6,0,L|64:371,1,64.9999970245363,2|0,0:0|0:0,0:0:0:0:
249,253,98495,2,0,L|181:239,1,64.9999970245363
461,177,98995,1,2,0:3:0:0:
335,159,99245,1,0,0:0:0:0:
363,351,99495,1,0,0:0:0:0:
391,228,99745,1,0,0:0:0:0:
246,354,99995,6,0,P|210:354|170:351,1,64.9999970245363,6|0,0:0|0:0,0:0:0:0:
87,255,100495,2,0,P|83:225|81:190,1,64.9999970245363
195,33,100995,2,0,P|195:65|194:100,1,64.9999970245363,2|0,0:3|0:0,0:0:0:0:
176,217,101495,1,0,0:0:0:0:
95,102,101745,1,0,0:0:0:0:
249,165,101995,6,0,L|322:154,1,64.9999970245363,2|0,0:0|0:0,0:0:0:0:
412,218,102495,1,0,0:0:0:0:
336,66,102745,1,0,0:0:0:0:
162,153,102995,2,0,P|166:186|176:218,1,64.9999970245363,2|0,0:3|0:0,0:0:0:0:
257,294,103495,1,0,0:0:0:0:
249,165,103745,1,0,0:0:0:0:
104,253,103995,6,0,P|108:284|109:324,1,64.9999970245363,2|0,0:0|0:0,0:0:0:0:
1,253,104495,2,0,P|2:218|6:187,1,64.9999970245363
125,169,104995,2,0,P|154:172|207:166,2,64.9999970245363,2|0|0,0:3|0:0|0:0,0:0:0:0:
163,84,105745,1,0,0:0:0:0:
201,264,105995,6,0,B|252:259|291:232|291:232|284:280,1,129.999994049073,2|0,0:0|0:0,0:0:0:0:
286,265,106745,1,0,0:0:0:0:
112,232,106995,2,0,P|116:199|124:168,1,64.9999970245363,2|0,0:3|0:0,0:0:0:0:
239,151,107495,2,0,P|262:139|292:114,1,64.9999970245363
286,265,107995,6,0,B|276:315|288:355|288:355|237:341,1,129.999994049073,2|0,0:0|0:0,0:0:0:0:
133,311,108745,1,0,0:0:0:0:
266,184,108995,2,0,P|298:184|349:202,1,64.9999970245363,2|0,0:3|0:0,0:0:0:0:
466,318,109495,1,0,0:0:0:0:
446,212,109745,1,0,0:0:0:0:
366,334,109995,6,0,P|318:355|234:366,1,129.999994049073,2|0,0:0|0:0,0:0:0:0:
152,284,110745,1,0,0:0:0:0:
258,166,110995,2,0,P|264:201|267:252,1,64.9999970245363,2|0,0:3|0:0,0:0:0:0:
152,284,111495,1,0,0:0:0:0:
136,158,111745,1,0,0:0:0:0:
258,166,111995,6,0,P|292:163|346:153,1,64.9999970245363,2|0,0:0|0:0,0:0:0:0:
453,140,112495,2,0,L|437:220,1,64.9999970245363
344,315,112995,2,0,B|294:325|245:303|245:303|249:343,1,129.999994049073,2|0,0:3|0:0,0:0:0:0:
247,331,113745,1,0,0:0:0:0:
293,186,113995,6,0,P|260:177|229:173,1,64.9999970245363,2|0,0:0|0:0,0:0:0:0:
63,250,114495,1,0,0:0:0:0:
115,162,114745,1,0,0:0:0:0:
160,283,114995,2,0,P|145:312|111:345,2,64.9999970245363,2|0|0,0:3|0:0|0:0,0:0:0:0:
63,250,115745,1,0,0:0:0:0:
213,375,115995,6,0,P|277:367|341:356,1,119.999996337891,2|0,0:0|0:0,0:0:0:0:
447,372,116745,1,0,0:0:0:0:
404,255,116995,2,0,L|404:195,1,59.9999981689454,2|0,0:3|0:0,0:0:0:0:
289,241,117495,2,0,L|289:172,1,59.9999981689454
174,251,117995,6,0,L|175:122,1,119.999996337891,2|0,0:0|0:0,0:0:0:0:
52,63,139995,6,0,L|171:73,1,110.000003356934,6|0,0:0|0:0,0:0:0:0:
237,154,140745,1,0,0:0:0:0:
311,77,140995,2,0,L|320:22,1,55.0000016784668
385,155,141495,2,0,L|397:221,1,55.0000016784668
317,289,141995,5,0,0:0:0:0:
218,247,142245,2,0,L|230:177,1,55.0000016784668
129,144,142745,2,0,L|102:77,1,55.0000016784668
76,204,143245,1,0,0:0:0:0:
191,91,143495,1,0,0:0:0:0:
41,51,143745,1,0,0:0:0:0:
76,204,143995,6,0,P|150:219|193:193,1,110.000003356934,2|0,0:0|0:0,0:0:0:0:
282,136,144745,1,0,0:0:0:0:
268,257,144995,2,0,P|267:290|272:323,2,55.0000016784668
369,283,145745,1,0,0:0:0:0:
190,356,145995,6,0,L|56:342,1,110.000003356934
1,273,146745,1,0,0:0:0:0:
69,181,146995,2,0,L|67:120,1,55.0000016784668
178,209,147495,2,0,L|185:146,1,55.0000016784668
259,291,147995,6,0,P|313:291|368:283,1,110.000003356934,2|0,0:0|0:0,0:0:0:0:
443,208,148745,1,0,0:0:0:0:
498,119,148995,2,0,P|498:93|488:48,1,55.0000016784668
373,149,149495,1,0,0:0:0:0:
456,304,149745,1,0,0:0:0:0:
292,222,149995,6,0,P|237:214|162:223,1,110.000003356934,2|0,0:0|0:0,0:0:0:0:
82,259,150745,1,0,0:0:0:0:
100,156,150995,2,0,P|105:128|107:99,1,55.0000016784668
225,21,151495,2,0,P|216:54|210:94,1,55.0000016784668
345,133,151995,6,0,P|394:131|472:135,1,110.000003356934,2|0,0:0|0:0,0:0:0:0:
292,222,152745,1,0,0:0:0:0:
238,130,152995,2,0,P|215:117|184:106,1,55.0000016784668,2|0,0:0|0:0,0:0:0:0:
69,217,153495,2,0,P|99:225|134:227,1,55.0000016784668
342,204,153995,5,6,0:0:0:0:
246,286,154245,1,0,0:0:0:0:
239,182,154495,1,0,0:0:0:0:
121,150,154745,1,0,0:0:0:0:
128,343,154995,5,4,0:0:0:0:
239,182,155245,1,0,0:0:0:0:
330,322,155495,1,0,0:0:0:0:
443,166,155745,1,0,0:0:0:0:
443,166,155870,1,0,0:0:0:0:
443,166,155995,6,0,P|407:162|366:160,1,64.9999970245363,6|0,0:0|0:0,0:0:0:0:
250,118,156495,2,0,P|243:150|237:191,1,64.9999970245363
323,356,156995,2,0,P|330:319|337:278,1,64.9999970245363,2|0,0:3|0:0,0:0:0:0:
311,177,157495,1,0,0:0:0:0:
255,286,157745,1,0,0:0:0:0:
207,180,157995,6,0,P|137:177|55:180,1,129.999994049073,2|0,0:0|0:0,0:0:0:0:
218,95,158745,1,0,0:0:0:0:
317,95,158995,2,0,P|307:132|294:158,1,64.9999970245363,2|0,0:3|0:0,0:0:0:0:
193,264,159495,2,0,P|188:299|193:339,1,64.9999970245363
372,354,159995,6,0,P|371:315|365:283,1,64.9999970245363,2|0,0:0|0:0,0:0:0:0:
475,140,160495,2,0,P|468:181|459:212,1,64.9999970245363
357,140,160995,1,2,0:3:0:0:
461,203,161245,1,0,0:0:0:0:
348,264,161495,2,0,L|259:260,1,64.9999970245363
117,265,161995,6,0,B|137:303|191:327|191:327|164:343,1,129.999994049073,2|0,0:0|0:0,0:0:0:0:
165,343,162745,1,0,0:0:0:0:
62,194,162995,2,0,P|94:181|141:179,1,64.9999970245363,2|0,0:3|0:0,0:0:0:0:
285,217,163495,1,0,0:0:0:0:
228,124,163745,1,0,0:0:0:0:
211,291,163995,6,0,P|261:316|355:295,1,129.999994049073,2|0,0:0|0:0,0:0:0:0:
431,247,164745,1,0,0:0:0:0:
382,88,164995,2,0,L|369:166,1,64.9999970245363,2|0,0:3|0:0,0:0:0:0:
285,217,165495,2,0,L|273:144,1,64.9999970245363
162,217,165995,6,0,P|149:275|148:356,1,129.999994049073,2|0,0:0|0:0,0:0:0:0:
247,279,166745,1,0,0:0:0:0:
109,264,166995,2,0,P|72:283|50:300,1,64.9999970245363,2|0,0:3|0:0,0:0:0:0:
84,156,167495,2,0,P|111:145|143:126,1,64.9999970245363
239,23,167995,5,2,0:0:0:0:
342,124,168245,1,0,0:0:0:0:
216,247,168495,1,0,0:0:0:0:
255,111,168745,1,0,0:0:0:0:
362,210,168995,2,0,P|395:209|438:199,2,64.9999970245363,2|0|0,0:3|0:0|0:0,0:0:0:0:
392,111,169745,1,0,0:0:0:0:
455,217,169995,6,0,P|456:248|455:281,1,64.9999970245363,2|0,0:0|0:0,0:0:0:0:
350,340,170495,1,0,0:0:0:0:
246,286,170745,1,0,0:0:0:0:
159,208,170995,2,0,P|126:205|94:204,1,64.9999970245363,2|0,0:3|0:0,0:0:0:0:
38,339,171495,2,0,P|68:336|108:327,1,64.9999970245363
249,344,171995,6,0,P|284:355|334:366,1,64.9999970245363,6|0,0:0|0:0,0:0:0:0:
442,384,172495,2,0,P|455:351|465:312,1,64.9999970245363
402,149,172995,2,0,P|392:183|385:226,2,64.9999970245363,2|0|0,0:3|0:0|0:0,0:0:0:0:
493,211,173745,1,0,0:0:0:0:
388,290,173995,6,0,P|315:278|249:239,1,129.999994049073,2|0,0:0|0:0,0:0:0:0:
191,158,174745,1,0,0:0:0:0:
93,220,174995,2,0,L|27:221,1,64.9999970245363,2|0,0:3|0:0,0:0:0:0:
15,99,175495,2,0,L|84:102,1,64.9999970245363
261,120,175995,6,0,P|262:155|260:206,1,64.9999970245363,2|0,0:0|0:0,0:0:0:0:
152,309,176495,1,0,0:0:0:0:
184,189,176745,1,0,0:0:0:0:
367,189,176995,1,2,0:3:0:0:
239,272,177245,1,0,0:0:0:0:
308,83,177495,1,0,0:0:0:0:
441,90,177745,1,0,0:0:0:0:
512,215,177995,6,0,P|471:222|377:217,1,129.999994049073,2|0,0:0|0:0,0:0:0:0:
261,187,178745,1,0,0:0:0:0:
184,290,178995,2,0,P|218:306|252:313,2,64.9999970245363,2|0|0,0:3|0:0|0:0,0:0:0:0:
101,218,179745,1,0,0:0:0:0:
261,187,179995,6,0,P|282:134|294:61,1,129.999994049073,2|0,0:0|0:0,0:0:0:0:
168,147,180745,1,0,0:0:0:0:
188,251,180995,2,0,P|216:272|247:281,1,64.9999970245363,2|0,0:3|0:0,0:0:0:0:
423,265,181495,1,0,0:0:0:0:
339,340,181745,1,0,0:0:0:0:
318,229,181995,6,0,B|303:178|260:147|260:147|301:140,1,129.999994049073,2|0,0:0|0:0,0:0:0:0:
483,124,182745,1,0,0:0:0:0:
483,125,182995,2,0,P|486:208|482:269,1,129.999994049073,0|0,0:3|0:0,0:0:0:0:
382,334,183745,1,0,0:0:0:0:
251,289,183995,6,0,L|176:278,1,64.9999970245363,2|0,0:0|0:0,0:0:0:0:
169,154,184495,2,0,L|80:140,1,64.9999970245363
319,62,184995,2,0,L|229:47,2,64.9999970245363,2|0|0,0:3|0:0|0:0,0:0:0:0:
419,137,185745,1,0,0:0:0:0:
316,180,185995,6,0,P|313:223|314:264,1,64.9999970245363,2|0,0:0|0:0,0:0:0:0:
383,360,186495,1,0,0:0:0:0:
400,236,186745,1,0,0:0:0:0:
254,309,186995,2,0,L|190:293,1,64.9999970245363,2|0,0:3|0:0,0:0:0:0:
168,160,187495,2,0,L|231:175,1,64.9999970245363
331,129,187995,6,0,L|470:116,1,119.999996337891,6|0,0:0|0:0,0:0:0:0:
320,320,188870,1,0,0:0:0:0:
320,320,188995,2,0,P|273:319|232:316,1,59.9999981689454,2|0,0:3|0:0,0:0:0:0:
195,218,189495,1,0,0:0:0:0:
320,320,189745,1,0,0:0:0:0:
173,376,189995,2,0,P|140:379|109:380,1,59.9999981689454,2|0,0:0|0:0,0:0:0:0:
15,254,190495,2,0,P|43:256|87:261,1,59.9999981689454
0,176,194745,5,0,0:0:0:0:
0,176,194995,2,0,P|27:168|100:155,1,100,2|0,0:1|0:0,0:0:0:0:
235,270,195995,6,0,B|321:262|383:197|383:197|412:185|412:185|448:193|448:193|385:149|366:81|366:81|357:114,1,400
360,101,199495,6,0,P|335:101|310:97,1,50
226,38,199995,2,0,P|167:55|136:85,1,100
110,259,200870,6,0,P|146:259|187:251,1,75
339,158,201745,6,0,P|339:187|347:211,1,50
500,336,202495,1,0,0:0:0:0:
453,242,202745,1,0,0:0:0:0:
386,328,202995,2,0,L|336:330,1,50,2|0,0:1|0:0,0:0:0:0:
107,242,203745,5,0,0:0:0:0:
258,208,203995,1,0,0:0:0:0:
196,294,204245,1,0,0:0:0:0:
221,133,204495,2,0,P|250:127|291:135,1,62.5
360,211,204995,2,0,P|381:217|432:211,2,62.5
137,222,205995,6,0,L|187:249,1,50
109,82,206495,2,0,L|161:111,1,50
263,55,206995,1,2,0:3:0:0:
109,82,207245,1,0,0:0:0:0:
207,195,207495,1,0,0:0:0:0:
178,16,207745,1,0,0:0:0:0:
3,96,207995,6,0,P|-1:124|0:171,1,69.9999978637696,6|0,0:0|0:0,0:0:0:0:
98,323,208495,2,0,P|104:294|105:241,1,69.9999978637696
93,128,208995,1,2,0:3:0:0:
21,273,209245,1,0,0:0:0:0:
219,342,209495,1,0,0:0:0:0:
105,253,209745,1,0,0:0:0:0:
233,186,209995,6,0,P|299:183|376:192,1,139.999995727539,2|0,0:0|0:0,0:0:0:0:
266,273,210745,1,0,0:0:0:0:
176,115,210995,1,2,0:3:0:0:
57,127,211245,2,0,P|47:163|41:197,2,69.9999978637696
128,269,211995,6,0,P|167:275|215:276,1,69.9999978637696,2|0,0:0|0:0,0:0:0:0:
346,276,212495,2,0,P|358:246|371:211,1,69.9999978637696
287,113,212995,1,2,0:3:0:0:
346,276,213245,1,0,0:0:0:0:
512,268,213495,1,0,0:0:0:0:
371,210,213745,1,0,0:0:0:0:
230,304,213995,6,0,B|178:317|114:298|114:298|135:259,1,139.999995727539,2|0,0:0|0:0,0:0:0:0:
192,146,214745,1,0,0:0:0:0:
192,146,214995,2,0,P|223:146|270:136,1,69.9999978637696,2|0,0:3|0:0,0:0:0:0:
432,80,215495,1,0,0:0:0:0:
322,41,215745,1,0,0:0:0:0:
360,261,215995,6,0,B|374:276|374:276|394:211|362:150,1,139.999995727539,2|0,0:0|0:0,0:0:0:0:
256,56,216745,1,0,0:0:0:0:
161,151,216995,2,0,P|157:184|159:232,1,69.9999978637696,2|0,0:3|0:0,0:0:0:0:
233,82,217495,1,0,0:0:0:0:
78,96,217745,1,0,0:0:0:0:
158,220,217995,6,0,P|222:215|321:225,1,139.999995727539,2|0,0:0|0:0,0:0:0:0:
159,133,218745,1,0,0:0:0:0:
68,230,218995,2,0,P|75:258|97:292,1,69.9999978637696,2|0,0:3|0:0,0:0:0:0:
303,364,219495,1,0,0:0:0:0:
178,384,219745,1,0,0:0:0:0:
217,279,219995,6,0,P|244:244|277:218,1,69.9999978637696,2|0,0:0|0:0,0:0:0:0:
213,119,220495,2,0,P|244:105|288:96,1,69.9999978637696
408,170,220995,2,0,P|452:166|486:153,2,69.9999978637696,2|0|0,0:3|0:0|0:0,0:0:0:0:
422,62,221745,1,0,0:0:0:0:
506,164,221995,6,0,P|505:246|496:337,1,139.999995727539,2|0,0:0|0:0,0:0:0:0:
375,234,222745,2,0,P|340:232|285:232,1,69.9999978637696,0|2,0:0|0:3,0:0:0:0:
185,284,223245,1,0,0:0:0:0:
187,158,223495,1,0,0:0:0:0:
187,158,223620,1,0,0:0:0:0:
187,158,223745,2,0,L|181:108,2,34.9999989318848,0|0|2,0:0|0:0|0:0,0:0:0:0:
187,158,224995,6,0,L|274:149,1,75,2|0,0:0|0:0,0:0:0:0:
278,167,225495,2,0,L|372:157,1,75
372,173,225995,5,2,0:0:0:0:
362,327,226745,2,0,B|238:335|170:205|170:205|142:307|69:331|69:331|115:338,1,450
443,144,229995,6,0,P|445:111|442:41,1,100,6|0,0:0|0:0,0:0:0:0:
359,176,230745,2,0,L|365:238,1,50,0|2,0:0|0:3,0:0:0:0:
269,137,231245,1,0,0:0:0:0:
353,92,231495,1,0,0:0:0:0:
275,231,231745,1,0,0:0:0:0:
142,116,231995,6,0,P|89:124|29:129,1,100,2|0,0:0|0:0,0:0:0:0:
99,213,232745,2,0,L|170:221,1,50,0|2,0:0|0:3,0:0:0:0:
231,317,233245,2,0,L|176:311,1,50
243,229,233745,1,0,0:0:0:0:
321,290,233995,6,0,L|429:280,1,100,2|0,0:0|0:0,0:0:0:0:
512,293,234745,2,0,L|505:346,1,50,0|2,0:0|0:3,0:0:0:0:
420,280,235245,1,0,0:0:0:0:
480,206,235495,1,0,0:0:0:0:
451,114,235745,1,0,0:0:0:0:
451,114,235870,1,0,0:0:0:0:
451,114,235995,6,0,L|520:101,1,50,2|0,0:0|0:0,0:0:0:0:
387,187,236495,2,0,L|331:193,1,50
185,170,236995,1,2,0:3:0:0:
280,100,237245,1,0,0:0:0:0:
219,275,237495,1,0,0:0:0:0:
103,250,237745,1,0,0:0:0:0:
57,78,237995,6,0,P|70:98|91:120,1,50,6|0,0:0|0:0,0:0:0:0:
188,114,238495,2,0,P|204:131|229:148,1,50
326,135,238995,2,0,P|345:148|373:161,1,50,2|0,0:3|0:0,0:0:0:0:
465,134,239495,2,0,P|486:143|516:150,1,50
443,248,239995,6,0,P|389:242|322:247,1,100,2|0,0:0|0:0,0:0:0:0:
247,275,240745,1,0,0:0:0:0:
169,326,240995,2,0,P|115:331|69:328,1,100,2|0,0:3|0:0,0:0:0:0:
17,212,241745,1,0,0:0:0:0:
122,146,241995,6,0,P|170:151|224:147,1,100,2|0,0:0|0:0,0:0:0:0:
312,103,242745,1,0,0:0:0:0:
301,203,242995,2,0,L|294:271,1,50,2|0,0:3|0:0,0:0:0:0:
213,327,243495,1,0,0:0:0:0:
101,228,243745,1,0,0:0:0:0:
101,228,243870,1,0,0:0:0:0:
101,228,243995,6,0,P|151:226|205:228,1,100,2|0,0:0|0:0,0:0:0:0:
300,197,244745,1,0,0:0:0:0:
381,262,244995,2,0,P|407:268|441:272,2,50,2|0|0,0:3|0:0|0:0,0:0:0:0:
283,296,245745,1,0,0:0:0:0:
354,358,245995,5,2,0:0:0:0:
381,262,246245,1,0,0:0:0:0:
300,197,246495,1,0,0:0:0:0:
217,257,246745,1,0,0:0:0:0:
246,354,246995,2,0,P|218:360|190:363,1,44.999998626709,0|0,0:0|0:0,0:0:0:0:
110,318,247495,1,0,0:0:0:0:
300,197,247995,6,0,P|327:196|345:197,1,44.999998626709
213,137,248495,2,0,P|188:139|156:138,1,44.999998626709
68,115,248995,2,0,P|64:162|63:212,1,89.9999972534181
256,192,249995,12,0,251232,0:0:0:0:
256,192,253706,12,0,258923,0:0:0:0:
