osu file format v14

[General]
AudioFilename: optc.mp3
AudioLeadIn: 0
PreviewTime: 199245
Countdown: 0
SampleSet: Soft
StackLeniency: 0.7
Mode: 0
LetterboxInBreaks: 0
WidescreenStoryboard: 1

[Editor]
DistanceSpacing: 1.6
BeatDivisor: 8
GridSize: 4
TimelineZoom: 0.9

[Metadata]
Title:Jiang Nan (Cantonese Ver.)
TitleUnicode:江南(粤语版)
Artist:JJ Lin
ArtistUnicode:林俊杰
Creator:Shad0w1and
Version:Collab Advanced
Source:
Tags:西界 Jun Jie Kvantuma Rozo m1223961117 DreaM117er ShallICompareThee
BeatmapID:841943
BeatmapSetID:384284

[Difficulty]
HPDrainRate:4
CircleSize:4
OverallDifficulty:5
ApproachRate:5.5
SliderMultiplier:1.8
SliderTickRate:1

[Events]
//Background and Video events
0,0,"BG.png",0,0
//Break Periods
2,119995,138870
2,191995,198370
//Storyboard Layer 0 (Background)
//Storyboard Layer 1 (Fail)
//Storyboard Layer 2 (Pass)
//Storyboard Layer 3 (Foreground)
//Storyboard Sound Samples

[TimingPoints]
19995,1000,4,2,1,60,1,0
67995,-90.9090909090909,4,2,1,80,0,0
83995,-76.9230769230769,4,2,1,100,0,1
115995,-83.3333333333333,4,2,1,100,0,0
139995,-90.9090909090909,4,2,1,80,0,0
155995,-76.9230769230769,4,2,1,100,0,1
187995,-83.3333333333333,4,2,1,60,0,0
191995,-100,4,2,1,40,0,0
207995,-71.4285714285714,4,2,1,100,0,1
223995,-100,4,2,1,60,0,0
228995,-100,4,2,1,40,0,0
229995,1000,4,2,1,60,1,0
245995,-111.111111111111,4,2,1,40,0,0
249995,1237.11340206186,4,2,1,40,1,0
249995,-125,4,2,1,40,0,0
253706,1304.34782608696,4,2,1,40,1,0
258923,-100,4,2,1,20,0,0

[Colours]
Combo1 : 248,175,106
Combo2 : 203,204,196
Combo3 : 139,203,239
Combo4 : 249,100,130

[HitObjects]
45,65,19995,6,0,L|152:78,1,90,4|0,0:0|0:0,0:0:0:0:
313,93,20995,2,0,L|301:33,1,45,2|0,0:3|0:0,0:0:0:0:
228,125,21495,2,0,L|229:185,1,45,2|0,0:0|0:0,0:0:0:0:
289,254,21995,6,0,P|342:246|398:261,1,90,2|0,0:0|0:0,0:0:0:0:
377,252,22995,1,2,0:3:0:0:
310,75,23495,1,2,0:0:0:0:
169,201,23995,6,0,P|112:213|56:212,1,90,2|0,0:0|0:0,0:0:0:0:
259,163,24995,2,0,L|259:267,1,90,2|2,0:3|0:0,0:0:0:0:
179,331,25995,6,0,P|269:365|356:308,1,180,2|2,0:0|0:3,0:0:0:0:
512,165,27995,6,0,L|402:157,1,90,4|0,0:0|0:0,0:0:0:0:
265,69,28995,2,0,L|233:100,1,45,2|0,0:3|0:0,0:0:0:0:
169,164,29495,2,0,L|169:228,1,45,2|0,0:0|0:0,0:0:0:0:
165,309,29995,6,0,P|222:301|277:309,1,90,2|0,0:0|0:0,0:0:0:0:
427,353,30995,1,2,0:3:0:0:
280,384,31495,1,2,0:0:0:0:
359,136,31995,6,0,P|371:189|373:251,1,90,2|0,0:0|0:0,0:0:0:0:
193,215,32995,2,0,P|146:218|103:226,1,90,2|0,0:3|0:0,0:0:0:0:
274,320,33995,1,2,0:0:0:0:
276,130,34495,2,0,L|276:85,2,45,2|0|0,0:0|0:0|0:0,0:0:0:0:
276,130,35995,5,8,0:0:0:0:
116,211,36495,2,0,L|72:219,1,45
46,116,36995,2,0,L|91:122,1,45,2|0,0:3|0:0,0:0:0:0:
276,130,37745,1,0,0:0:0:0:
276,130,37995,6,0,L|323:117,1,45,2|0,0:0|0:0,0:0:0:0:
414,95,38495,2,0,P|411:158|416:205,1,90,0|2,0:0|0:3,0:0:0:0:
413,184,39495,1,2,0:0:0:0:
246,235,39995,6,0,L|142:229,1,90
89,375,40995,2,0,L|191:372,1,90,2|0,0:3|0:0,0:0:0:0:
340,371,41995,1,0,0:0:0:0:
340,371,42995,5,2,0:0:0:0:
340,371,43995,5,8,0:0:0:0:
436,248,44495,2,0,L|431:202,1,45
338,180,44995,2,0,L|335:238,1,45,2|0,0:3|0:0,0:0:0:0:
399,62,45745,1,0,0:0:0:0:
399,62,45995,6,0,L|338:51,1,45,2|0,0:0|0:0,0:0:0:0:
266,26,46495,2,0,L|175:36,1,90,0|2,0:0|0:3,0:0:0:0:
41,105,47495,1,2,0:0:0:0:
168,188,47995,6,0,L|158:239,1,45
65,277,48495,2,0,L|59:231,1,45
152,326,48995,2,0,L|257:328,1,90,2|0,0:3|0:0,0:0:0:0:
403,221,49995,6,0,P|351:217|313:210,1,90,2|0,0:0|0:0,0:0:0:0:
213,65,50995,1,2,0:3:0:0:
339,129,51495,1,2,0:0:0:0:
110,156,51995,5,2,0:1:0:0:
110,156,52495,2,0,L|106:206,1,45
15,204,52995,2,0,L|38:300,1,90,2|0,0:3|0:0,0:0:0:0:
64,384,53745,1,0,0:0:0:0:
132,315,53995,6,0,P|181:305|228:302,1,90
385,319,54995,1,2,0:3:0:0:
251,382,55495,1,2,0:0:0:0:
334,182,55995,6,0,L|344:252,1,45,2|0,0:0|0:0,0:0:0:0:
240,248,56495,2,0,L|247:196,1,45
152,246,56995,2,0,P|103:243|39:250,1,90,2|0,0:3|0:0,0:0:0:0:
143,380,57995,6,0,P|185:376|238:360,1,90
373,296,58995,2,0,P|365:247|351:192,1,90,2|0,0:3|0:0,0:0:0:0:
261,56,59995,5,8,0:0:0:0:
129,218,60495,2,0,L|189:213,1,45
104,132,60995,2,0,L|26:128,1,45,2|0,0:3|0:0,0:0:0:0:
95,326,61745,1,0,0:0:0:0:
95,326,61995,6,0,P|141:335|185:333,1,90,2|0,0:0|0:0,0:0:0:0:
331,260,62995,2,0,P|373:260|425:268,1,90,2|2,0:3|0:0,0:0:0:0:
207,263,63995,6,0,L|207:218,1,45,2|0,0:0|0:0,0:0:0:0:
184,128,64495,2,0,P|166:114|150:98,2,45,0|0|2,0:0|0:0|0:3,0:0:0:0:
276,8,65495,1,2,0:0:0:0:
136,70,65995,6,0,P|83:74|46:70,1,90,2|0,0:0|0:0,0:0:0:0:
184,128,66995,2,0,L|151:178,2,45,2|0|2,0:3|0:0|0:0,0:0:0:0:
276,127,67745,1,0,0:0:0:0:
276,127,67995,6,0,P|272:178|277:235,1,99.0000030212403,12|0,0:0|0:0,0:0:0:0:
192,273,68745,1,0,0:0:0:0:
111,320,68995,2,0,L|112:391,1,49.5000015106202,2|0,0:3|0:0,0:0:0:0:
39,263,69495,2,0,L|32:196,1,49.5000015106202,2|0,0:0|0:0,0:0:0:0:
152,180,69995,5,0,0:0:0:0:
193,272,70245,2,0,P|220:288|240:297,1,49.5000015106202,0|2,0:0|0:0,0:0:0:0:
334,325,70745,2,0,P|342:305|352:275,1,49.5000015106202,0|2,0:0|0:3,0:0:0:0:
412,200,71245,2,0,P|431:218|448:244,2,49.5000015106202,0|2|0,0:0|0:0|0:0,0:0:0:0:
278,205,71995,6,0,L|180:178,1,99.0000030212403,2|0,0:0|0:0,0:0:0:0:
43,349,72995,2,0,L|161:342,1,99.0000030212403,2|0,0:3|0:0,0:0:0:0:
323,334,73995,6,0,P|345:295|356:241,1,99.0000030212403
318,153,74745,1,0,0:0:0:0:
265,73,74995,2,0,L|264:19,1,49.5000015106202,2|0,0:3|0:0,0:0:0:0:
358,79,75495,1,2,0:0:0:0:
230,242,75995,6,0,P|181:247|132:244,1,99.0000030212403,8|0,0:0|0:0,0:0:0:0:
57,177,76745,1,0,0:0:0:0:
45,274,76995,2,0,L|50:329,1,49.5000015106202,2|0,0:3|0:0,0:0:0:0:
326,237,77745,1,0,0:0:0:0:
326,237,77995,6,0,P|320:279|258:334,2,99.0000030212403,0|0|2,0:0|0:0|0:3,0:0:0:0:
309,67,79495,1,2,0:0:0:0:
147,97,79995,6,0,L|48:88,1,99.0000030212403,8|0,0:0|0:0,0:0:0:0:
227,242,80995,2,0,L|349:235,1,99.0000030212403,2|0,0:3|0:0,0:0:0:0:
236,67,81995,5,2,0:3:0:0:
147,97,82245,1,0,0:0:0:0:
106,183,82495,1,2,0:0:0:0:
113,279,82745,1,0,0:0:0:0:
113,279,82995,6,0,L|167:298,1,49.5000015106202,2|0,0:0|0:0,0:0:0:0:
243,346,83495,2,0,P|255:318|252:267,1,74.2500022659302,2|0,0:0|0:0,0:0:0:0:
250,264,83995,6,0,L|313:260,1,58.4999973220826,4|0,0:0|0:0,0:0:0:0:
417,171,84495,2,0,L|343:174,1,58.4999973220826,2|0,0:0|0:0,0:0:0:0:
282,106,84995,2,0,L|197:108,2,58.4999973220826,8|0|0,0:3|0:0|0:0,0:0:0:0:
263,7,85745,1,2,0:0:0:0:
139,52,85995,6,0,P|123:109|147:177,1,116.999994644165,2|0,0:0|0:0,0:0:0:0:
282,309,86995,2,0,P|313:308|340:307,2,58.4999973220826,8|0|2,0:3|0:0|0:0,0:0:0:0:
191,365,87745,1,0,0:0:0:0:
117,279,87995,6,0,P|144:263|177:250,1,58.4999973220826,2|0,0:0|0:0,0:0:0:0:
122,140,88495,2,0,P|152:138|202:140,1,58.4999973220826,2|0,0:0|0:0,0:0:0:0:
278,82,88995,2,0,P|258:57|238:35,2,58.4999973220826,8|0|0,0:3|0:0|0:0,0:0:0:0:
325,180,89745,1,2,0:0:0:0:
180,138,89995,6,0,P|113:130|43:134,1,116.999994644165,2|0,0:0|0:0,0:0:0:0:
124,325,90995,2,0,P|184:325|279:312,1,116.999994644165,8|0,0:3|0:0,0:0:0:0:
355,316,91745,1,0,0:0:0:0:
296,209,91995,6,0,B|260:192|212:196|212:196|233:173,1,116.999994644165,4|0,0:0|0:0,0:0:0:0:
492,123,92995,2,0,P|486:184|477:264,1,116.999994644165,8|0,0:3|0:0,0:0:0:0:
395,308,93745,1,2,0:0:0:0:
365,197,93995,6,0,P|313:194|246:195,1,116.999994644165,2|0,0:0|0:0,0:0:0:0:
87,340,94995,2,0,P|144:344|223:340,1,116.999994644165,8|0,0:3|0:0,0:0:0:0:
294,287,95745,1,0,0:0:0:0:
391,357,95995,6,0,L|459:364,1,58.4999973220826,2|0,0:0|0:0,0:0:0:0:
496,244,96495,2,0,L|435:251,1,58.4999973220826,2|0,0:0|0:0,0:0:0:0:
480,145,96995,2,0,P|482:104|445:24,1,116.999994644165,8|2,0:3|0:0,0:0:0:0:
278,20,97995,6,0,L|293:160,1,116.999994644165,2|0,0:0|0:0,0:0:0:0:
245,219,98745,1,0,0:0:0:0:
195,296,98995,2,0,P|196:331|209:377,1,58.4999973220826,8|0,0:3|0:0,0:0:0:0:
317,367,99495,2,0,P|313:339|300:308,1,58.4999973220826,2|0,0:0|0:0,0:0:0:0:
187,223,99995,6,0,P|216:222|252:219,1,58.4999973220826,4|0,0:0|0:0,0:0:0:0:
367,194,100495,2,0,P|364:165|354:122,1,58.4999973220826,2|0,0:0|0:0,0:0:0:0:
267,56,100995,2,0,L|208:48,2,58.4999973220826,8|0|0,0:3|0:0|0:0,0:0:0:0:
378,24,101745,1,2,0:0:0:0:
483,82,101995,6,0,P|483:138|460:212,1,116.999994644165,2|0,0:0|0:0,0:0:0:0:
268,142,102995,2,0,P|209:140|151:142,1,116.999994644165,8|0,0:3|0:0,0:0:0:0:
52,157,103745,1,0,0:0:0:0:
17,248,103995,6,0,L|6:305,1,58.4999973220826,2|0,0:0|0:0,0:0:0:0:
107,284,104495,2,0,L|118:370,1,58.4999973220826,2|0,0:0|0:0,0:0:0:0:
203,291,104995,2,0,L|233:350,2,58.4999973220826,8|0|0,0:3|0:0|0:0,0:0:0:0:
280,220,105745,1,2,0:0:0:0:
230,344,105995,6,0,L|104:334,1,116.999994644165,2|0,0:0|0:0,0:0:0:0:
378,226,106995,2,0,L|511:237,1,116.999994644165,8|0,0:3|0:0,0:0:0:0:
410,330,107745,1,2,0:0:0:0:
276,274,107995,6,0,P|264:217|283:160,1,116.999994644165,4|0,0:0|0:0,0:0:0:0:
481,57,108995,2,0,P|492:115|473:170,1,116.999994644165,8|0,0:3|0:0,0:0:0:0:
378,226,109745,1,2,0:0:0:0:
370,108,109995,6,0,B|338:62|296:43|296:43|287:63,1,116.999994644165,2|0,0:0|0:0,0:0:0:0:
193,259,110995,2,0,P|143:263|76:259,1,116.999994644165,8|0,0:3|0:0,0:0:0:0:
169,164,111745,1,0,0:0:0:0:
222,252,111995,6,0,L|233:319,1,58.4999973220826,2|0,0:0|0:0,0:0:0:0:
323,243,112495,2,0,L|329:165,1,58.4999973220826,2|0,0:0|0:0,0:0:0:0:
345,346,112995,2,0,P|401:357|458:344,1,116.999994644165,8|0,0:3|0:0,0:0:0:0:
483,246,113745,1,2,0:0:0:0:
497,132,113995,6,0,L|380:139,1,116.999994644165,2|0,0:0|0:0,0:0:0:0:
79,174,114995,2,0,P|120:211|184:216,1,116.999994644165,2|0,0:0|0:0,0:0:0:0:
171,110,115745,1,2,0:0:0:0:
51,187,115995,6,0,L|42:322,1,107.999996704102,2|0,0:0|0:0,0:0:0:0:
240,372,116995,2,0,L|235:259,1,107.999996704102,2|2,0:1|0:0,0:0:0:0:
224,80,117995,1,8,0:0:0:0:
416,304,139995,6,0,P|444:264|444:208,1,99.0000030212403,4|0,0:0|0:0,0:0:0:0:
396,128,140745,1,0,0:0:0:0:
396,128,140995,1,8,0:3:0:0:
232,240,141495,2,0,L|240:316,1,49.5000015106202,2|0,0:0|0:0,0:0:0:0:
324,336,141995,6,0,L|336:220,1,99.0000030212403
276,156,142745,1,0,0:0:0:0:
352,96,142995,2,0,P|388:100|420:104,2,49.5000015106202,8|0|2,0:3|0:0|0:0,0:0:0:0:
260,60,143745,1,0,0:0:0:0:
168,20,143995,6,0,P|124:12|68:48,1,99.0000030212403,2|0,0:0|0:0,0:0:0:0:
28,124,144745,1,0,0:0:0:0:
28,124,144995,2,0,P|36:160|44:232,1,99.0000030212403,8|2,0:3|0:0,0:0:0:0:
184,276,145995,6,0,L|192:204,1,49.5000015106202
113,122,146495,2,0,L|107:171,1,49.5000015106202
184,276,146995,1,8,0:3:0:0:
360,184,147495,1,0,0:0:0:0:
288,116,147745,1,0,0:0:0:0:
268,212,147995,6,0,P|271:261|280:328,1,99.0000030212403,2|0,0:0|0:0,0:0:0:0:
360,368,148745,1,0,0:0:0:0:
452,332,148995,1,8,0:3:0:0:
384,148,149495,1,2,0:0:0:0:
364,244,149745,1,0,0:0:0:0:
460,216,149995,6,0,P|465:166|469:117,1,99.0000030212403
408,40,150745,1,0,0:0:0:0:
316,80,150995,2,0,P|267:87|217:92,1,99.0000030212403,8|0,0:3|0:0,0:0:0:0:
45,15,151995,6,0,P|94:23|144:28,1,99.0000030212403,8|0,0:0|0:0,0:0:0:0:
256,192,152995,1,8,0:3:0:0:
164,228,153245,1,0,0:0:0:0:
176,128,153495,1,2,0:0:0:0:
176,128,153995,6,0,L|244:136,1,49.5000015106202,2|0,0:3|0:0,0:0:0:0:
324,120,154495,2,0,L|392:112,1,49.5000015106202,2|0,0:0|0:0,0:0:0:0:
464,156,154995,1,8,0:3:0:0:
456,56,155245,1,0,0:0:0:0:
373,114,155495,2,0,P|384:172|388:200,1,74.2500022659302,2|0,0:0|0:0,0:0:0:0:
384,208,155995,6,0,P|376:243|370:281,1,58.4999973220826,4|0,0:0|0:0,0:0:0:0:
308,336,156495,2,0,P|267:321|204:316,1,87.749995983124,2|0,0:0|0:0,0:0:0:0:
176,316,156995,2,0,P|162:263|160:239,1,58.4999973220826,8|0,0:3|0:0,0:0:0:0:
240,204,157495,1,0,0:0:0:0:
240,204,157745,1,2,0:0:0:0:
156,160,157995,6,0,P|98:149|40:144,1,116.999994644165,2|0,0:0|0:0,0:0:0:0:
240,204,158995,2,0,P|297:193|355:188,1,116.999994644165,8|0,0:3|0:0,0:0:0:0:
448,200,159745,1,0,0:0:0:0:
496,120,159995,6,0,L|488:56,2,58.4999973220826,2|0|0,0:0|0:0|0:0,0:0:0:0:
448,200,160745,1,0,0:0:0:0:
472,292,160995,1,8,0:3:0:0:
296,360,161495,1,0,0:0:0:0:
120,292,161995,5,2,0:0:0:0:
120,292,162245,2,0,P|112:244|104:168,1,116.999994644165,0|2,0:0|0:0,0:0:0:0:
112,84,162995,1,8,0:3:0:0:
200,120,163245,1,0,0:0:0:0:
249,19,163495,2,0,P|220:22|192:27,1,58.4999973220826,2|0,0:0|0:0,0:0:0:0:
316,84,163995,6,0,P|350:92|424:36,1,116.999994644165,4|2,0:0|0:0,0:0:0:0:
500,96,164745,1,0,0:0:0:0:
500,96,164995,2,0,L|488:224,1,116.999994644165,8|0,0:3|0:0,0:0:0:0:
436,288,165745,1,2,0:0:0:0:
360,232,165995,6,0,P|309:217|240:260,2,116.999994644165,2|0|8,0:0|0:0|0:3,0:0:0:0:
312,312,167245,1,0,0:0:0:0:
220,332,167495,2,0,P|176:328|140:320,1,58.4999973220826
72,356,167995,6,0,P|64:320|56:232,1,116.999994644165,2|0,0:0|0:0,0:0:0:0:
72,148,168745,1,0,0:0:0:0:
32,64,168995,2,0,P|89:53|147:45,2,116.999994644165,8|0|2,0:3|0:0|0:0,0:0:0:0:
168,136,170245,6,0,P|225:128|283:117,1,116.999994644165,2|0,0:0|0:0,0:0:0:0:
376,140,170995,1,8,0:3:0:0:
376,140,171495,2,0,P|384:92|388:64,1,58.4999973220826,0|2,0:0|0:0,0:0:0:0:
283,116,171995,6,0,P|287:144|292:173,1,58.4999973220826,4|0,0:0|0:0,0:0:0:0:
364,232,172495,2,0,P|392:227|421:222,1,58.4999973220826,2|0,0:0|0:0,0:0:0:0:
312,312,172995,2,0,P|268:284|196:288,1,116.999994644165,8|0,0:3|0:0,0:0:0:0:
124,332,173745,1,2,0:0:0:0:
40,288,173995,6,0,P|32:252|28:204,2,58.4999973220826,2|0|0,0:0|0:0|0:0,0:0:0:0:
128,240,174745,1,0,0:0:0:0:
148,148,174995,2,0,P|140:84|128:12,1,116.999994644165,8|0,0:3|0:0,0:0:0:0:
40,196,175995,6,0,P|48:260|60:332,1,116.999994644165
140,356,176745,1,0,0:0:0:0:
140,356,176995,2,0,P|186:344|218:338,1,58.4999973220826,8|0,0:3|0:0,0:0:0:0:
292,352,177495,1,2,0:0:0:0:
384,182,177995,6,0,P|354:231|359:288,2,116.999994644165,2|0|8,0:0|0:0|0:3,0:0:0:0:
448,252,179245,2,0,L|451:281|454:310,1,58.4999973220826,2|0,0:0|0:0,0:0:0:0:
359,288,179745,1,2,0:0:0:0:
300,216,179995,6,0,P|302:172|311:76,1,116.999994644165,4|2,0:0|0:0,0:0:0:0:
328,8,180745,1,0,0:0:0:0:
328,8,180995,1,8,0:3:0:0:
384,182,181495,1,0,0:0:0:0:
300,216,181745,1,2,0:0:0:0:
250,114,181995,6,0,P|279:118|308:124,1,58.4999973220826,2|0,0:0|0:0,0:0:0:0:
208,200,182495,2,0,L|179:195|150:190,1,58.4999973220826
56,200,182995,2,0,P|26:219|18:317,1,116.999994644165,8|0,0:3|0:0,0:0:0:0:
68,368,183745,1,0,0:0:0:0:
156,340,183995,6,0,P|152:296|148:260,2,58.4999973220826,2|0|0,0:0|0:0|0:0,0:0:0:0:
244,376,184745,1,0,0:0:0:0:
328,336,184995,2,0,P|372:328|448:368,2,116.999994644165,8|0|2,0:3|0:0|0:0,0:0:0:0:
252,280,186245,5,2,0:0:0:0:
252,280,186495,2,0,P|249:250|246:221,1,58.4999973220826
304,148,186995,2,0,P|306:118|309:89,1,58.4999973220826,8|0,0:3|0:0,0:0:0:0:
208,16,187495,2,0,L|205:45|202:74,1,58.4999973220826,0|2,0:0|0:0,0:0:0:0:
304,148,187995,6,0,P|357:138|410:132,1,107.999996704102,2|0,0:0|0:0,0:0:0:0:
216,192,188995,2,0,P|176:188|144:184,1,53.9999983520508,8|0,0:3|0:0,0:0:0:0:
76,140,189495,2,0,P|72:100|68:68,1,53.9999983520508,2|0,0:1|0:0,0:0:0:0:
162,186,189995,6,0,P|158:234|154:306,1,107.999996704102,2|0,0:1|0:0,0:0:0:0:
154,293,190745,1,0,0:0:0:0:
356,139,199495,6,0,P|338:125|318:114,1,45
324,220,199995,2,0,L|376:212|428:204,1,90,2|0,0:0|0:0,0:0:0:0:
256,168,200870,2,0,L|204:176|136:188,1,112.5,2|0,0:0|0:0,0:0:0:0:
72,224,201745,1,0,0:0:0:0:
20,160,201995,6,0,P|4:124|24:64,1,90,2|0,0:0|0:0,0:0:0:0:
167,181,202995,2,0,P|175:237|180:284,1,90,2|0,0:1|0:0,0:0:0:0:
324,340,203995,2,0,P|329:295|335:250,1,90,2|0,0:0|0:0,0:0:0:0:
328,172,204745,1,0,0:0:0:0:
400,204,204995,6,0,P|432:208|480:160,1,90,2|0,0:0|0:0,0:0:0:0:
380,44,205995,1,0,0:0:0:0:
380,44,206245,2,0,P|343:51|275:62,1,90,2|2,0:0|0:0,0:0:0:0:
220,100,206995,2,0,P|188:104|140:56,1,90,8|0,0:3|0:0,0:0:0:0:
68,104,207745,1,2,0:0:0:0:
68,104,207995,6,0,P|76:152|88:248,1,125.999996154785,4|0,0:0|0:0,0:0:0:0:
88,328,208745,1,0,0:0:0:0:
184,356,208995,2,0,P|223:363|312:307,1,125.999996154785,8|0,0:3|0:0,0:0:0:0:
364,252,209745,1,2,0:0:0:0:
364,252,209995,6,0,P|426:245|489:241,1,125.999996154785,2|0,0:0|0:0,0:0:0:0:
328,69,210995,2,0,P|287:114|292:176,1,125.999996154785,8|0,0:3|0:0,0:0:0:0:
364,252,211745,1,0,0:0:0:0:
264,272,211995,6,0,P|232:267|201:264,2,62.9999980773926,2|0|0,0:0|0:0|0:0,0:0:0:0:
291,175,212745,1,0,0:0:0:0:
204,128,212995,2,0,P|164:132|80:144,2,125.999996154785,8|2|2,0:3|0:0|0:0,0:0:0:0:
291,175,214245,6,0,P|352:168|404:108,1,125.999996154785,2|0,0:0|0:0,0:0:0:0:
403,24,214995,1,8,0:3:0:0:
299,20,215245,2,0,P|304:52|310:83,2,62.9999980773926,2|0|0,0:0|0:0|0:0,0:0:0:0:
397,124,215995,6,0,P|393:164|385:268,1,125.999996154785,4|2,0:0|0:0,0:0:0:0:
405,347,216745,1,0,0:0:0:0:
485,283,216995,1,8,0:3:0:0:
285,219,217495,1,0,0:0:0:0:
309,315,217745,1,2,0:0:0:0:
224,364,217995,6,0,P|160:364|104:308,1,125.999996154785,2|0,0:0|0:0,0:0:0:0:
172,153,218995,2,0,P|204:206|196:268,1,125.999996154785,8|0,0:3|0:0,0:0:0:0:
104,232,219745,1,0,0:0:0:0:
16,180,219995,6,0,P|21:139|23:99,1,62.9999980773926,2|0,0:0|0:0,0:0:0:0:
104,12,220495,2,0,P|107:43|112:75,1,62.9999980773926
172,153,220995,2,0,P|164:213|156:285,1,125.999996154785,8|0,0:3|0:0,0:0:0:0:
212,364,221745,1,2,0:0:0:0:
312,336,221995,6,0,L|304:273|296:210,1,125.999996154785,2|0,0:0|0:0,0:0:0:0:
264,116,222745,1,2,0:0:0:0:
200,192,222995,1,8,0:3:0:0:
296,210,223245,1,0,0:0:0:0:
364,136,223495,2,0,L|368:88,1,31.4999990386963
296,24,223995,6,0,P|252:16|188:12,2,90,2|0|0,0:1|0:0|0:0,0:0:0:0:
428,280,225995,6,0,P|360:285|294:295,1,135,2|0,0:0|0:0,0:0:0:0:
76,216,229995,6,0,P|44:184|40:128,1,90,4|0,0:0|0:0,0:0:0:0:
60,52,230745,1,2,0:0:0:0:
60,52,230995,2,0,P|112:57|164:66,2,90,2|2|2,0:3|0:0|0:0,0:0:0:0:
164,200,232495,5,0,0:0:0:0:
244,160,232745,1,2,0:0:0:0:
168,112,232995,1,2,0:3:0:0:
112,284,233495,1,2,0:0:0:0:
288,256,233995,6,0,P|296:208|300:156,1,90,2|0,0:0|0:0,0:0:0:0:
272,80,234745,1,2,0:0:0:0:
212,144,234995,1,2,0:3:0:0:
372,224,235495,1,2,0:0:0:0:
444,60,235995,6,0,P|412:56|340:48,1,90
272,80,236745,1,2,0:0:0:0:
272,80,236995,2,0,P|280:120|288:184,1,90,2|0,0:3|0:0,0:0:0:0:
208,212,237745,1,2,0:0:0:0:
156,140,237995,6,0,P|161:95|170:51,1,90,4|0,0:0|0:0,0:0:0:0:
92,8,238745,1,2,0:0:0:0:
40,84,238995,2,0,P|44:108|56:188,1,90,2|0,0:3|0:0,0:0:0:0:
100,252,239745,1,2,0:0:0:0:
100,252,239995,5,2,0:0:0:0:
280,224,240495,1,0,0:0:0:0:
252,308,240745,1,2,0:0:0:0:
192,240,240995,1,2,0:3:0:0:
360,172,241495,1,2,0:0:0:0:
420,340,241995,6,0,P|388:344|316:352,1,90,2|0,0:0|0:0,0:0:0:0:
252,308,242745,1,2,0:0:0:0:
252,308,242995,2,0,P|256:263|262:218,1,90,8|0,0:3|0:0,0:0:0:0:
192,52,243995,6,0,P|160:48|88:40,1,90
28,92,244745,1,2,0:0:0:0:
28,92,244995,2,0,P|32:136|38:181,1,90,2|0,0:3|0:0,0:0:0:0:
72,264,245745,1,0,0:0:0:0:
72,264,245995,6,0,L|68:312,2,40.4999987640381,2|0|0,0:0|0:0|0:0,0:0:0:0:
120,196,246745,1,2,0:0:0:0:
120,196,246995,1,2,0:0:0:0:
256,284,247495,1,2,0:0:0:0:
392,195,247995,6,0,P|394:175|397:155,1,40.4999987640381,2|0,0:0|0:0,0:0:0:0:
316,168,248495,2,0,L|313:188|310:208,1,40.4999987640381,0|2,0:0|0:0,0:0:0:0:
364,276,248995,2,0,P|400:272|456:264,1,80.9999975280763,2|2,0:0|0:0,0:0:0:0:
276,248,249995,6,0,P|240:252|196:260,1,72,2|0,0:0|0:0,0:0:0:0:
136,284,250922,1,2,0:0:0:0:
68,256,251232,1,2,0:0:0:0:
256,192,253706,12,2,258923,0:0:0:0:
