osu file format v14

[General]
AudioFilename: cc.mp3
AudioLeadIn: 2000
PreviewTime: 53359
Countdown: 0
SampleSet: Soft
StackLeniency: 0.6
Mode: 0
LetterboxInBreaks: 0
WidescreenStoryboard: 0

[Editor]
Bookmarks: 25,13359,26692,40025,53359,66692,80025,93359,106692,120025,133359,146692,160025,166692,173359,186692,200025,213359,226692,233359
DistanceSpacing: 1.3
BeatDivisor: 4
GridSize: 4
TimelineZoom: 1

[Metadata]
Title:Cao Cao
TitleUnicode:曹操
Artist:JJ Lin
ArtistUnicode:林俊傑
Creator:liangv587
Version:Normal
Source:
Tags:Hollow Wings 林俊杰 jun jie
BeatmapID:673060
BeatmapSetID:300076

[Difficulty]
HPDrainRate:3
CircleSize:3.5
OverallDifficulty:3.5
ApproachRate:4.5
SliderMultiplier:1.2
SliderTickRate:1

[Events]
//Background and Video events
0,0,"69982.jpg",0,0
//Break Periods
2,93463,104495
2,160130,165536
//Storyboard Layer 0 (Background)
//Storyboard Layer 1 (Fail)
//Storyboard Layer 2 (Pass)
//Storyboard Layer 3 (Foreground)
//Storyboard Sound Samples

[TimingPoints]
130,416.666666666667,4,2,1,30,1,0
13359,-100,4,2,1,60,0,0
26692,-125,4,2,1,40,0,0
38359,-100,4,2,1,50,0,0
39192,-100,4,2,1,60,0,0
51796,-100,4,2,0,40,0,0
52005,-100,4,3,0,40,0,0
52213,-100,4,2,0,70,0,0
52421,-100,4,1,0,70,0,0
52630,-100,4,1,1,70,0,0
53463,-90.9090909090909,4,2,1,70,0,1
66171,-90.9090909090909,4,2,1,70,0,0
66796,-90.9090909090909,4,2,1,70,0,1
80130,-100,4,2,1,60,0,0
93359,-100,4,2,1,40,0,0
105650,-100,4,2,1,50,0,0
106692,-100,4,2,1,60,0,0
118359,-100,4,2,0,40,0,0
118671,-100,4,3,0,40,0,0
118880,-100,4,2,0,70,0,0
119088,-100,4,1,0,70,0,0
119296,-100,4,2,1,60,0,0
120130,-90.9090909090909,4,2,1,70,0,1
132838,-90.9090909090909,4,2,1,70,0,0
133463,-90.9090909090909,4,2,1,70,0,1
146796,-100,4,2,1,60,0,0
166692,-100,4,2,1,70,0,0
171692,-100,4,2,0,40,0,0
172005,-100,4,3,0,40,0,0
172213,-100,4,2,0,70,0,0
172421,-100,4,1,0,70,0,0
172630,-100,4,1,1,70,0,0
173463,-90.9090909090909,4,2,1,70,0,1
186171,-90.9090909090909,4,2,1,70,0,0
186796,-90.9090909090909,4,2,1,70,0,1
200130,-100,4,2,1,70,0,0
213359,-100,4,2,1,60,0,0
233359,-100,4,2,1,40,0,0
235546,-100,4,2,1,50,0,0
237213,-100,4,2,1,40,0,0
237630,-100,4,2,1,30,0,0
238046,-100,4,2,1,20,0,0
238463,-100,4,2,1,10,0,0
238671,-100,4,2,1,5,0,0

[Colours]
Combo1 : 128,0,0
Combo2 : 0,64,128
Combo3 : 128,64,64
Combo4 : 128,0,255

[HitObjects]
233,335,13463,6,0,P|294:344|352:340,1,120,6|0,1:0|0:0,0:0:0:0:
482,255,14296,2,0,L|495:191,1,60,8|2,0:0|0:1,0:0:0:0:
466,42,14921,1,0,0:0:0:0:
423,108,15130,2,0,L|410:173,1,60,2|8,0:1|0:0,0:0:0:0:
355,221,15546,2,0,P|295:225|236:215,1,120,2|8,0:1|0:0,0:0:0:0:
15,31,16796,6,0,P|74:26|133:36,1,120,4|0,1:2|0:0,0:0:0:0:
108,190,17629,2,0,L|47:206,1,60,8|2,0:0|0:1,0:0:0:0:
26,359,18254,1,2,0:1:0:0:
105,357,18463,2,0,L|163:341,1,60,2|8,0:1|0:0,0:0:0:0:
201,273,18879,2,0,P|207:203|204:140,1,120,2|8,0:1|0:0,0:0:0:0:
282,19,19713,1,8,0:0:0:0:
322,85,19921,1,2,0:1:0:0:
332,162,20130,6,0,P|335:222|326:294,1,120,6|0,1:0|0:0,0:0:0:0:
458,367,20963,2,0,L|471:306,1,60,8|2,0:0|0:1,0:0:0:0:
464,152,21588,1,2,0:1:0:0:
412,93,21796,2,0,L|426:27,1,60,2|8,0:1|0:0,0:0:0:0:
347,22,22213,2,0,P|280:22|212:38,1,120,2|8,0:1|0:0,0:0:0:0:
12,258,23463,6,0,P|79:258|147:242,1,120,4|0,1:2|0:0,0:0:0:0:
159,94,24296,2,0,L|137:25,1,60,8|2,0:0|0:1,0:0:0:0:
268,126,24921,1,2,0:1:0:0:
342,150,25130,2,0,L|364:219,1,60,2|8,0:1|0:0,0:0:0:0:
325,277,25546,2,0,P|270:311|210:332,1,120,2|8,0:1|0:0,0:0:0:0:
95,112,26796,6,0,P|50:129|3:156,2,96,2|0|2,0:0|0:0|0:0,0:0:0:0:
344,120,28463,2,0,P|388:103|430:79,2,96,2|0|2,0:0|0:0|0:0,0:0:0:0:
175,304,30130,6,0,P|133:327|88:345,2,96,2|0|2,0:0|0:0|0:0,0:0:0:0:
224,60,31796,2,0,P|265:36|310:19,2,96,2|0|2,0:0|0:0|0:0,0:0:0:0:
198,182,33046,1,0,0:0:0:0:
258,291,33463,6,0,P|317:305|360:309,1,96,2|0,0:0|0:0,0:0:0:0:
471,272,34296,1,2,0:0:0:0:
443,23,35130,2,0,P|382:20|339:24,1,96,2|0,0:0|0:0,0:0:0:0:
239,86,35963,1,2,0:0:0:0:
167,322,36796,2,0,P|213:309|257:290,1,96,2|0,0:0|0:0,0:0:0:0:
362,222,37630,1,2,0:0:0:0:
118,27,38463,6,0,P|82:33|49:44,1,60,2|0,0:0|0:0,0:0:0:0:
29,112,38880,2,0,P|34:145|45:178,1,60,2|0,0:0|0:0,0:0:0:0:
115,196,39296,2,0,P|152:189|186:177,1,60,10|8,0:0|0:3,0:0:0:0:
206,111,39713,2,0,P|200:78|190:45,1,60,4|4,0:3|0:3,0:0:0:0:
271,40,40130,6,0,P|332:38|413:22,1,120,6|0,0:0|0:0,0:0:0:0:
455,73,40755,1,0,0:0:0:0:
475,148,40963,1,8,0:0:0:0:
384,363,41588,2,0,P|384:305|368:232,1,120,2|8,0:0|0:0,0:0:0:0:
310,196,42213,2,0,P|275:200|243:197,1,60,2|0,0:0|0:0,0:0:0:0:
173,182,42630,1,8,0:0:0:0:
20,359,43255,6,0,P|17:299|23:239,1,120
85,192,43880,2,0,P|90:165|91:122,1,60,2|0,0:0|0:0,0:0:0:0:
75,56,44296,1,8,0:0:0:0:
164,272,44921,2,0,P|219:282|290:283,1,120,2|8,0:0|0:0,0:0:0:0:
334,224,45546,2,0,P|340:193|340:162,1,60,0|2,0:0|0:0,0:0:0:0:
302,96,45963,2,0,P|247:86|176:85,1,120,8|2,0:0|0:0,0:0:0:0:
27,97,46796,5,4,0:0:0:0:
33,252,47213,1,2,0:1:0:0:
91,303,47421,2,0,P|153:312|226:309,1,120,2|0,0:0|0:0,0:0:0:0:
207,232,48046,2,0,P|205:172|214:111,1,120,2|0,0:0|0:0,0:0:0:0:
283,147,48671,2,0,P|339:141|413:151,1,120,8|2,0:0|0:0,0:0:0:0:
379,223,49296,2,0,L|368:356,1,120,8|2,0:0|0:0,0:0:0:0:
444,364,49921,1,8,0:0:0:0:
486,298,50130,6,0,L|497:167,1,120,2|2,0:0|0:0,0:0:0:0:
477,102,50755,1,0,0:0:0:0:
402,78,50963,2,0,L|338:81,1,60,8|2,0:0|0:0,0:0:0:0:
292,20,51380,2,0,L|223:24,1,60,0|2,0:0|0:0,0:0:0:0:
230,101,51796,6,0,P|183:192|113:116,1,240,2|8,0:0|0:2,0:0:0:0:
164,58,52838,1,4,0:3:0:0:
405,147,53463,6,0,P|375:227|331:277,1,132.00000402832,6|2,1:0|1:0,0:0:0:0:
286,315,54088,2,0,P|252:309|204:311,1,66.0000020141602,0|8,0:0|0:0,0:0:0:0:
146,336,54505,2,0,P|81:299|33:239,1,132.00000402832,2|0,0:0|0:0,0:0:0:0:
14,182,55130,1,2,1:0:0:0:
76,36,55546,1,2,1:0:0:0:
138,181,55963,1,8,0:0:0:0:
313,21,56588,1,0,1:0:0:0:
365,79,56796,6,0,P|423:90|506:90,1,132.00000402832,2|2,1:0|1:0,0:0:0:0:
484,169,57421,2,0,P|485:206|490:243,1,66.0000020141602,2|8,0:0|0:0,0:0:0:0:
504,312,57838,1,2,0:0:0:0:
269,349,58463,1,2,1:0:0:0:
194,321,58671,2,0,P|135:309|53:310,1,132.00000402832,8|2,0:0|1:2,0:0:0:0:
23,240,59296,2,0,P|22:178|33:110,1,132.00000402832,8|2,0:0|1:2,0:0:0:0:
82,46,59921,1,8,0:0:0:0:
142,97,60130,6,0,P|143:159|132:227,1,132.00000402832,6|2,1:2|1:0,0:0:0:0:
209,245,60755,2,0,P|245:247|287:242,1,66.0000020141602,0|8,0:0|0:0,0:0:0:0:
354,233,61171,1,2,0:0:0:0:
241,23,61796,2,0,P|205:21|163:26,2,66.0000020141602,2|8|2,1:0|0:0|1:0,0:0:0:0:
320,31,62421,2,0,P|325:70|323:110,1,66.0000020141602,2|8,0:0|0:0,0:0:0:0:
306,174,62838,1,2,0:0:0:0:
146,350,63463,2,0,P|76:362|14:361,2,132.00000402832,2|2|8,1:0|1:0|1:2,0:0:0:0:
78,40,65130,6,0,P|74:114|84:175,1,132.00000402832,6|8,1:2|0:3,0:0:0:0:
104,247,65755,2,0,P|73:260|29:268,2,66.0000020141602,2|8|6,0:1|0:0|1:2,0:0:0:0:
275,86,66796,6,0,P|279:160|269:221,1,132.00000402832,6|2,1:0|1:0,0:0:0:0:
245,292,67421,2,0,P|279:298|313:312,1,66.0000020141602,2|8,0:0|0:0,0:0:0:0:
376,350,67838,2,0,P|417:295|442:231,1,132.00000402832,2|0,0:0|0:0,0:0:0:0:
435,157,68463,2,0,P|400:158|361:167,2,66.0000020141602,2|8|2,1:0|0:0|1:0,0:0:0:0:
457,80,69088,2,0,P|466:43|464:5,1,66.0000020141602,2|8,0:0|0:0,0:0:0:0:
228,24,69921,1,0,1:0:0:0:
195,95,70129,6,0,P|140:106|59:112,1,132.00000402832,2|2,1:0|1:0,0:0:0:0:
28,183,70754,2,0,P|29:220|34:257,1,66.0000020141602,2|8,0:0|0:0,0:0:0:0:
67,320,71171,1,2,0:0:0:0:
300,363,71796,1,2,1:0:0:0:
197,242,72213,2,0,P|193:209|192:176,1,66.0000020141602,0|2,0:0|1:2,0:0:0:0:
260,136,72630,2,0,P|292:130|331:130,1,66.0000020141602,8|8,0:0|0:3,0:0:0:0:
398,158,73046,2,0,P|401:190|402:223,1,66.0000020141602,8|8,0:0|0:0,0:0:0:0:
376,298,73463,6,0,P|312:307|237:302,1,132.00000402832,6|2,1:2|1:0,0:0:0:0:
166,313,74088,2,0,P|133:327|95:335,1,66.0000020141602,2|8,0:0|0:0,0:0:0:0:
25,323,74504,1,2,0:0:0:0:
107,99,75130,2,0,P|74:106|44:119,2,66.0000020141602,2|8|0,1:0|0:0|0:0,0:0:0:0:
183,121,75755,2,0,P|205:153|215:183,1,66.0000020141602,2|8,1:2|0:0,0:0:0:0:
223,256,76171,1,0,0:0:0:0:
329,43,76796,6,0,P|400:40|461:54,2,132.00000402832,2|2|8,1:0|1:0|1:2,0:0:0:0:
290,196,78046,1,8,0:0:0:0:
317,270,78255,1,2,1:0:0:0:
390,299,78463,2,0,P|398:327|417:361,2,66.0000020141602,4|8|2,1:2|0:0|0:1,0:0:0:0:
452,249,79088,1,8,0:0:0:0:
340,136,79505,1,6,0:0:0:0:
289,346,80130,6,0,P|228:356|170:351,1,120,6|2,1:0|0:0,0:0:0:0:
26,289,80963,2,0,L|13:225,1,60,8|2,0:0|0:0,0:0:0:0:
26,74,81588,1,2,0:1:0:0:
82,128,81797,2,0,L|95:193,1,60,2|8,1:0|0:0,0:0:0:0:
147,243,82213,2,0,P|207:247|266:237,1,120,2|8,0:0|0:0,0:0:0:0:
500,30,83463,6,0,P|441:25|382:35,1,120,4|2,0:0|0:0,0:0:0:0:
401,190,84296,2,0,L|462:206,1,60,8|2,0:0|0:0,0:0:0:0:
484,359,84921,1,2,0:1:0:0:
406,352,85130,2,0,L|348:336,1,60,2|8,1:0|0:0,0:0:0:0:
327,260,85546,2,0,P|321:190|324:127,1,120,8|8,0:3|0:0,0:0:0:0:
230,13,86380,1,2,1:0:0:0:
194,83,86588,1,2,1:2:0:0:
180,160,86797,6,0,P|177:220|186:292,1,120,6|2,1:0|0:0,0:0:0:0:
56,370,87630,2,0,L|43:309,1,60,8|2,0:0|0:0,0:0:0:0:
42,155,88255,1,2,0:1:0:0:
96,99,88463,2,0,L|82:33,1,60,2|8,1:0|0:0,0:0:0:0:
159,22,88880,2,0,P|226:22|294:38,1,120,2|8,0:0|0:0,0:0:0:0:
495,256,90130,6,0,P|428:256|360:240,1,120,4|2,0:0|0:0,0:0:0:0:
353,90,90963,2,0,L|375:21,1,60,8|2,0:0|0:0,0:0:0:0:
246,126,91588,1,2,0:1:0:0:
169,143,91797,2,0,L|147:212,1,60,2|8,1:0|0:0,0:0:0:0:
180,272,92213,2,0,P|235:306|295:327,2,120,2|8|8,0:0|0:0|0:3,0:0:0:0:
187,257,105755,5,4,0:3:0:0:
121,215,105963,2,0,P|97:188|78:151,1,60,8|2,0:0|0:1,0:0:0:0:
85,89,106380,2,0,P|112:67|143:51,1,60,2|2,1:0|0:1,0:0:0:0:
202,92,106796,6,0,P|263:90|344:74,1,120,6|0,0:0|0:0,0:0:0:0:
391,45,107421,1,2,0:0:0:0:
442,103,107629,1,8,0:0:0:0:
408,334,108254,2,0,P|395:277|392:203,1,120,2|8,0:0|0:0,0:0:0:0:
321,179,108879,2,0,P|291:183|253:185,1,60,0|2,0:0|0:0,0:0:0:0:
184,171,109296,1,8,0:0:0:0:
41,356,109921,6,0,P|38:296|44:236,1,120,8|0,0:0|0:0,0:0:0:0:
115,268,110546,2,0,P|146:275|186:275,1,60,2|0,0:0|0:0,0:0:0:0:
251,278,110962,1,8,0:0:0:0:
296,48,111588,2,0,P|238:36|163:32,1,120,2|8,0:0|0:0,0:0:0:0:
106,64,112212,2,0,P|105:93|108:129,1,60,0|2,0:0|0:0,0:0:0:0:
177,157,112629,2,0,P|237:152|304:135,1,120,8|8,0:0|0:0,0:0:0:0:
360,94,113255,1,0,0:0:0:0:
434,114,113462,5,4,0:0:0:0:
497,257,113880,1,2,0:1:0:0:
432,299,114088,2,0,P|371:316|307:320,1,120,2|0,0:0|0:0,0:0:0:0:
323,242,114713,2,0,P|317:188|286:122,1,120,2|0,0:0|0:0,0:0:0:0:
223,168,115338,2,0,P|160:163|98:174,1,120,8|2,0:0|0:0,0:0:0:0:
136,244,115963,2,0,L|144:378,1,120,8|2,0:0|0:0,0:0:0:0:
66,375,116587,1,8,0:0:0:0:
17,313,116796,6,0,L|8:190,1,120,2|0,0:0|0:0,0:0:0:0:
40,122,117421,1,2,0:0:0:0:
116,105,117629,2,0,L|183:93,1,60,8|2,0:0|0:0,0:0:0:0:
245,234,118255,1,2,0:0:0:0:
252,311,118463,6,0,P|317:385|353:289,1,240,4|8,0:0|0:0,0:0:0:0:
338,213,119505,1,8,0:3:0:0:
410,241,119713,2,0,L|469:230,1,60,0|8,0:0|0:0,0:0:0:0:
500,157,120130,6,0,P|470:77|426:27,1,132.00000402832,6|2,1:0|1:0,0:0:0:0:
374,83,120755,2,0,P|340:89|292:87,1,66.0000020141602,0|8,0:0|0:0,0:0:0:0:
249,36,121172,2,0,P|181:39|108:57,1,132.00000402832,2|0,0:0|0:0,0:0:0:0:
61,108,121797,1,2,1:0:0:0:
36,264,122213,1,2,1:0:0:0:
164,170,122630,1,8,0:0:0:0:
288,372,123255,1,0,1:0:0:0:
339,311,123463,6,0,P|397:300|480:300,1,132.00000402832,2|2,1:0|1:0,0:0:0:0:
469,219,124088,2,0,P|470:182|475:145,1,66.0000020141602,2|8,0:0|0:0,0:0:0:0:
491,75,124505,1,2,0:0:0:0:
258,24,125130,1,2,1:0:0:0:
182,48,125338,2,0,P|123:60|41:59,1,132.00000402832,8|2,0:0|1:2,0:0:0:0:
32,137,125963,2,0,P|31:199|42:267,1,132.00000402832,8|2,0:0|1:2,0:0:0:0:
83,335,126588,1,8,0:0:0:0:
148,290,126797,6,0,P|149:228|138:160,1,132.00000402832,6|2,1:2|1:0,0:0:0:0:
207,121,127422,2,0,P|243:119|285:124,1,66.0000020141602,0|8,0:0|0:0,0:0:0:0:
345,153,127838,1,2,0:0:0:0:
242,367,128463,2,0,P|206:369|164:364,2,66.0000020141602,2|8|2,1:0|0:0|1:0,0:0:0:0:
317,343,129088,2,0,P|319:304|313:263,1,66.0000020141602,2|8,0:0|0:0,0:0:0:0:
288,202,129505,1,2,0:0:0:0:
147,37,130130,2,0,P|77:25|15:26,2,132.00000402832,2|2|8,1:0|1:0|1:2,0:0:0:0:
86,327,131797,6,0,P|82:253|92:192,1,132.00000402832,6|8,1:2|0:3,0:0:0:0:
121,122,132422,2,0,P|90:109|46:101,2,66.0000020141602,2|8|6,0:1|0:0|1:2,0:0:0:0:
264,311,133463,6,0,P|268:237|258:176,1,132.00000402832,6|2,1:0|1:0,0:0:0:0:
236,103,134088,2,0,P|266:93|296:77,1,66.0000020141602,2|8,0:0|0:0,0:0:0:0:
358,27,134505,2,0,P|399:89|422:148,1,132.00000402832,2|0,0:0|0:0,0:0:0:0:
411,221,135130,2,0,P|376:220|337:211,2,66.0000020141602,2|8|2,1:0|0:0|1:0,0:0:0:0:
424,299,135755,2,0,P|435:332|452:366,1,66.0000020141602,2|8,0:0|0:0,0:0:0:0:
211,352,136588,1,0,1:0:0:0:
181,278,136796,6,0,P|126:267|45:261,1,132.00000402832,2|2,1:0|1:0,0:0:0:0:
12,190,137421,2,0,P|13:153|18:116,1,66.0000020141602,2|8,0:0|0:0,0:0:0:0:
61,58,137838,1,2,0:0:0:0:
295,22,138463,1,2,1:0:0:0:
195,145,138880,2,0,P|191:178|190:211,1,66.0000020141602,0|2,0:0|1:2,0:0:0:0:
251,261,139297,2,0,P|283:267|322:267,1,66.0000020141602,8|8,0:0|0:3,0:0:0:0:
385,229,139713,2,0,P|388:197|389:164,1,66.0000020141602,8|8,0:0|0:0,0:0:0:0:
372,85,140130,6,0,P|308:76|233:81,1,132.00000402832,6|2,1:2|1:0,0:0:0:0:
161,75,140755,2,0,P|128:61|90:53,1,66.0000020141602,2|8,0:0|0:0,0:0:0:0:
19,59,141171,1,2,0:0:0:0:
81,288,141797,2,0,P|48:281|18:268,2,66.0000020141602,2|8|0,1:0|0:0|0:0,0:0:0:0:
160,281,142422,2,0,P|182:249|192:219,1,66.0000020141602,2|8,1:2|0:0,0:0:0:0:
195,145,142838,1,0,0:0:0:0:
327,342,143463,6,0,P|398:345|459:331,2,132.00000402832,2|2|8,1:0|1:0|1:2,0:0:0:0:
295,186,144713,1,8,0:0:0:0:
323,111,144922,1,2,1:0:0:0:
398,86,145130,2,0,P|406:58|425:24,2,66.0000020141602,4|0|2,1:2|0:0|0:1,0:0:0:0:
460,134,145755,1,0,0:0:0:0:
346,245,146172,1,6,0:0:0:0:
276,52,146796,6,0,P|215:43|157:47,1,120,6|0,0:1|0:0,0:0:0:0:
70,130,147630,2,0,P|131:139|189:135,1,120,8|0,0:0|0:0,0:0:0:0:
117,231,148463,2,0,P|108:292|112:350,1,120,2|2,0:0|0:1,0:0:0:0:
228,321,149296,2,0,P|237:260|233:202,1,120,8|0,0:0|0:0,0:0:0:0:
245,82,150130,6,0,P|306:73|364:77,1,120,4|0,0:0|0:0,0:0:0:0:
457,152,150963,2,0,P|396:161|338:157,1,120,8|0,0:0|0:0,0:0:0:0:
413,250,151796,2,0,P|422:311|418:369,1,120,2|2,0:0|0:1,0:0:0:0:
302,337,152629,2,0,P|293:276|297:218,1,120,8|8,0:0|0:0,0:0:0:0:
181,250,153463,6,0,P|120:259|62:255,1,120,4|0,0:0|0:0,0:0:0:0:
125,153,154296,2,0,P|186:144|244:148,1,120,8|0,0:0|0:0,0:0:0:0:
347,208,155130,2,0,P|349:144|340:79,1,120,2|2,0:0|0:1,0:0:0:0:
453,43,155963,2,0,P|451:107|460:172,1,120,8|0,0:0|0:0,0:0:0:0:
443,281,156796,6,0,P|383:290|324:285,1,120,4|0,0:0|0:0,0:0:0:0:
228,213,157630,2,0,P|287:204|346:207,1,120,8|0,0:0|0:0,0:0:0:0:
256,128,158463,2,0,P|254:64|263:-1,1,120,2|2,0:0|0:1,0:0:0:0:
144,36,159296,2,0,P|151:95|148:155,1,120,8|8,0:0|0:0,0:0:0:0:
147,155,166796,5,6,0:0:0:0:
46,274,167213,2,0,L|65:333,1,60,8|2,0:0|0:0,0:0:0:0:
217,359,167838,1,2,0:0:0:0:
251,289,168046,1,8,0:0:0:0:
385,368,168463,2,0,L|407:296,1,60,0|2,0:0|0:0,0:0:0:0:
504,192,169088,1,2,0:0:0:0:
430,165,169296,2,0,P|426:97|436:34,1,120,8|2,0:0|0:0,0:0:0:0:
311,144,170130,6,0,P|205:129|258:36,1,240,12|8,0:0|0:0,0:0:0:0:
318,66,171171,1,2,0:1:0:0:
361,216,171588,1,2,0:1:0:0:
288,244,171796,6,0,B|214:255|158:207|158:207|113:171|54:196,1,240,4|8,0:0|0:2,0:0:0:0:
23,259,172838,1,2,2:1:0:0:
95,288,173046,2,0,P|97:323|92:359,1,60,8|8,0:2|0:2,0:0:0:0:
173,347,173463,6,0,P|238:360|315:355,1,132.00000402832,6|2,1:0|1:0,0:0:0:0:
347,290,174088,2,0,P|378:287|423:291,1,66.0000020141602,0|8,0:0|0:0,0:0:0:0:
489,308,174505,2,0,P|486:240|495:166,1,132.00000402832,2|0,0:0|0:0,0:0:0:0:
460,104,175130,1,2,1:0:0:0:
342,209,175546,1,2,1:0:0:0:
332,50,175963,1,8,0:0:0:0:
133,180,176588,1,0,1:0:0:0:
55,162,176796,6,0,P|44:104|44:21,1,132.00000402832,2|2,1:0|1:0,0:0:0:0:
121,46,177421,2,0,P|158:45|195:40,1,66.0000020141602,2|8,0:0|0:0,0:0:0:0:
262,18,177838,1,2,0:0:0:0:
178,240,178463,1,2,1:0:0:0:
256,248,178671,2,0,P|316:244|395:222,1,132.00000402832,8|2,0:0|1:2,0:0:0:0:
432,161,179296,2,0,P|428:100|406:21,1,132.00000402832,8|2,0:0|1:2,0:0:0:0:
333,11,179921,1,8,0:0:0:0:
254,25,180130,6,0,P|253:87|264:155,1,132.00000402832,6|2,1:2|1:0,0:0:0:0:
185,143,180755,2,0,P|148:145|110:150,1,66.0000020141602,0|8,0:0|0:0,0:0:0:0:
41,163,181171,1,2,0:0:0:0:
163,366,181796,2,0,P|196:364|229:361,2,66.0000020141602,2|8|2,1:0|0:0|1:0,0:0:0:0:
83,364,182421,2,0,P|75:328|72:288,1,66.0000020141602,2|8,0:0|0:0,0:0:0:0:
95,222,182838,1,2,0:0:0:0:
309,323,183463,2,0,P|379:335|441:334,2,132.00000402832,2|2|8,1:0|1:0|1:2,0:0:0:0:
144,51,185130,6,0,P|218:47|279:57,1,132.00000402832,6|8,1:2|0:3,0:0:0:0:
341,100,185755,2,0,P|372:87|416:79,2,66.0000020141602,2|8|6,0:1|0:0|1:2,0:0:0:0:
241,315,186796,6,0,P|237:241|247:180,1,132.00000402832,6|2,1:0|1:0,0:0:0:0:
167,168,187421,2,0,P|135:168|96:160,1,66.0000020141602,2|8,0:0|0:0,0:0:0:0:
26,135,187838,2,0,P|16:200|21:274,1,132.00000402832,2|0,0:0|0:0,0:0:0:0:
94,292,188463,2,0,P|93:327|84:366,2,66.0000020141602,2|8|2,1:0|0:0|1:0,0:0:0:0:
173,291,189088,2,0,P|205:291|244:299,1,66.0000020141602,2|8,0:0|0:0,0:0:0:0:
469,350,189921,1,0,1:0:0:0:
448,273,190129,6,0,P|393:262|312:256,1,132.00000402832,2|2,1:0|1:0,0:0:0:0:
288,181,190754,2,0,P|289:144|294:107,1,66.0000020141602,2|8,0:0|0:0,0:0:0:0:
365,83,191171,1,2,0:0:0:0:
137,12,191796,1,2,1:0:0:0:
206,154,192213,2,0,P|210:187|211:220,1,66.0000020141602,0|2,0:0|1:2,0:0:0:0:
144,263,192630,2,0,P|112:269|73:269,1,66.0000020141602,8|8,0:0|0:3,0:0:0:0:
8,232,193046,2,0,P|5:200|4:167,1,66.0000020141602,8|8,0:0|0:0,0:0:0:0:
32,92,193463,6,0,P|96:83|171:88,1,132.00000402832,6|2,1:2|1:0,0:0:0:0:
242,82,194088,2,0,P|279:76|324:60,1,66.0000020141602,2|8,0:0|0:0,0:0:0:0:
375,27,194504,1,2,0:0:0:0:
439,256,195130,2,0,P|472:249|502:236,2,66.0000020141602,2|8|0,1:0|0:0|0:0,0:0:0:0:
359,253,195755,2,0,P|337:221|327:191,1,66.0000020141602,2|8,1:2|0:0,0:0:0:0:
351,120,196171,1,0,0:0:0:0:
280,346,196796,6,0,P|209:349|148:335,2,132.00000402832,2|2|8,1:0|1:0|1:2,0:0:0:0:
291,267,197838,1,8,0:3:0:0:
262,193,198046,2,0,P|229:191|182:193,1,66.0000020141602,8|2,0:0|1:0,0:0:0:0:
148,255,198463,2,0,P|83:268|8:265,1,132.00000402832,4|2,1:2|0:1,0:0:0:0:
13,187,199088,1,8,0:0:0:0:
34,110,199296,2,0,P|29:86|25:38,2,66.0000020141602,2|6|8,0:0|0:0|0:0,0:0:0:0:
113,117,199921,1,2,0:0:0:0:
162,177,200130,6,0,P|226:164|278:140,1,120,6|2,1:0|0:1,0:0:0:0:
398,45,200963,1,8,0:0:0:0:
494,257,201588,1,2,0:1:0:0:
428,298,201796,2,0,P|418:325|411:356,1,60,0|8,1:0|0:0,0:0:0:0:
336,331,202213,2,0,P|274:342|213:341,1,120,2|8,0:1|0:0,0:0:0:0:
12,227,203255,1,8,0:0:0:0:
85,202,203463,6,0,P|147:191|208:192,1,120,4|2,0:0|0:1,0:0:0:0:
351,241,204296,1,8,0:0:0:0:
504,64,204921,1,2,0:1:0:0:
426,70,205129,2,0,P|416:43|409:12,1,60,0|8,1:0|0:0,0:0:0:0:
336,40,205546,2,0,P|274:29|213:30,1,120,2|8,0:1|0:0,0:0:0:0:
140,332,206796,6,0,P|202:343|263:342,1,120,4|2,1:2|0:1,0:0:0:0:
405,288,207629,1,8,0:0:0:0:
293,82,208254,1,2,0:1:0:0:
245,143,208462,2,0,P|235:170|228:201,1,60,0|8,1:0|0:0,0:0:0:0:
152,180,208879,2,0,P|90:184|27:175,1,120,2|8,0:1|0:0,0:0:0:0:
220,35,209921,1,2,0:1:0:0:
297,27,210130,6,0,P|359:23|422:32,1,120,4|2,0:0|0:1,0:0:0:0:
493,166,210963,2,0,P|497:196|501:237,1,60,8|8,0:0|0:3,0:0:0:0:
426,253,211380,2,0,P|421:281|408:319,1,60,4|2,0:3|0:1,0:0:0:0:
333,306,211796,2,0,P|312:330|288:348,1,60,0|8,1:0|0:0,0:0:0:0:
224,302,212213,2,0,P|164:305|95:296,1,120,8|4,0:0|1:3,0:0:0:0:
104,219,212838,2,0,P|164:216|233:225,1,120,4|0,0:0|1:0,0:0:0:0:
301,232,213463,6,0,P|313:170|313:95,1,120,6|2,1:0|0:0,0:0:0:0:
190,17,214296,2,0,P|129:19|59:31,1,120,8|0,0:0|0:0,0:0:0:0:
19,87,214921,1,2,0:1:0:0:
88,122,215130,2,0,P|103:151|111:189,1,60,2|8,1:0|0:3,0:0:0:0:
49,227,215546,2,0,P|49:263|44:296,1,60,2|2,0:0|0:1,0:0:0:0:
24,362,215963,2,0,P|82:360|143:350,1,120,8|0,0:0|0:0,0:0:0:0:
259,246,216796,6,0,P|247:308|247:383,1,120,4|2,0:0|0:0,0:0:0:0:
401,372,217630,2,0,P|410:326|412:232,1,120,8|0,0:0|0:0,0:0:0:0:
398,176,218255,1,2,0:1:0:0:
322,156,218463,2,0,L|261:168,2,60,2|8|8,1:0|0:0|0:3,0:0:0:0:
327,77,219088,2,0,L|391:82,2,60,4|8|8,0:3|0:0|0:0,0:0:0:0:
253,49,219713,2,0,L|173:66,1,60,2|2,1:0|1:2,0:0:0:0:
152,127,220130,6,0,P|153:186|165:245,1,120,6|2,1:0|0:0,0:0:0:0:
285,345,220963,2,0,P|224:347|154:359,1,120,8|0,0:0|0:0,0:0:0:0:
109,301,221588,1,2,0:1:0:0:
39,265,221797,2,0,P|24:236|16:198,1,60,2|8,1:0|0:3,0:0:0:0:
68,150,222213,2,0,P|68:114|73:81,1,60,2|2,0:0|0:1,0:0:0:0:
137,49,222630,2,0,P|196:39|256:36,1,120,8|0,0:0|0:0,0:0:0:0:
406,78,223463,6,0,P|407:137|419:196,1,120,4|2,0:0|0:0,0:0:0:0:
490,335,224297,2,0,P|430:336|371:347,1,120,8|0,0:0|0:0,0:0:0:0:
293,352,224922,1,2,0:1:0:0:
217,333,225130,2,0,L|173:382,2,60,2|8|2,1:0|0:0|0:0,0:0:0:0:
204,255,225755,2,0,L|136:250,2,60,2|8|4,0:1|0:0|0:3,0:0:0:0:
249,191,226380,2,0,L|203:129,1,60,8|8,0:3|0:3,0:0:0:0:
266,85,226796,6,0,P|320:60|379:49,1,120,6|2,1:0|0:0,0:0:0:0:
495,153,227630,2,0,P|440:177|381:188,1,120,8|0,0:0|0:0,0:0:0:0:
314,147,228254,1,2,0:1:0:0:
249,191,228462,2,0,P|239:218|232:249,1,60,0|8,1:0|0:0,0:0:0:0:
154,257,228879,2,0,P|92:268|31:267,2,120,2|8|0,0:0|0:0|0:0,0:0:0:0:
51,138,230129,6,0,P|40:76|41:15,1,120,4|2,0:0|0:0,0:0:0:0:
182,85,230963,2,0,P|240:95|300:95,1,120,8|0,0:0|0:0,0:0:0:0:
375,73,231587,1,2,0:1:0:0:
449,98,231796,2,0,P|459:125|466:156,1,60,0|8,1:0|0:0,0:0:0:0:
481,232,232213,2,0,P|419:243|358:242,1,120,2|8,0:0|0:0,0:0:0:0:
220,177,233046,1,8,0:0:0:0:
187,248,233255,1,8,0:3:0:0:
256,192,233463,12,0,238880,0:0:0:0:
