osu file format v14

[General]
AudioFilename: cc.mp3
AudioLeadIn: 2000
PreviewTime: 53359
Countdown: 0
SampleSet: Soft
StackLeniency: 0.6
Mode: 0
LetterboxInBreaks: 0
WidescreenStoryboard: 0

[Editor]
Bookmarks: 25,13359,26692,40025,53359,66692,80025,93359,106692,120025,133359,146692,160025,166692,173359,186692,200025,213359,226692,233359
DistanceSpacing: 1.3
BeatDivisor: 4
GridSize: 4
TimelineZoom: 1

[Metadata]
Title:Cao Cao
TitleUnicode:曹操
Artist:JJ Lin
ArtistUnicode:林俊傑
Creator:liangv587
Version:Hard
Source:
Tags:Hollow Wings 林俊杰 jun jie
BeatmapID:673058
BeatmapSetID:300076

[Difficulty]
HPDrainRate:5
CircleSize:3.8
OverallDifficulty:5
ApproachRate:6
SliderMultiplier:1.4
SliderTickRate:1

[Events]
//Background and Video events
0,0,"69982.jpg",0,0
//Break Periods
2,93663,104705
2,160130,165746
//Storyboard Layer 0 (Background)
//Storyboard Layer 1 (Fail)
//Storyboard Layer 2 (Pass)
//Storyboard Layer 3 (Foreground)
//Storyboard Sound Samples

[TimingPoints]
130,416.666666666667,4,2,1,30,1,0
130,-133.333333333333,4,2,1,30,0,0
13359,-100,4,2,1,60,0,0
26692,-133.333333333333,4,2,1,40,0,0
39192,-133.333333333333,4,2,1,50,0,0
40025,-100,4,2,1,60,0,0
51796,-100,4,2,0,40,0,0
52005,-100,4,3,0,40,0,0
52213,-100,4,2,0,70,0,0
52421,-100,4,1,0,70,0,0
52630,-83.3333333333333,4,2,1,60,0,0
53463,-83.3333333333333,4,2,1,70,0,1
66171,-83.3333333333333,4,2,1,70,0,0
66796,-83.3333333333333,4,2,1,70,0,1
80130,-100,4,2,1,60,0,0
93359,-100,4,2,1,40,0,0
105650,-100,4,2,1,50,0,0
106692,-100,4,2,1,60,0,0
118359,-100,4,2,0,40,0,0
118671,-100,4,3,0,40,0,0
118880,-100,4,2,0,70,0,0
119088,-100,4,1,0,70,0,0
119296,-100,4,2,1,60,0,0
120130,-83.3333333333333,4,2,1,70,0,1
132838,-83.3333333333333,4,2,1,70,0,0
133463,-83.3333333333333,4,2,1,70,0,1
146796,-100,4,2,1,60,0,0
166692,-100,4,2,1,70,0,0
171692,-100,4,2,0,40,0,0
172005,-100,4,3,0,40,0,0
172213,-100,4,2,0,70,0,0
172421,-100,4,1,0,70,0,0
172630,-100,4,1,1,70,0,0
173463,-83.3333333333333,4,2,1,70,0,1
186171,-83.3333333333333,4,2,1,70,0,0
186796,-83.3333333333333,4,2,1,70,0,1
200130,-100,4,2,1,70,0,0
213359,-100,4,2,1,60,0,0
233359,-133.333333333333,4,2,1,40,0,0
235546,-133.333333333333,4,2,1,50,0,0
237213,-133.333333333333,4,2,1,40,0,0
237630,-133.333333333333,4,2,1,30,0,0
238046,-133.333333333333,4,2,1,20,0,0
238463,-133.333333333333,4,2,1,10,0,0
238671,-133.333333333333,4,2,1,5,0,0

[Colours]
Combo1 : 128,0,0
Combo2 : 0,64,128
Combo3 : 128,64,64
Combo4 : 128,0,255

[HitObjects]
173,315,130,6,0,P|170:262|181:211,1,105.000004005432,2|0,0:0|0:0,0:0:0:0:
295,157,963,1,0,0:0:0:0:
358,194,1171,1,2,0:0:0:0:
364,36,1588,1,0,0:0:0:0:
436,50,1796,2,0,L|431:109,1,52.5000020027161,0|0,0:0|0:0,0:0:0:0:
478,159,2213,1,2,0:0:0:0:
375,263,2630,1,2,0:0:0:0:
375,263,3463,6,0,P|379:315|368:366,1,105.000004005432,2|0,0:0|0:0,0:0:0:0:
223,342,4296,1,0,0:0:0:0:
153,361,4504,1,2,0:0:0:0:
130,215,4921,1,0,0:0:0:0:
68,175,5129,2,0,L|73:116,1,52.5000020027161,0|0,0:0|0:0,0:0:0:0:
30,62,5546,1,2,0:0:0:0:
172,21,5963,1,2,0:0:0:0:
388,220,6796,6,0,P|336:223|285:212,1,105.000004005432,2|0,0:0|0:0,0:0:0:0:
223,78,7629,1,0,0:0:0:0:
291,49,7837,1,2,0:0:0:0:
204,167,8254,1,0,0:0:0:0:
217,239,8462,2,0,L|193:289,1,52.5000020027161,0|0,0:0|0:0,0:0:0:0:
236,347,8880,1,2,0:0:0:0:
383,334,9296,1,2,0:0:0:0:
479,55,10130,6,0,P|491:105|487:158,1,105.000004005432,2|0,0:0|0:0,0:0:0:0:
447,299,10963,1,0,0:0:0:0:
384,260,11171,1,2,0:0:0:0:
160,304,13463,6,0,P|225:301|298:284,1,140,6|0,1:0|0:0,0:0:0:0:
364,231,14088,1,2,0:1:0:0:
399,154,14296,2,0,L|372:76,1,70,8|2,0:0|0:1,0:0:0:0:
258,207,14921,1,0,0:0:0:0:
293,130,15130,2,0,L|266:52,1,70,2|8,0:1|0:0,0:0:0:0:
187,57,15546,1,2,0:1:0:0:
136,123,15755,1,2,0:1:0:0:
174,198,15963,2,0,P|125:251|57:271,1,140,8|0,0:0|0:0,0:0:0:0:
15,200,16588,1,8,0:0:0:0:
25,350,16796,6,0,P|92:356|165:345,1,140,4|0,1:2|0:0,0:0:0:0:
240,308,17421,1,2,0:1:0:0:
324,315,17630,2,0,L|370:377,1,70,8|2,0:0|0:1,0:0:0:0:
289,222,18255,1,2,0:1:0:0:
373,229,18464,2,0,L|419:291,1,70,2|8,0:1|0:0,0:0:0:0:
494,255,18880,1,2,0:1:0:0:
494,171,19088,1,2,0:1:0:0:
413,153,19296,2,0,P|386:95|420:25,1,140,8|8,0:0|0:0,0:0:0:0:
470,92,19921,1,2,0:1:0:0:
302,93,20130,6,0,P|230:90|149:80,1,140,6|0,1:0|0:0,0:0:0:0:
92,36,20755,1,2,0:1:0:0:
126,161,20963,2,0,L|109:238,1,70,8|2,0:0|0:1,0:0:0:0:
219,358,21588,1,2,0:1:0:0:
291,314,21796,2,0,L|364:329,1,70,2|8,0:1|0:0,0:0:0:0:
404,229,22213,1,2,0:1:0:0:
321,238,22421,1,2,0:1:0:0:
195,142,22630,2,0,P|265:149|335:152,1,140,8|0,0:0|0:0,0:0:0:0:
312,71,23255,1,2,0:1:0:0:
321,238,23463,6,0,P|289:316|248:355,1,140,4|0,1:2|0:0,0:0:0:0:
167,374,24088,1,2,0:1:0:0:
201,282,24296,2,0,P|208:247|209:206,1,70,8|2,0:0|0:1,0:0:0:0:
36,256,24921,1,2,0:1:0:0:
98,199,25130,2,0,P|107:164|113:124,1,70,2|8,0:1|0:0,0:0:0:0:
133,49,25546,1,2,0:1:0:0:
50,73,25755,1,2,0:1:0:0:
190,111,25963,2,0,P|255:117|325:85,1,140,8|2,0:0|0:1,0:0:0:0:
371,27,26588,1,2,0:1:0:0:
445,55,26796,6,0,L|487:158,2,105.000004005432,2|0|2,0:0|0:0|0:0,0:0:0:0:
392,152,28463,2,0,L|404:267,2,105.000004005432,2|0|2,0:0|0:0|0:0,0:0:0:0:
304,212,30130,6,0,L|260:326,2,105.000004005432,2|0|2,0:0|0:0|0:0,0:0:0:0:
196,232,31796,2,0,L|112:304,2,105.000004005432,2|0|2,0:0|0:0|0:0,0:0:0:0:
112,172,33046,1,0,0:0:0:0:
64,76,33463,6,0,L|176:84,1,105.000004005432,2|0,0:0|0:0,0:0:0:0:
272,92,34296,1,2,0:0:0:0:
456,196,35130,2,0,L|344:188,1,105.000004005432,2|0,0:0|0:0,0:0:0:0:
248,180,35963,1,2,0:0:0:0:
56,268,36796,6,0,L|168:276,1,105.000004005432,2|0,0:0|0:0,0:0:0:0:
264,284,37629,1,2,0:0:0:0:
471,352,38463,6,0,L|411:348,1,52.5000020027161,2|0,0:0|0:0,0:0:0:0:
346,343,38880,1,2,0:0:0:0:
346,267,39088,1,0,0:0:0:0:
419,273,39296,2,0,L|480:276,1,52.5000020027161,10|8,0:0|0:3,0:0:0:0:
476,200,39713,2,0,L|419:198,1,52.5000020027161,4|4,0:3|0:3,0:0:0:0:
348,192,40130,5,6,0:0:0:0:
399,124,40338,1,0,0:0:0:0:
327,81,40546,2,0,P|312:48|309:2,1,70,0|0,0:0|0:0,0:0:0:0:
275,148,40963,2,0,P|217:190|147:211,1,140,8|0,0:0|0:0,0:0:0:0:
42,148,41588,2,0,P|100:107|170:85,1,140,2|8,0:0|0:0,0:0:0:0:
248,73,42213,1,2,0:0:0:0:
275,148,42421,1,0,0:0:0:0:
270,232,42630,2,0,P|302:308|359:350,1,140,8|0,0:0|0:0,0:0:0:0:
218,343,43255,6,0,L|148:379,2,70,0|2|0,0:0|0:0|0:0,0:0:0:0:
190,264,43880,1,2,0:0:0:0:
161,185,44088,1,0,0:0:0:0:
50,120,44296,2,0,P|50:197|58:270,1,140,8|0,0:0|0:0,0:0:0:0:
161,185,44921,2,0,P|158:119|164:38,1,140,2|8,0:0|0:0,0:0:0:0:
248,115,45546,1,0,0:0:0:0:
314,167,45755,1,2,0:0:0:0:
468,88,45963,2,0,P|393:85|313:91,1,140,8|2,0:0|0:0,0:0:0:0:
248,115,46588,1,0,0:0:0:0:
239,198,46796,5,4,0:0:0:0:
419,229,47213,1,2,0:0:0:0:
470,325,47421,2,0,L|393:311,1,70,0|8,0:0|0:0,0:0:0:0:
318,300,47838,1,2,0:0:0:0:
266,204,48046,2,0,L|335:216,1,70
427,231,48463,5,2,0:0:0:0:
478,327,48671,2,0,L|401:313,1,70,8|0,0:0|0:0,0:0:0:0:
309,299,49088,1,2,0:0:0:0:
257,203,49296,2,0,L|326:215,1,70,8|0,0:0|0:0,0:0:0:0:
419,229,49713,1,2,0:0:0:0:
400,313,49921,1,8,0:0:0:0:
318,300,50130,6,0,L|250:348,1,70,2|0,0:0|0:0,0:0:0:0:
178,333,50546,1,2,0:0:0:0:
131,263,50755,2,0,L|196:218,1,70,0|8,0:0|0:0,0:0:0:0:
199,139,51171,1,2,0:0:0:0:
150,70,51380,2,0,L|82:118,1,70,0|2,0:0|0:0,0:0:0:0:
199,139,51796,6,0,P|305:68|210:14,1,280,2|8,0:0|0:2,0:0:0:0:
150,70,52838,1,4,0:3:0:0:
22,306,53463,6,0,P|91:343|180:332,1,167.999994873047,6|2,1:0|1:0,0:0:0:0:
225,263,54088,2,0,P|191:250|142:261,1,83.9999974365235,0|8,0:0|0:0,0:0:0:0:
67,229,54505,2,0,P|82:149|50:70,1,167.999994873047,2|0,0:0|0:0,0:0:0:0:
168,165,55130,2,0,P|234:171|345:171,1,167.999994873047,2|2,1:0|1:0,0:0:0:0:
418,153,55755,1,0,0:0:0:0:
483,206,55963,2,0,P|473:247|449:286,2,83.9999974365235,8|0|2,0:0|0:0|0:0,0:0:0:0:
497,122,56588,1,0,0:0:0:0:
428,74,56796,6,0,P|362:80|251:80,1,167.999994873047,2|2,1:0|1:0,0:0:0:0:
295,173,57421,2,0,P|301:216|294:257,1,83.9999974365235,2|8,0:0|0:0,0:0:0:0:
209,213,57838,2,0,P|126:218|27:233,1,167.999994873047,2|0,0:0|0:0,0:0:0:0:
130,301,58463,1,2,1:0:0:0:
189,377,58671,2,0,P|211:336|224:297,1,83.9999974365235,8|0,0:0|0:0,0:0:0:0:
208,217,59088,1,2,1:2:0:0:
303,357,59296,2,0,P|385:367|451:319,1,167.999994873047,8|2,0:0|1:2,0:0:0:0:
483,232,59921,1,8,0:0:0:0:
339,106,60130,6,0,P|347:203|361:282,1,167.999994873047,6|2,1:2|1:0,0:0:0:0:
267,277,60755,2,0,P|240:316|222:360,1,83.9999974365235,0|8,0:0|0:0,0:0:0:0:
208,217,61171,2,0,P|200:120|186:41,1,167.999994873047,2|0,0:0|0:0,0:0:0:0:
99,25,61796,1,2,1:0:0:0:
37,92,62005,1,8,0:0:0:0:
88,168,62213,1,2,1:0:0:0:
177,143,62421,2,0,P|187:107|191:59,1,83.9999974365235,2|8,0:0|0:0,0:0:0:0:
262,153,62838,2,0,P|343:178|419:216,1,167.999994873047,2|0,0:0|0:0,0:0:0:0:
372,101,63463,6,0,P|409:44|512:39,2,167.999994873047,2|2|8,1:0|1:0|1:2,0:0:0:0:
463,121,64505,1,2,0:0:0:0:
421,203,64713,2,0,P|424:251|429:286,1,83.9999974365235,2|2,0:1|1:0,0:0:0:0:
486,360,65130,1,6,1:2:0:0:
394,355,65338,1,8,0:3:0:0:
330,288,65546,1,8,0:3:0:0:
316,196,65755,2,0,L|360:164,2,41.9999987182618,2|2|8,0:1|0:1|0:0,0:0:0:0:
227,218,66171,1,6,1:2:0:0:
227,218,66796,6,0,P|197:309|151:373,1,167.999994873047,6|2,1:0|1:0,0:0:0:0:
68,339,67421,2,0,P|70:297|58:251,1,83.9999974365235,2|8,0:0|0:0,0:0:0:0:
13,176,67838,2,0,P|100:177|180:148,1,167.999994873047,2|0,0:0|0:0,0:0:0:0:
97,10,68463,2,0,P|96:51|107:98,1,83.9999974365235,2|8,1:0|0:0,0:0:0:0:
180,148,68880,1,2,1:0:0:0:
267,114,69088,1,2,0:0:0:0:
276,22,69296,2,0,P|319:16|379:21,2,83.9999974365235,8|0|2,0:0|0:0|0:0,0:0:0:0:
190,54,69921,1,0,0:0:0:0:
267,114,70130,6,0,P|304:186|323:278,1,167.999994873047,2|2,1:0|1:0,0:0:0:0:
232,260,70755,2,0,P|192:271|154:289,1,83.9999974365235,2|8,0:0|0:0,0:0:0:0:
268,344,71171,2,0,P|351:357|433:340,1,167.999994873047,2|2,0:0|1:0,0:0:0:0:
407,257,71796,2,0,P|424:176|412:93,1,167.999994873047,2|0,1:0|0:0,0:0:0:0:
328,53,72421,1,2,1:2:0:0:
253,141,72630,2,0,P|295:148|336:144,1,83.9999974365235,8|8,0:0|0:3,0:0:0:0:
213,32,73046,2,0,P|178:57|145:100,1,83.9999974365235,8|8,0:0|0:0,0:0:0:0:
7,168,73463,6,0,P|86:193|168:179,1,167.999994873047,6|2,1:2|1:0,0:0:0:0:
163,271,74088,2,0,P|165:312|177:353,1,83.9999974365235,2|8,0:0|0:0,0:0:0:0:
392,248,74505,2,0,B|322:230|262:261|262:261|237:225,1,167.999994873047,2|2,0:0|0:1,0:0:0:0:
253,141,75130,2,0,P|252:99|240:58,1,83.9999974365235,2|8,1:0|0:0,0:0:0:0:
334,96,75546,1,0,0:0:0:0:
410,149,75755,2,0,P|452:154|504:148,2,83.9999974365235,2|8|0,1:2|0:0|0:0,0:0:0:0:
416,56,76380,1,2,0:0:0:0:
334,96,76588,1,0,0:0:0:0:
250,58,76796,6,0,P|174:42|66:44,2,167.999994873047,2|2|8,1:0|1:0|1:2,0:0:0:0:
337,221,78046,1,8,0:0:0:0:
337,221,78255,1,2,1:0:0:0:
423,256,78463,2,0,L|454:163,2,83.9999974365235,4|8|2,1:2|0:0|0:1,0:0:0:0:
394,343,79088,1,8,0:0:0:0:
256,186,79505,1,6,0:0:0:0:
256,186,80130,6,0,P|217:248|159:289,1,140,6|2,1:0|0:0,0:0:0:0:
80,284,80755,1,2,0:1:0:0:
68,201,80963,2,0,L|1:169,1,70,8|2,0:0|0:0,0:0:0:0:
172,146,81588,1,2,0:1:0:0:
160,63,81796,2,0,L|97:32,1,70,2|8,1:0|0:0,0:0:0:0:
238,28,82213,1,2,0:0:0:0:
300,85,82422,1,2,0:1:0:0:
256,156,82630,2,0,P|255:231|284:302,1,140,8|0,0:0|0:0,0:0:0:0:
362,300,83255,1,8,0:0:0:0:
226,359,83463,6,0,P|188:294|172:229,1,140,4|2,0:0|0:0,0:0:0:0:
172,146,84088,1,2,0:1:0:0:
256,156,84297,2,0,L|321:124,1,70,8|2,0:0|0:0,0:0:0:0:
164,61,84921,1,2,0:1:0:0:
248,71,85130,2,0,L|313:39,1,70,2|8,1:0|0:0,0:0:0:0:
393,23,85546,1,8,0:3:0:0:
446,87,85755,1,4,0:3:0:0:
396,155,85963,2,0,P|428:168|472:180,1,70,8|8,0:0|0:0,0:0:0:0:
394,239,86380,2,0,P|397:270|404:308,1,70,2|2,1:0|1:2,0:0:0:0:
311,228,86796,6,0,P|243:249|167:280,1,140,6|2,1:0|0:0,0:0:0:0:
124,336,87422,1,2,0:1:0:0:
125,208,87630,2,0,P|110:173|88:140,1,70,8|2,0:0|0:0,0:0:0:0:
207,22,88255,1,2,0:1:0:0:
280,64,88463,2,0,P|316:60|353:49,1,70,2|8,1:0|0:0,0:0:0:0:
480,92,88880,1,2,0:0:0:0:
399,117,89088,1,2,0:1:0:0:
374,281,89297,2,0,P|427:234|462:174,1,140,8|0,0:0|0:0,0:0:0:0:
480,92,89922,1,8,0:0:0:0:
343,182,90130,6,0,P|297:131|280:64,1,140,4|2,0:0|0:0,0:0:0:0:
355,24,90755,1,2,0:1:0:0:
197,59,90963,2,0,P|164:53|129:38,1,70,8|2,0:0|0:0,0:0:0:0:
32,175,91588,1,2,0:1:0:0:
109,147,91796,2,0,P|144:154|176:168,1,70,2|8,1:0|0:0,0:0:0:0:
189,251,92213,1,2,0:0:0:0:
117,295,92422,1,2,0:1:0:0:
272,273,92630,2,0,P|339:277|402:314,1,140,8|8,0:0|0:3,0:0:0:0:
462,370,93255,1,4,0:3:0:0:
462,370,93463,5,2,0:0:0:0:
349,323,105755,5,4,0:3:0:0:
269,299,105963,2,0,L|260:214,1,70,8|2,0:0|0:1,0:0:0:0:
189,277,106380,2,0,L|167:346,1,70,2|2,1:0|0:1,0:0:0:0:
110,252,106796,5,6,0:0:0:0:
91,170,107004,1,0,0:0:0:0:
151,110,107213,2,0,P|153:75|147:40,1,70,0|2,0:0|0:0,0:0:0:0:
231,138,107630,2,0,P|304:119|385:113,1,140,8|0,0:0|0:0,0:0:0:0:
387,195,108255,2,0,P|315:213|234:219,1,140,2|8,0:0|0:0,0:0:0:0:
171,191,108879,1,0,0:0:0:0:
151,110,109087,1,2,0:0:0:0:
110,252,109296,2,0,P|74:311|26:361,1,140,8|0,0:0|0:0,0:0:0:0:
27,225,109921,6,0,L|9:151,2,70,8|0|0,0:0|0:0|0:0,0:0:0:0:
91,170,110546,1,2,0:0:0:0:
66,90,110754,1,0,0:0:0:0:
171,191,110963,2,0,P|240:233|310:258,1,140,8|0,0:0|0:0,0:0:0:0:
456,180,111588,2,0,P|387:182|317:172,1,140,2|8,0:0|0:0,0:0:0:0:
257,114,112212,1,0,0:0:0:0:
339,92,112421,1,2,0:0:0:0:
384,254,112630,2,0,P|356:315|271:334,1,140,8|8,0:0|0:0,0:0:0:0:
221,292,113254,1,8,0:0:0:0:
296,253,113463,5,4,0:0:0:0:
139,313,113879,1,2,0:0:0:0:
64,262,114087,2,0,L|75:171,1,70,0|8,0:0|0:0,0:0:0:0:
170,92,114504,1,2,0:0:0:0:
82,112,114712,2,0,L|2:103,1,70
159,182,115129,5,2,0:0:0:0:
226,246,115338,2,0,L|296:253,1,70,8|0,0:0|0:0,0:0:0:0:
344,122,115755,1,2,0:0:0:0:
419,173,115963,2,0,L|408:264,1,70,8|0,0:0|0:0,0:0:0:0:
361,309,116379,1,2,0:0:0:0:
422,367,116587,1,8,0:0:0:0:
277,320,116796,6,0,P|286:245|301:163,1,140,2|0,0:0|0:0,0:0:0:0:
343,110,117421,1,2,0:0:0:0:
382,185,117630,1,8,0:0:0:0:
260,105,117838,2,0,P|185:91|111:85,1,140,2|2,0:0|0:0,0:0:0:0:
54,166,118463,6,0,P|83:273|141:174,1,280,4|8,0:0|0:0,0:0:0:0:
236,184,119505,2,0,P|290:187|362:184,1,105,8|8,0:3|0:0,0:0:0:0:
362,185,119921,1,8,0:0:0:0:
445,280,120130,6,0,P|482:211|471:122,1,167.999994873047,6|2,1:0|1:0,0:0:0:0:
384,96,120755,2,0,P|409:57|443:36,1,83.9999974365235,0|8,0:0|0:0,0:0:0:0:
307,24,121171,2,0,P|280:97|314:177,1,167.999994873047,2|0,0:0|0:0,0:0:0:0:
401,262,121796,2,0,P|335:256|224:256,1,167.999994873047,2|2,1:0|1:0,0:0:0:0:
152,299,122422,1,0,0:0:0:0:
87,246,122630,2,0,P|97:205|121:166,2,83.9999974365235,8|0|2,0:0|0:0|0:0,0:0:0:0:
67,336,123255,1,0,0:0:0:0:
230,348,123463,6,0,P|314:347|398:354,1,167.999994873047,2|2,1:0|1:0,0:0:0:0:
482,312,124088,2,0,P|492:265|484:216,1,83.9999974365235,2|8,0:0|0:0,0:0:0:0:
267,174,124505,2,0,P|323:235|401:262,1,167.999994873047,2|0,0:0|0:0,0:0:0:0:
487,225,125130,1,2,1:0:0:0:
414,171,125338,2,0,P|411:129|421:88,1,83.9999974365235,8|0,0:0|0:0,0:0:0:0:
495,34,125755,1,2,1:2:0:0:
332,67,125963,2,0,P|289:68|243:62,2,83.9999974365235,8|2|2,0:0|0:1|1:2,0:0:0:0:
402,6,126588,1,8,0:0:0:0:
334,158,126797,6,0,P|237:154|161:136,1,167.999994873047,6|2,1:2|1:0,0:0:0:0:
127,55,127422,2,0,P|94:83|77:120,1,83.9999974365235,0|8,0:0|0:0,0:0:0:0:
157,228,127838,2,0,P|240:246|338:246,1,167.999994873047,2|0,0:0|0:0,0:0:0:0:
402,199,128463,1,2,1:0:0:0:
471,261,128672,1,8,0:0:0:0:
422,338,128880,1,2,1:0:0:0:
332,330,129088,2,0,P|320:289|323:247,1,83.9999974365235,2|8,0:0|0:0,0:0:0:0:
239,336,129505,2,0,P|148:321|71:291,1,167.999994873047,2|0,0:0|0:0,0:0:0:0:
229,241,130130,6,0,P|258:159|260:71,2,167.999994873047,2|2|8,1:0|1:0|1:2,0:0:0:0:
138,226,131171,1,8,0:3:0:0:
91,146,131380,2,0,P|95:104|102:62,1,83.9999974365235,4|4,0:3|1:3,0:0:0:0:
184,152,131796,2,0,P|248:172|360:184,1,167.999994873047,6|8,1:2|0:3,0:0:0:0:
390,100,132422,2,0,L|379:54,2,41.9999987182618,2|2|8,0:1|0:1|0:0,0:0:0:0:
438,178,132838,1,6,1:2:0:0:
438,178,133463,6,0,P|429:256|392:341,1,167.999994873047,6|2,1:0|1:0,0:0:0:0:
331,265,134088,2,0,P|344:225|348:183,1,83.9999974365235,2|8,0:0|0:0,0:0:0:0:
249,306,134505,2,0,P|161:307|81:333,1,167.999994873047,2|0,0:0|0:0,0:0:0:0:
21,243,135130,2,0,P|54:244|105:236,1,83.9999974365235,2|8,1:0|0:0,0:0:0:0:
162,163,135547,1,2,1:0:0:0:
152,71,135755,1,2,0:0:0:0:
228,18,135963,2,0,P|266:13|326:18,2,83.9999974365235,8|0|2,0:0|0:0|0:0,0:0:0:0:
239,110,136588,1,0,0:0:0:0:
321,154,136797,6,0,P|404:126|473:67,1,167.999994873047,2|2,1:0|1:0,0:0:0:0:
441,198,137422,2,0,P|455:245|477:282,1,83.9999974365235,2|8,0:0|0:0,0:0:0:0:
361,243,137838,2,0,P|273:256|188:249,1,167.999994873047,2|2,0:0|1:0,0:0:0:0:
162,163,138463,1,2,1:0:0:0:
239,110,138671,1,8,0:0:0:0:
93,103,138880,2,0,P|59:78|39:41,1,83.9999974365235,0|2,0:0|1:2,0:0:0:0:
77,192,139296,2,0,P|73:234|48:274,1,83.9999974365235,8|8,0:0|0:3,0:0:0:0:
162,163,139713,2,0,P|201:146|244:147,1,83.9999974365235,8|8,0:0|0:0,0:0:0:0:
346,335,140130,6,0,P|271:298|216:235,1,167.999994873047,6|2,1:2|1:0,0:0:0:0:
307,213,140755,2,0,P|347:193|379:167,1,83.9999974365235,2|8,0:0|0:0,0:0:0:0:
370,46,141171,2,0,P|316:109|241:146,1,167.999994873047,2|2,0:0|0:1,0:0:0:0:
160,96,141797,2,0,P|154:138|158:179,1,83.9999974365235,2|8,1:0|0:0,0:0:0:0:
187,267,142213,1,0,0:0:0:0:
96,249,142422,2,0,P|52:248|6:260,2,83.9999974365235,2|8|0,1:2|0:0|0:0,0:0:0:0:
185,273,143046,1,2,0:0:0:0:
119,337,143255,1,0,0:0:0:0:
100,246,143463,6,0,P|93:170|98:74,2,167.999994873047,2|2|8,1:0|1:0|1:2,0:0:0:0:
256,346,144713,1,8,0:0:0:0:
256,346,144922,1,2,1:0:0:0:
355,334,145130,2,0,L|402:388,2,55.9999982910157,4|8|8,1:2|0:0|0:0,0:0:0:0:
406,282,145546,2,0,L|459:302,2,55.9999982910157,2|4|4,0:1|0:3|0:3,0:0:0:0:
430,212,145963,1,2,0:1:0:0:
327,191,146171,2,0,P|319:90|304:20,1,167.999994873047,6|2,0:0|0:0,0:0:0:0:
218,117,146796,6,0,P|220:195|238:264,1,140,6|0,0:1|0:0,0:0:0:0:
322,284,147421,1,2,0:1:0:0:
255,345,147630,2,0,P|185:345|117:329,1,140,8|0,0:0|0:0,0:0:0:0:
82,244,148255,1,2,0:1:0:0:
130,167,148463,2,0,P|130:129|135:88,1,70,2|8,0:0|0:0,0:0:0:0:
193,29,148880,1,2,0:1:0:0:
408,189,149296,1,8,0:0:0:0:
480,133,149505,1,0,0:0:0:0:
432,55,149713,2,0,P|403:32|363:21,1,70,0|8,0:0|0:0,0:0:0:0:
363,113,150130,6,0,P|293:126|223:113,1,140,4|0,0:0|0:0,0:0:0:0:
193,29,150755,1,2,0:1:0:0:
127,150,150963,2,0,P|181:188|252:210,1,140,8|0,0:0|0:0,0:0:0:0:
341,219,151588,1,2,0:1:0:0:
281,287,151796,2,0,P|243:290|200:287,1,70,2|8,0:0|0:0,0:0:0:0:
120,274,152213,1,2,0:1:0:0:
52,98,152630,2,0,P|54:57|62:21,1,70,8|4,0:0|0:3,0:0:0:0:
150,17,153046,1,8,0:0:0:0:
196,95,153255,1,8,0:0:0:0:
120,274,153463,6,0,P|116:200|122:130,1,140,4|0,0:0|0:0,0:0:0:0:
193,189,154088,1,2,0:1:0:0:
272,144,154296,1,8,0:0:0:0:
271,235,154505,2,0,P|285:273|307:308,1,70,0|0,0:0|0:0,0:0:0:0:
432,368,154921,2,0,P|407:303|372:243,1,140,2|8,0:1|0:0,0:0:0:0:
473,251,155546,2,0,P|474:184|484:109,1,140,2|8,0:1|0:0,0:0:0:0:
310,54,156380,1,0,0:0:0:0:
361,128,156588,1,8,0:3:0:0:
272,144,156796,6,0,P|194:168|132:204,1,140,4|0,0:0|0:0,0:0:0:0:
71,253,157421,1,2,0:1:0:0:
39,360,157630,2,0,P|102:330|155:285,1,140,8|0,0:0|0:0,0:0:0:0:
214,355,158255,2,0,P|279:342|362:346,1,140,2|8,0:1|0:0,0:0:0:0:
442,356,158880,1,2,0:1:0:0:
413,176,159296,1,8,0:0:0:0:
349,241,159505,1,4,0:3:0:0:
436,265,159713,1,8,0:0:0:0:
76,265,166796,5,6,0:0:0:0:
76,265,167213,1,8,0:0:0:0:
99,176,167421,2,0,L|78:106,1,70,2|0,0:0|0:0,0:0:0:0:
193,26,167838,1,2,0:0:0:0:
172,114,168046,2,0,L|194:187,1,70,8|0,0:0|0:0,0:0:0:0:
311,256,168463,5,0,0:0:0:0:
334,167,168671,2,0,L|313:97,1,70,2|2,0:0|0:1,0:0:0:0:
428,17,169088,1,2,0:0:0:0:
407,105,169296,2,0,L|429:178,1,70,8|0,0:0|0:0,0:0:0:0:
311,256,169713,1,2,0:0:0:0:
470,341,170130,6,0,B|421:317|375:346|375:346|326:377|264:359,1,210,12|2,0:0|0:1,0:0:0:0:
251,351,170859,1,2,0:1:0:0:
234,339,170963,2,0,L|227:262,1,70,8|2,0:0|0:1,0:0:0:0:
47,224,171588,1,2,0:1:0:0:
47,224,171796,6,0,B|80:255|130:251|164:216|164:216|202:173|266:176|298:224,1,280,4|8,0:0|0:2,0:0:0:0:
321,302,172838,1,2,2:1:0:0:
404,333,173046,1,8,0:2:0:0:
404,333,173255,1,8,0:2:0:0:
492,302,173463,6,0,P|500:215|489:123,1,167.999994873047,6|2,1:0|1:0,0:0:0:0:
404,164,174088,2,0,P|360:151|324:129,1,83.9999974365235,0|8,0:0|0:0,0:0:0:0:
294,219,174505,2,0,P|231:154|206:76,1,167.999994873047,2|0,0:0|0:0,0:0:0:0:
141,184,175130,2,0,P|116:99|125:17,1,167.999994873047,2|2,1:0|1:0,0:0:0:0:
32,31,175755,1,0,0:0:0:0:
27,123,175963,2,0,P|47:202|86:281,1,167.999994873047,8|2,0:0|0:0,0:0:0:0:
151,345,176588,1,0,0:0:0:0:
341,269,176796,6,0,P|259:251|175:255,1,167.999994873047,2|2,1:0|1:0,0:0:0:0:
219,171,177421,2,0,P|224:129|215:89,1,83.9999974365235,2|8,0:0|0:0,0:0:0:0:
311,176,177838,2,0,P|396:201|475:246,1,167.999994873047,2|0,0:0|0:0,0:0:0:0:
495,327,178463,1,2,1:0:0:0:
418,377,178671,2,0,P|406:336|410:288,1,83.9999974365235,8|0,0:0|0:0,0:0:0:0:
323,354,179088,1,2,1:2:0:0:
231,357,179296,2,0,P|146:332|67:287,1,167.999994873047,8|2,0:0|1:2,0:0:0:0:
76,201,179921,1,8,0:0:0:0:
138,80,180130,6,0,P|154:163|157:247,1,167.999994873047,6|2,1:2|1:0,0:0:0:0:
248,269,180755,2,0,P|294:276|338:271,1,83.9999974365235,0|8,0:0|0:0,0:0:0:0:
437,102,181171,2,0,P|360:137|293:188,1,167.999994873047,2|0,0:0|0:0,0:0:0:0:
336,270,181796,1,2,1:0:0:0:
429,271,182005,1,8,0:0:0:0:
471,188,182213,1,2,1:0:0:0:
437,102,182421,2,0,P|430:63|439:16,1,83.9999974365235,2|8,0:0|0:0,0:0:0:0:
353,55,182838,2,0,P|268:66|185:57,1,167.999994873047,2|0,0:0|0:0,0:0:0:0:
41,82,183463,6,0,P|122:125|207:145,1,167.999994873047,2|2,1:0|1:0,0:0:0:0:
141,217,184088,2,0,P|127:262|128:308,1,83.9999974365235,0|8,0:0|1:2,0:0:0:0:
193,364,184505,1,2,0:0:0:0:
216,274,184713,2,0,L|231:234,2,41.9999987182618,8|0|8,0:0|0:0|1:2,0:0:0:0:
281,340,185130,1,6,1:2:0:0:
374,346,185338,1,8,0:3:0:0:
435,276,185546,1,8,0:3:0:0:
406,187,185755,2,0,L|352:177,2,41.9999987182618,2|2|8,0:1|0:1|0:0,0:0:0:0:
496,165,186171,1,6,1:2:0:0:
496,165,186796,6,0,P|435:100|397:25,1,167.999994873047,6|2,1:0|1:0,0:0:0:0:
332,92,187421,2,0,P|291:96|249:95,1,83.9999974365235,2|8,0:0|0:0,0:0:0:0:
365,179,187838,2,0,P|378:262|374:346,1,167.999994873047,2|0,0:0|0:0,0:0:0:0:
283,328,188463,2,0,P|239:325|188:333,1,83.9999974365235,2|8,1:0|0:0,0:0:0:0:
112,359,188880,1,2,1:0:0:0:
45,295,189088,1,2,0:0:0:0:
103,222,189296,2,0,P|140:236|191:239,2,83.9999974365235,8|0|2,0:0|0:0|0:0,0:0:0:0:
44,150,189921,1,0,0:0:0:0:
21,17,190130,6,0,P|89:65|136:135,1,167.999994873047,2|2,1:0|1:0,0:0:0:0:
207,74,190755,2,0,P|249:69|289:55,1,83.9999974365235,2|8,0:0|0:0,0:0:0:0:
397,82,191171,2,0,P|328:125|245:151,1,167.999994873047,2|2,0:0|1:0,0:0:0:0:
229,241,191796,1,2,1:0:0:0:
285,315,192005,2,0,P|331:324|377:325,1,83.9999974365235,8|0,0:0|0:0,0:0:0:0:
460,334,192421,1,2,1:2:0:0:
434,167,192630,2,0,P|422:208|421:250,1,83.9999974365235,8|8,0:0|0:3,0:0:0:0:
350,190,193046,2,0,P|304:181|258:180,1,83.9999974365235,8|8,0:0|0:0,0:0:0:0:
126,249,193463,6,0,P|209:265|292:268,1,167.999994873047,6|2,1:2|1:0,0:0:0:0:
261,180,194088,2,0,P|245:143|242:94,1,83.9999974365235,2|8,0:0|0:0,0:0:0:0:
464,51,194505,2,0,P|414:116|333:118,1,167.999994873047,2|2,0:0|0:1,0:0:0:0:
299,32,195130,2,0,P|261:20|213:16,1,83.9999974365235,2|8,1:0|0:0,0:0:0:0:
152,80,195546,1,0,0:0:0:0:
169,171,195755,2,0,P|128:167|88:154,2,83.9999974365235,2|8|0,1:2|0:0|0:0,0:0:0:0:
261,180,196380,1,2,0:0:0:0:
276,271,196588,1,0,0:0:0:0:
203,327,196796,6,0,P|122:350|53:291,2,167.999994873047,2|2|8,1:0|1:0|1:2,0:0:0:0:
140,259,197838,1,8,0:3:0:0:
60,213,198046,1,8,0:0:0:0:
80,122,198255,1,2,1:0:0:0:
172,110,198463,2,0,P|168:68|172:26,2,83.9999974365235,4|8|2,1:2|0:0|0:1,0:0:0:0:
209,195,199088,5,8,0:0:0:0:
295,229,199296,1,2,0:0:0:0:
295,229,199400,1,4,0:3:0:0:
295,229,199505,2,0,P|298:274|292:318,1,83.9999974365235,6|8,0:0|0:0,0:0:0:0:
203,327,199921,1,2,0:0:0:0:
358,376,200130,6,0,P|432:373|503:358,1,140,6|2,1:0|0:1,0:0:0:0:
488,276,200755,1,0,0:0:0:0:
406,263,200963,2,0,P|395:209|388:122,1,140,8|0,0:0|0:0,0:0:0:0:
429,50,201588,1,2,0:1:0:0:
346,54,201796,2,0,P|306:51|256:41,1,70,0|8,1:0|0:0,0:0:0:0:
197,18,202213,1,2,0:1:0:0:
207,101,202421,1,0,0:0:0:0:
286,131,202630,1,8,0:0:0:0:
36,143,203255,1,8,0:0:0:0:
66,221,203463,6,0,P|117:276|186:313,1,140,4|2,0:0|0:1,0:0:0:0:
339,337,204296,1,8,0:0:0:0:
485,252,204713,1,0,0:0:0:0:
406,223,204921,1,2,0:1:0:0:
324,241,205130,1,0,1:0:0:0:
249,204,205338,2,0,P|217:215|171:222,1,70,8|2,0:0|0:1,0:0:0:0:
126,158,205755,1,0,0:0:0:0:
179,92,205963,1,8,0:0:0:0:
259,118,206171,2,0,P|332:104|408:72,1,140,2|8,0:1|0:0,0:0:0:0:
504,115,206796,6,0,P|448:149|370:177,1,140,4|2,1:2|0:1,0:0:0:0:
210,176,207630,1,8,0:0:0:0:
34,357,208255,1,2,0:1:0:0:
65,278,208463,2,0,P|61:242|47:199,1,70,0|8,1:0|0:0,0:0:0:0:
11,135,208880,1,2,0:1:0:0:
95,137,209088,1,2,0:1:0:0:
136,210,209296,1,8,0:0:0:0:
352,340,209921,1,2,0:1:0:0:
462,279,210130,6,0,P|396:272|322:253,1,140,4|2,0:0|0:1,0:0:0:0:
295,88,210963,1,8,0:0:0:0:
354,29,211171,1,8,0:3:0:0:
383,107,211380,1,4,0:3:0:0:
323,165,211588,2,0,P|256:182|186:190,1,140,2|8,0:1|0:0,0:0:0:0:
104,173,212213,1,8,0:0:0:0:
128,253,212421,2,0,P|128:297|122:335,1,70,4|8,0:3|0:3,0:0:0:0:
212,274,212838,2,0,P|279:266|355:247,1,140,4|0,0:0|1:0,0:0:0:0:
433,341,213463,6,0,P|431:266|439:187,1,140,6|2,1:0|0:0,0:0:0:0:
470,124,214088,1,2,0:1:0:0:
440,45,214296,2,0,L|362:31,1,70,8|2,0:0|0:0,0:0:0:0:
371,116,214713,2,0,L|298:102,1,70,0|2,0:0|0:1,0:0:0:0:
301,187,215130,2,0,L|223:172,1,70,2|8,1:0|0:3,0:0:0:0:
230,257,215546,1,2,0:0:0:0:
147,241,215755,1,2,0:1:0:0:
162,323,215963,2,0,P|86:320|12:328,1,140,8|0,0:0|0:0,0:0:0:0:
9,158,216796,6,0,P|80:153|158:163,1,140,4|2,0:0|0:0,0:0:0:0:
232,174,217421,1,2,0:1:0:0:
315,253,217630,2,0,P|327:159|326:101,1,140,8|0,0:0|0:0,0:0:0:0:
310,31,218255,1,2,0:1:0:0:
233,65,218463,2,0,P|195:69|158:69,1,70,2|8,1:0|0:0,0:0:0:0:
79,57,218880,1,8,0:3:0:0:
35,128,219088,2,0,P|33:161|37:204,1,70,4|8,0:3|0:0,0:0:0:0:
112,162,219505,2,0,P|146:166|181:166,2,70,8|2|2,0:0|1:0|1:2,0:0:0:0:
69,275,220130,6,0,P|137:272|208:239,1,140,6|2,1:0|0:0,0:0:0:0:
265,188,220755,1,2,0:1:0:0:
284,269,220963,2,0,P|260:302|232:324,1,70,8|2,0:0|0:0,0:0:0:0:
323,351,221380,2,0,P|363:355|396:368,1,70,0|2,0:0|0:1,0:0:0:0:
375,275,221796,2,0,P|358:237|353:202,1,70,2|8,1:0|0:3,0:0:0:0:
383,130,222213,1,2,0:0:0:0:
437,194,222422,1,2,0:1:0:0:
298,146,222630,2,0,P|239:109|195:48,1,140,8|0,0:0|0:0,0:0:0:0:
29,40,223463,6,0,P|49:106|93:169,1,140,4|2,0:0|0:0,0:0:0:0:
166,195,224088,1,2,0:1:0:0:
135,273,224297,2,0,P|200:282|286:278,1,140,8|0,0:0|0:0,0:0:0:0:
333,220,224922,1,2,0:1:0:0:
364,297,225130,2,0,L|350:365,1,70,2|8,1:0|0:0,0:0:0:0:
448,297,225547,1,2,0:0:0:0:
498,230,225755,2,0,L|485:160,1,70,2|8,0:1|0:0,0:0:0:0:
401,157,226171,2,0,L|415:234,2,70,4|8|8,0:3|0:3|0:3,0:0:0:0:
473,51,226796,6,0,P|400:71|324:72,1,140,6|2,1:0|0:0,0:0:0:0:
257,42,227421,1,2,0:1:0:0:
182,79,227630,2,0,P|172:110|173:149,1,70,8|2,0:0|0:0,0:0:0:0:
307,168,228046,2,0,P|283:142|253:126,1,70,0|2,0:0|0:1,0:0:0:0:
169,234,228463,2,0,P|203:227|233:209,1,70,0|8,1:0|0:0,0:0:0:0:
304,253,228879,1,2,0:0:0:0:
286,335,229088,1,2,0:1:0:0:
150,317,229296,2,0,P|75:322|10:343,1,140,8|0,0:0|0:0,0:0:0:0:
83,188,230130,6,0,P|88:121|78:41,1,140,4|2,0:0|0:0,0:0:0:0:
161,71,230754,1,2,0:1:0:0:
245,73,230963,2,0,P|315:70|388:53,1,140,8|0,0:0|0:0,0:0:0:0:
377,138,231588,1,2,0:1:0:0:
409,215,231796,2,0,L|466:256,1,70,0|8,1:0|0:0,0:0:0:0:
325,208,232213,1,2,0:0:0:0:
275,275,232421,2,0,L|279:344,1,70,0|8,0:0|0:0,0:0:0:0:
237,199,232838,1,2,0:1:0:0:
153,192,233046,2,0,L|96:150,1,70,8|8,0:0|0:3,0:0:0:0:
200,121,233463,6,0,P|251:115|304:119,1,105.000004005432,2|0,0:0|0:0,0:0:0:0:
256,236,234296,1,0,0:0:0:0:
256,236,234505,1,2,0:0:0:0:
256,192,234713,12,0,238880,0:0:0:0:
