osu file format v6

[General]
AudioFilename: Cries In A Distance.mp3
AudioLeadIn: 1996
PreviewTime: -1
Countdown: 1
SampleSet: Soft
StackLeniency: 0.7
Mode: 0
LetterboxInBreaks: 1

[Editor]
DistanceSpacing: 0.800000011920929
BeatDivisor: 4
GridSize: 8

[Metadata]
Title:Cries In A Distance
Artist:JJ
Creator:alan_629_6
Version:Normal
Source:Sixology
Tags:Sixology - Always On English Version

[Difficulty]
HPDrainRate:4
CircleSize:4
OverallDifficulty:4
SliderMultiplier:1.4
SliderTickRate:1

[Events]
//Background and Video events
0,0,"123.jpg"
//Break Periods
2,98364,107345
//Storyboard Layer 0 (Background)
//Storyboard Layer 1 (Fail)
//Storyboard Layer 2 (Pass)
//Storyboard Layer 3 (Foreground)
//Storyboard Sound Samples
//Background Colour Transformations
3,100,163,162,255

[TimingPoints]
165,500,4,2,0,100,1,0
48163,-100,4,2,0,100,0,1
48662,-100,4,2,0,100,0,0
64160,-100,4,2,0,100,0,1
64650,-100,4,2,0,100,0,0
115165,-100,4,2,0,100,0,1
115415,-100,4,2,0,100,0,0
135415,-100,4,2,0,0,0,0

[Colours]
Combo1 : 201,113,223
Combo2 : 255,145,200
Combo3 : 43,149,255
Combo4 : 0,249,131

[HitObjects]
48,128,1165,1,0
256,40,2165,1,0
424,64,2915,1,0
368,48,3165,1,2
144,40,4165,1,8
56,248,5165,5,0
256,344,6165,1,0
416,304,6915,1,0
368,328,7165,1,2
144,312,8165,1,8
256,120,9165,5,0
352,320,10165,1,0
416,168,10915,1,0
416,168,11165,1,2
208,256,12165,1,8
96,64,13165,5,0
32,280,14165,1,0
152,160,14915,1,0
152,160,15165,1,2
376,160,16165,1,8
256,72,17165,5,0
256,128,17415,1,0
256,184,17665,1,0
256,240,17915,2,2,B|88:312|272:328|104:240,1,140,0|2
24,168,19165,5,0
24,168,19415,1,0
24,168,19665,1,0
24,168,19915,2,2,B|187:86|81:237|122:52,1,140,0|2
280,104,21165,5,0
328,128,21415,1,0
368,160,21665,1,0
400,200,21915,2,2,B|232:272|416:288|248:200,1,140,0|2
303,233,22665,1,2
248,232,22915,2,0,B|216:264|160:216,1,70
256,112,24165,1,10
456,200,25165,5,0
448,144,25415,1,0
416,96,25665,1,0
376,56,25915,2,2,B|208:128|392:144|224:56,1,140,0|2
112,64,27165,5,0
112,64,27415,1,0
112,64,27665,1,0
112,63,27915,2,2,B|70:241|23:62|139:213,1,140,0|2
72,328,29165,5,0
128,344,29415,1,0
184,336,29665,1,0
232,304,29915,2,2,B|415:314|247:392|375:252,1,140,0|2
335,303,30665,1,2
448,304,31165,2,0,B|472:256|432:208,1,70
368,88,32165,1,10
168,192,33165,5,0
192,240,33415,1,0
304,240,33915,1,0
272,192,34165,1,10
264,304,34665,5,0
208,312,34915,1,0
320,312,35415,1,0
264,304,35665,1,0
208,312,35915,1,0
160,344,36165,1,8
40,152,37165,5,0
80,112,37415,1,0
120,72,37665,1,2
160,112,37915,1,0
200,152,38165,1,8
312,152,38665,1,0
312,96,38915,2,0,B|392:152|304:216,1,140,0|2
216,264,39915,1,2
160,280,40165,1,8
384,280,41165,6,0,B|416:240|472:152|344:280|376:168,1,140
371,190,41915,1,0
312,192,42165,1,10
456,112,43165,5,0
456,112,43415,1,0
456,112,43665,1,0
456,112,43915,1,0
456,112,44165,2,0,B|416:80|328:24|456:152|344:120,1,140,8|0
320,152,44915,2,0,B|216:424|208:312|184:312|216:288|238:213|376:280|144:136|336:64|208:304|72:320,1,560
89,316,47165,1,0
272,192,48165,5,12
296,240,48415,1,0
344,272,48665,1,0
400,264,48915,1,0
440,224,49165,2,0,B|544:280|440:120,1,140,0|0
360,200,50165,1,8
192,200,50915,2,2,B|208:264|128:216,1,70,0|2
264,200,51665,1,0
264,312,52165,1,8
256,88,53165,6,2,B|88:96|224:128,1,140,0|2
312,88,54165,1,8
184,192,54915,2,2,B|160:240|112:168,1,70,0|2
240,192,55665,1,0
216,304,56165,1,8
440,304,57165,6,2,B|472:384|360:256,1,140,0|2
472,240,58165,1,8
432,136,58665,1,0
384,112,58915,1,0
224,56,59665,1,0
280,72,59915,1,0
280,128,60165,1,8
280,184,60415,1,0
168,184,60915,1,0
280,304,61665,5,0
280,304,61915,1,2
416,208,62665,1,0
368,232,62915,2,2,B|440:336|528:216|408:152,1,210
435,170,64165,1,12
208,40,65165,5,0
96,40,65665,2,0,B|-16:8|136:120,1,140,0|8
184,176,66665,2,0,B|104:176,1,70
224,176,67415,2,0,B|304:176,1,70
200,240,68165,1,8
416,192,69165,5,0
416,80,69665,2,2,B|288:24|504:224,1,210,0|2
368,248,70915,2,0,B|312:336|304:360|496:288|272:280,1,210,0|0
352,184,72165,1,8
128,192,73165,5,2
72,192,73415,1,0
16,192,73665,1,0
128,192,74165,1,8
184,192,74415,1,0
240,192,74665,1,0
128,192,75165,5,2
128,248,75415,1,0
128,304,75665,1,0
128,192,76165,1,8
128,136,76415,1,0
128,80,76665,1,0
240,80,77165,6,0,B|296:0|400:104,1,140
432,160,78165,1,8
416,216,78415,1,0
368,248,78665,2,0,B|304:288|280:192,1,70
264,208,79165,1,6
256,192,79415,12,4,81163
256,192,82165,5,0
128,304,82915,2,0,B|89:279|88:216,1,70
128,144,83665,1,2
216,216,84165,1,8
48,64,85165,5,0
272,64,86165,1,0
440,64,86915,2,0,B|400:64|400:120,1,70
456,208,87665,1,2
384,296,88165,1,8
384,72,89165,5,0
256,256,90165,1,0
256,88,90915,1,0
256,144,91165,1,0
256,256,91665,1,2
256,144,92165,1,8
120,320,93165,5,0
304,192,94165,1,0
144,144,94915,1,0
176,192,95165,1,0
232,288,95665,1,0
240,176,96165,1,10
256,192,96415,12,2,98164
256,320,108665,5,0
256,320,108915,1,2
200,160,109665,1,0
200,160,109915,1,2
312,160,110415,1,0
256,64,110915,1,4
256,192,111165,12,6,113165
256,192,114165,5,8
256,192,114415,1,0
256,192,114665,1,0
256,192,114915,1,2
256,192,115165,1,12
168,128,115665,1,0
216,96,115915,2,0,B|464:368|528:256|312:0|120:-24|480:312|264:256|352:272|528:232|264:352|248:344,1,630,0|8
88,192,119165,6,0,B|8:368|224:112,1,280,0|8
214,123,120415,1,2
319,80,120915,2,2,B|550:-40|360:154,1,210,2|2
409,100,122165,1,8
152,216,123415,5,0
208,216,123665,1,0
152,216,123915,1,2
264,216,124415,1,0
320,216,124665,1,0
264,216,124915,1,2
152,216,125415,5,0
152,160,125665,1,0
152,216,125915,1,2
264,216,126415,1,0
320,216,126665,2,0,B|296:344|104:232|224:144|320:160,1,280,0|2
384,216,128165,2,0,B|456:216,2,70,2|0|0
384,104,129165,1,0
168,168,130165,1,8
256,56,131415,5,0
256,112,131665,1,0
256,176,131915,1,2
256,296,132415,1,0
256,240,132665,1,0
256,176,132915,1,2
392,176,133415,1,0
320,176,133665,2,0,B|352:224|304:264,1,70,0|2
256,192,135415,12,2,138165
