osu file format v5

[General]
AudioFilename: Cries In A Distance.mp3
AudioLeadIn: 0
PreviewTime: -1
Countdown: 1
SampleSet: Soft
StackLeniency: 0.7
Mode: 0
LetterboxInBreaks: 1

[Editor]
DistanceSpacing: 0.800000011920929
BeatDivisor: 4
GridSize: 8

[Metadata]
Title:Cries In A Distance
Artist:JJ
Creator:alan_629_6
Version:Easy
Source:Sixology
Tags:Sixology - Always On English Version

[Difficulty]
HPDrainRate:2
CircleSize:3
OverallDifficulty:2
SliderMultiplier:1.4
SliderTickRate:1

[Events]
//Background and Video events
0,0,"123.jpg"
//Break Periods
2,98364,107105
2,130365,133855
//Storyboard Layer 0 (Background)
//Storyboard Layer 1 (Fail)
//Storyboard Layer 2 (Pass)
//Storyboard Layer 3 (Foreground)
//Storyboard Sound Samples
//Background Colour Transformations
3,100,163,162,255

[TimingPoints]
165,500,4,2,0,100,1,0
48163,-100,4,2,0,100,0,1
48662,-100,4,2,0,100,0,0
64160,-100,4,2,0,100,0,1
64650,-100,4,2,0,100,0,0
115109,-100,4,2,0,100,0,1
115609,-100,4,2,0,100,0,0
134915,-100,4,2,0,0,0,0

[Colours]
Combo1 : 255,145,200
Combo2 : 43,149,255
Combo3 : 201,113,223
Combo4 : 0,249,131

[HitObjects]
72,192,17165,5,0
256,64,18165,1,2
368,192,18915,2,0,B|440:192,1,70
264,336,20165,1,10
264,112,21165,5,0
176,320,22165,1,2
344,320,22915,1,0
344,320,23165,1,0
256,112,24165,1,10
464,192,25165,5,0
256,280,26165,1,2
112,192,26915,2,0,B|32:192,1,70
256,120,28165,1,10
256,344,29165,5,0
344,136,30165,1,2
176,136,30915,1,0
176,136,31165,1,0
256,344,32165,1,10
256,120,33165,5,0
464,192,34165,1,2
344,312,34915,2,0,B|264:312,1,70
48,312,36165,1,8
72,88,37165,5,0
256,216,38165,1,2
256,48,38915,2,0,B|344:48,1,70
472,216,40165,1,8
320,48,41165,5,0
256,264,42165,1,2
192,104,42915,2,0,B|160:32,1,70
128,264,44165,1,8
336,344,45165,5,0
208,160,46165,1,2
376,160,46915,2,0,B|456:160,1,70
248,48,48165,1,14
416,192,49165,5,2
208,280,50165,1,8
320,152,50915,1,0
360,112,51165,1,2
152,232,52165,1,8
256,32,53165,5,2
152,232,54165,1,8
272,120,54915,1,0
312,80,55165,1,2
208,280,56165,1,8
128,72,57165,5,2
296,224,58165,1,8
136,184,58915,1,0
88,136,59165,1,2
256,288,60165,1,8
456,192,61165,5,2
232,192,62165,1,8
384,120,62915,1,0
440,120,63165,1,2
216,120,64165,1,12
128,328,65165,5,2
48,120,66165,1,8
216,120,66915,1,0
272,120,67165,1,2
360,328,68165,1,8
448,120,69165,5,2
224,120,70165,1,8
288,272,70915,1,0
304,328,71165,1,2
80,328,72165,1,8
256,192,73165,5,2
448,72,74165,1,8
448,240,74915,1,0
448,296,75165,1,2
224,296,76165,1,8
424,192,77165,5,2
256,48,78165,1,8
176,192,78915,1,0
120,192,79165,1,6
256,192,79415,12,0,81163
248,192,82165,5,2
128,304,82915,2,0,B|89:279|88:216,1,70
40,32,84165,1,10
264,32,85165,5,0
416,192,86165,1,2
248,192,86915,2,0,B|208:192|208:248,1,70
416,328,88165,1,10
192,328,89165,5,0
48,152,90165,1,2
216,152,90915,1,0
216,152,91165,1,0
408,264,92165,1,10
256,96,93165,5,0
256,320,94165,1,2
200,160,94915,1,0
200,160,95165,1,0
312,160,95665,1,0
312,160,96165,1,8
256,192,96415,12,2,98164
256,320,108665,5,2
256,320,108915,1,0
200,160,109665,1,0
200,160,109915,1,0
312,160,110415,1,0
256,64,110915,1,6
256,192,111665,12,14,113164
256,192,114165,5,8
256,192,114415,1,0
256,192,114665,1,0
144,192,115165,5,6
328,64,116165,1,8
440,192,116915,2,2,B|440:264,1,70
232,336,118165,1,8
56,192,119165,5,2
240,64,120165,1,8
408,64,120915,2,2,B|424:112|384:152,1,70
256,296,122165,1,8
56,192,123165,5,2
280,192,124165,1,8
400,80,124915,1,0
400,80,125165,1,2
176,80,126165,1,8
104,296,127165,5,2
328,296,128165,2,0,B|400:296,2,70
328,184,129165,1,2
104,192,130165,1,8
256,192,135415,12,0,138165
