osu file format v14

[General]
AudioFilename: Dari Mata.mp3
AudioLeadIn: 0
PreviewTime: 60782
Countdown: 0
SampleSet: Soft
StackLeniency: 0.3
Mode: 0
LetterboxInBreaks: 0
EpilepsyWarning: 1
WidescreenStoryboard: 1

[Editor]
DistanceSpacing: 1
BeatDivisor: 4
GridSize: 4
TimelineZoom: 1

[Metadata]
Title:Dari Mata
TitleUnicode:Dari Mata
Artist:JAZ
ArtistUnicode:JAZ
Creator:Shiranai
Version:Normal
Source:
Tags:Mako Sakata Bahasa Indonesia Indonesian Sony Music Entertainment Galau Ganteng Romance Love Lovely Jazz Rnb Guitar
BeatmapID:1302050
BeatmapSetID:603085

[Difficulty]
HPDrainRate:3
CircleSize:3
OverallDifficulty:3
ApproachRate:3.5
SliderMultiplier:1.2
SliderTickRate:1

[Events]
//Background and Video events
0,0,"Darimata.jpg",0,0
//Break Periods
//Storyboard Layer 0 (Background)
//Storyboard Layer 1 (Fail)
//Storyboard Layer 2 (Pass)
//Storyboard Layer 3 (Foreground)
//Storyboard Sound Samples

[TimingPoints]
7873,545.454545454546,4,2,1,70,1,0
25327,-100,4,2,1,80,0,0
42782,-100,4,2,1,90,0,0
62418,-100,4,2,1,100,0,1
77691,-100,4,2,1,90,0,0
79873,-100,4,2,1,100,0,1
95145,-100,4,2,1,90,0,0

[Colours]
Combo1 : 145,229,103
Combo2 : 255,213,128
Combo3 : 242,121,97
Combo4 : 255,140,179
Combo5 : 187,103,229
Combo6 : 140,236,255

[HitObjects]
144,200,7873,38,0,B|140:319,1,120,2|0,0:0|0:0,0:0:0:0:
36,260,8963,2,0,B|39:140,1,120,2|0,0:0|0:0,0:0:0:0:
216,100,10327,1,0,0:0:0:0:
264,64,10600,2,0,P|320:48|376:68,2,120,0|2|0,0:0|0:0|0:0,0:0:0:0:
260,184,12236,6,0,P|315:204|372:188,1,120,2|0,0:0|0:0,0:0:0:0:
488,224,13327,2,0,B|484:104,1,120,2|0,0:0|0:0,0:0:0:0:
260,184,14963,2,0,B|263:303,1,120,0|2,0:0|0:0,0:0:0:0:
84,304,16327,1,0,0:0:0:0:
132,268,16600,6,0,B|128:148,2,120,2|0|2,0:0|0:0|0:0,0:0:0:0:
188,292,17963,1,0,0:0:0:0:
300,248,18509,1,0,0:0:0:0:
348,284,18782,2,0,P|404:299|460:279,2,120,2|0|2,0:0|0:0|0:0,0:0:0:0:
312,332,20145,1,0,0:0:0:0:
256,192,20963,12,4,23009,0:1:0:0:
368,184,25327,70,0,B|372:65,1,120,2|0,1:2|0:0,0:0:0:0:
476,124,26417,2,0,B|473:244,1,120,8|0,0:1|0:0,0:0:0:0:
412,348,27509,1,0,1:0:0:0:
292,348,28054,2,0,P|235:362|179:345,2,120,0|8|0,0:0|0:1|0:0,0:0:0:0:
297,228,29691,6,0,P|240:210|183:225,1,120,2|0,1:2|0:0,0:0:0:0:
85,292,30782,2,0,B|82:172,1,120,8|0,0:1|0:0,0:0:0:0:
27,65,31873,2,0,P|84:50|140:67,1,120,2|0,1:2|0:0,0:0:0:0:
197,173,32963,1,8,0:1:0:0:
344,68,33782,1,0,0:0:0:0:
396,96,34054,6,0,P|456:100|508:73,2,120,2|0|8,1:2|0:0|0:1,0:0:0:0:
372,152,35418,1,0,0:0:0:0:
408,272,35963,1,0,0:0:0:0:
372,320,36236,2,0,B|252:317,2,120,2|0|8,1:2|0:0|0:1,0:0:0:0:
408,368,37600,1,0,0:0:0:0:
355,195,38418,6,0,P|396:106|450:188,2,240,2|8|0,1:2|0:1|1:0,0:0:0:0:
239,231,41145,2,0,P|227:173|236:114,2,120,0|8|0,0:0|0:1|0:0,0:0:0:0:
176,340,42782,5,2,1:2:0:0:
56,332,43327,2,0,L|59:212,1,120,0|8,0:0|0:1,0:0:0:0:
4,104,44418,1,0,0:0:0:0:
124,112,44963,2,0,P|181:97|237:114,2,120,2|0|8,1:2|0:0|0:1,0:0:0:0:
180,220,46600,1,0,0:0:0:0:
300,216,47145,6,0,P|357:202|413:219,1,120,2|0,1:2|0:0,0:0:0:0:
468,325,48236,2,0,P|411:340|355:323,1,120,8|0,0:1|0:0,0:0:0:0:
414,219,49327,2,0,L|411:99,2,120,2|0|8,1:2|0:0|0:1,0:0:0:0:
354,322,50963,1,0,0:0:0:0:
240,284,51509,6,0,P|181:275|127:296,2,120,2|0|8,1:2|0:0|0:1,0:0:0:0:
292,176,53145,1,0,0:0:0:0:
344,68,53691,2,0,P|398:89|457:80,2,120,2|0|8,1:2|0:0|0:1,0:0:0:0:
224,80,55327,1,0,0:0:0:0:
104,68,55873,6,0,P|10:41|43:133,1,240,2|8,1:2|0:1,0:0:0:0:
4,304,57782,1,0,0:0:0:0:
44,260,58054,2,0,P|100:246|157:265,3,120,2|0|8|0,1:2|0:0|0:1|0:0,0:0:0:0:
256,332,60236,5,6,0:1:0:0:
256,332,62418,6,0,P|312:315|370:329,1,120,6|10,1:2|0:1,0:0:0:0:
424,356,63236,1,0,0:0:0:0:
476,328,63509,2,0,B|473:208,1,120,0|10,0:0|0:1,0:0:0:0:
472,88,64600,2,0,P|416:105|358:91,1,120,0|10,1:0|0:1,0:0:0:0:
300,80,65418,1,2,0:0:0:0:
248,108,65691,2,0,L|248:172,2,60,0|0|10,0:0|0:0|0:1,0:0:0:0:
132,76,66782,6,0,B|132:196,1,120,2|10,1:2|0:1,0:0:0:0:
128,256,67600,1,0,0:0:0:0:
124,316,67873,2,0,P|180:299|238:313,1,120,0|10,0:0|0:1,0:0:0:0:
284,200,68963,2,0,P|340:217|398:203,1,120,0|10,1:0|0:1,0:0:0:0:
448,168,69782,1,2,0:0:0:0:
504,188,70054,2,0,L|508:252,2,60,0|0|10,0:0|0:0|0:1,0:0:0:0:
508,68,71145,6,0,P|452:51|394:65,1,120,2|10,1:2|0:1,0:0:0:0:
348,104,71963,1,0,0:0:0:0:
288,104,72236,2,0,B|168:101,1,120,0|10,0:0|0:1,0:0:0:0:
104,204,73327,2,0,B|224:207,1,120,2|10,1:2|0:1,0:0:0:0:
284,208,74145,1,2,0:0:0:0:
332,244,74418,2,0,P|389:258|446:241,1,120,0|10,0:0|0:1,0:0:0:0:
256,192,75509,12,0,77691,1:0:0:0:
72,60,79873,6,0,P|55:116|69:174,1,120,6|10,1:2|0:1,0:0:0:0:
68,236,80691,1,0,0:0:0:0:
108,280,80964,2,0,B|228:277,1,120,0|10,0:0|0:1,0:0:0:0:
320,352,82055,2,0,P|376:335|434:349,1,120,0|10,1:0|0:1,0:0:0:0:
488,324,82873,1,2,0:0:0:0:
488,264,83146,2,0,L|488:204,2,60,0|0|10,0:0|0:0|0:1,0:0:0:0:
372,236,84237,6,0,B|372:116,1,120,2|10,1:2|0:1,0:0:0:0:
316,92,85055,1,0,0:0:0:0:
260,112,85328,2,0,P|204:95|146:109,1,120,0|10,0:0|0:1,0:0:0:0:
84,212,86418,2,0,P|140:229|198:215,1,120,0|10,1:0|0:1,0:0:0:0:
256,204,87237,1,2,0:0:0:0:
308,236,87509,2,0,L|308:296,2,60,0|0|10,0:0|0:0|0:1,0:0:0:0:
348,124,88600,6,0,P|405:109|462:126,1,120,2|10,1:2|0:1,0:0:0:0:
504,172,89418,1,0,0:0:0:0:
484,228,89691,2,0,B|487:348,1,120,0|10,0:0|0:1,0:0:0:0:
368,348,90782,2,0,B|365:228,1,120,2|10,1:2|0:1,0:0:0:0:
312,200,91600,1,2,0:0:0:0:
256,224,91873,2,0,P|196:227|143:201,1,120,0|10,0:0|0:1,0:0:0:0:
256,192,92964,12,6,95146,1:2:0:0:
