osu file format v14

[General]
AudioFilename: Dari Mata.mp3
AudioLeadIn: 0
PreviewTime: 60782
Countdown: 0
SampleSet: Soft
StackLeniency: 0.3
Mode: 0
LetterboxInBreaks: 0
EpilepsyWarning: 1
WidescreenStoryboard: 1

[Editor]
DistanceSpacing: 0.9
BeatDivisor: 4
GridSize: 4
TimelineZoom: 1.3

[Metadata]
Title:Dari Mata
TitleUnicode:Dari Mata
Artist:JAZ
ArtistUnicode:JAZ
Creator:Shiranai
Version:Jatuh ke Hati
Source:
Tags:Mako Sakata Bahasa Indonesia Indonesian Sony Music Entertainment Galau Ganteng Romance Love Lovely Jazz Rnb Guitar
BeatmapID:1274824
BeatmapSetID:603085

[Difficulty]
HPDrainRate:5
CircleSize:4
OverallDifficulty:6
ApproachRate:7.5
SliderMultiplier:1.7
SliderTickRate:1

[Events]
//Background and Video events
0,0,"Darimata.jpg",0,0
//Break Periods
//Storyboard Layer 0 (Background)
//Storyboard Layer 1 (Fail)
//Storyboard Layer 2 (Pass)
//Storyboard Layer 3 (Foreground)
//Storyboard Sound Samples

[TimingPoints]
7873,545.454545454546,4,2,1,70,1,0
7873,-142.857142857143,4,2,1,70,0,0
24509,-142.857142857143,4,2,1,65,0,0
24782,-142.857142857143,4,2,1,60,0,0
25054,-142.857142857143,4,2,1,55,0,0
25327,-125,4,2,1,80,0,0
42782,-111.111111111111,4,2,1,90,0,0
62418,-90.9090909090909,4,2,1,100,0,1
62827,-90.9090909090909,4,2,1,50,0,1
62963,-90.9090909090909,4,2,1,100,0,1
63373,-90.9090909090909,4,2,1,50,0,1
63509,-90.9090909090909,4,2,1,100,0,1
67191,-90.9090909090909,4,2,1,50,0,1
67327,-90.9090909090909,4,2,1,100,0,1
75509,-100,4,2,1,100,0,1
77691,-100,4,2,1,90,0,0
78782,-125,4,2,1,90,0,0
79327,-200,4,2,1,90,0,0
79736,-200,4,2,1,50,0,0
79873,-90.9090909090909,4,2,1,100,0,1
80282,-90.9090909090909,4,2,1,50,0,1
80418,-90.9090909090909,4,2,1,100,0,1
80827,-90.9090909090909,4,2,1,50,0,1
80963,-90.9090909090909,4,2,1,100,0,1
84645,-90.9090909090909,4,2,1,50,0,1
84782,-90.9090909090909,4,2,1,100,0,1
95145,-100,4,2,1,90,0,0

[Colours]
Combo1 : 145,229,103
Combo2 : 255,213,128
Combo3 : 242,121,97
Combo4 : 255,140,179
Combo5 : 187,103,229
Combo6 : 140,236,255

[HitObjects]
462,192,7873,38,0,P|405:207|353:182,1,118.999996368408,2|0,0:0|0:0,0:0:0:0:
208,264,8963,2,0,P|264:248|317:274,1,118.999996368408,2|0,0:0|0:0,0:0:0:0:
256,332,9782,2,0,L|256:364,1,29.7499990921021,0|4,0:0|0:1,0:0:0:0:
132,364,10327,5,0,0:0:0:0:
60,320,10600,2,0,L|60:260,1,59.4999981842042,0|0,0:0|0:0,0:0:0:0:
16,192,11145,2,0,L|48:142,1,59.4999981842042,2|0,0:0|0:0,0:0:0:0:
12,68,11691,2,0,L|64:40,1,59.4999981842042,0|0,0:0|0:0,0:0:0:0:
132,92,12236,6,0,P|189:107|241:82,1,118.999996368408,2|0,0:0|0:0,0:0:0:0:
385,163,13327,2,0,P|329:146|276:172,1,118.999996368408,2|0,0:0|0:0,0:0:0:0:
276,256,14145,2,0,L|276:288,1,29.7499990921021,0|4,0:0|0:1,0:0:0:0:
469,201,14963,6,0,P|478:157|464:116,1,89.2499972763062,0|0,0:0|0:0,0:0:0:0:
440,76,15509,1,2,0:0:0:0:
440,76,16327,1,0,0:0:0:0:
440,76,16600,6,0,L|380:79,1,59.4999981842042,2|0,0:0|0:0,0:0:0:0:
325,166,17145,2,0,L|385:163,1,59.4999981842042,0|0,0:0|0:0,0:0:0:0:
304,84,17691,1,2,0:0:0:0:
304,84,17963,1,0,0:0:0:0:
72,76,18509,1,0,0:0:0:0:
72,76,18782,6,0,L|131:79,1,59.4999981842042,2|0,0:0|0:0,0:0:0:0:
186,166,19327,2,0,L|126:162,1,59.4999981842042,0|0,0:0|0:0,0:0:0:0:
208,84,19873,1,2,0:0:0:0:
208,84,20145,1,0,0:0:0:0:
256,212,20418,2,0,L|256:271,1,59.4999981842042,0|0,0:0|0:0,0:0:0:0:
256,192,20963,12,4,23009,0:1:0:0:
12,284,24236,5,2,0:0:0:0:
50,208,24509,1,0,0:0:0:0:
98,278,24782,1,0,0:0:0:0:
60,355,25054,1,0,0:0:0:0:
50,207,25327,6,0,P|114:194|169:231,1,136,2|0,1:2|0:0,0:0:0:0:
224,300,26145,1,0,0:0:0:0:
169,231,26418,2,0,P|156:167|193:112,1,136,8|0,0:1|0:0,0:0:0:0:
149,32,27236,1,0,0:0:0:0:
193,20,27373,1,0,0:0:0:0:
237,32,27509,5,0,1:0:0:0:
312,80,27782,1,0,0:0:0:0:
397,57,28054,2,0,P|430:52|461:65,1,68,0|0,0:0|0:0,0:0:0:0:
417,144,28600,2,0,P|421:177|408:208,1,68,8|0,0:1|0:0,0:0:0:0:
333,164,29145,2,0,P|299:168|268:155,1,68,0|0,0:0|0:0,0:0:0:0:
344,264,29691,6,0,L|480:256,1,136,2|0,1:2|0:0,0:0:0:0:
480,344,30509,1,0,0:0:0:0:
392,352,30782,2,0,L|256:360,1,136,8|0,0:1|0:0,0:0:0:0:
256,272,31600,1,0,0:0:0:0:
300,268,31736,1,0,0:0:0:0:
344,264,31873,6,0,P|357:200|320:145,1,136,2|0,1:2|0:0,0:0:0:0:
364,68,32691,1,0,0:0:0:0:
320,56,32827,1,0,0:0:0:0:
276,68,32963,2,0,P|212:81|157:44,1,136,8|0,0:1|0:0,0:0:0:0:
68,48,33782,1,0,0:0:0:0:
12,116,34054,6,0,L|15:183,1,68,2|0,1:2|0:0,0:0:0:0:
100,220,34600,2,0,L|103:152,1,68,0|0,0:0|0:0,0:0:0:0:
24,268,35145,1,8,0:1:0:0:
24,268,35418,1,0,0:0:0:0:
284,328,35963,1,0,0:0:0:0:
212,276,36236,6,0,L|215:208,1,68,2|0,1:2|0:0,0:0:0:0:
300,172,36782,2,0,L|303:239,1,68,0|0,0:0|0:0,0:0:0:0:
224,124,37327,1,8,0:1:0:0:
224,124,37600,1,0,0:0:0:0:
266,46,37873,2,0,P|235:35|201:39,1,68,0|0,0:0|0:0,0:0:0:0:
223,124,38418,6,0,P|220:342|393:208,1,544,2|0,1:2|1:0,0:0:0:0:
340,40,41145,6,0,B|304:36|280:64|280:64|252:40|216:43,2,136,0|8|0,0:0|0:1|0:0,0:0:0:0:
496,175,42782,5,2,1:2:0:0:
508,131,42919,1,0,0:0:0:0:
496,87,43055,1,2,0:0:0:0:
411,131,43327,2,0,P|377:115|339:118,1,76.4999976654053,0|0,0:0|0:0,0:0:0:0:
272,180,43873,1,8,0:1:0:0:
292,268,44145,1,0,0:0:0:0:
216,320,44418,2,0,P|178:323|144:306,1,76.4999976654053,0|0,0:0|0:0,0:0:0:0:
292,268,44963,6,0,P|307:302|305:338,1,76.4999976654053,2|0,1:2|0:0,0:0:0:0:
216,320,45509,1,0,0:0:0:0:
292,268,45782,1,0,0:0:0:0:
252,92,46054,1,8,0:1:0:0:
252,92,46600,1,0,0:0:0:0:
272,180,46873,1,0,0:0:0:0:
216,320,47145,6,0,P|182:303|144:306,1,76.4999976654053,2|0,1:2|0:0,0:0:0:0:
68,356,47691,1,0,0:0:0:0:
64,264,47963,1,0,0:0:0:0:
12,188,48236,2,0,P|45:171|83:173,1,76.4999976654053,8|0,0:1|0:0,0:0:0:0:
160,124,48782,1,0,0:0:0:0:
164,216,49054,1,0,0:0:0:0:
108,52,49327,6,0,P|142:35|180:37,1,76.4999976654053,2|0,1:2|0:0,0:0:0:0:
256,88,49873,1,0,0:0:0:0:
260,180,50145,1,0,0:0:0:0:
420,252,50418,1,8,0:1:0:0:
420,252,50963,1,0,0:0:0:0:
464,240,51100,1,2,0:0:0:0:
508,252,51236,1,0,0:0:0:0:
344,292,51509,6,0,P|333:255|342:219,1,76.4999976654053,2|0,1:2|0:0,0:0:0:0:
388,140,52054,2,0,L|464:144,1,76.4999976654053,0|0,0:0|0:0,0:0:0:0:
464,320,52600,1,8,0:1:0:0:
464,320,53145,1,0,0:0:0:0:
388,368,53418,1,0,0:0:0:0:
264,276,53691,6,0,P|226:265|190:274,1,76.4999976654053,2|0,1:2|0:0,0:0:0:0:
133,347,54236,1,0,0:0:0:0:
86,267,54509,1,0,0:0:0:0:
148,196,54782,2,0,P|220:175|294:188,1,152.999995330811,8|0,0:1|0:0,0:0:0:0:
380,222,55600,1,0,0:0:0:0:
452,166,55873,6,0,P|452:45|365:128,1,305.999990661621,2|8,1:2|0:1,0:0:0:0:
160,304,57782,1,0,0:0:0:0:
244,268,58054,6,0,P|231:200|163:213,3,152.999995330811,2|0|8|0,1:2|0:0|0:1|0:0,0:0:0:0:
128,128,59964,1,0,1:0:0:0:
128,84,60100,1,0,1:0:0:0:
128,40,60236,5,6,0:1:0:0:
384,344,62146,1,0,1:0:0:0:
384,300,62282,1,0,1:0:0:0:
384,256,62418,6,0,P|318:272|256:242,1,140.25000428009,6|0,1:2|0:0,0:0:0:0:
208,248,62963,2,0,P|141:232|79:262,1,140.25000428009,10|0,0:1|0:0,0:0:0:0:
52,300,63509,2,0,L|48:160,1,140.25000428009,0|0,0:0|1:0,0:0:0:0:
48,112,64054,2,0,P|93:121|136:104,1,93.5000028533936,10|0,0:1|1:0,0:0:0:0:
300,40,64600,6,0,B|280:88|307:130|307:130|259:110|218:137,1,187.000005706787,0|10,1:0|0:1,0:0:0:0:
188,267,65418,1,2,0:0:0:0:
268,218,65691,1,0,0:0:0:0:
218,136,65963,1,0,0:0:0:0:
218,93,66100,1,0,1:0:0:0:
218,51,66236,1,10,0:1:0:0:
116,340,66782,6,0,P|177:370|244:354,1,140.25000428009,2|0,1:2|0:0,0:0:0:0:
295,352,67327,2,0,P|299:305|290:259,1,93.5000028533936,10|0,0:1|0:0,0:0:0:0:
380,112,67873,2,0,P|368:180|376:250,1,140.25000428009,0|0,0:0|1:0,0:0:0:0:
388,296,68419,2,0,P|342:289|300:308,1,93.5000028533936,10|0,0:1|1:0,0:0:0:0:
152,194,68963,6,0,P|235:228|313:182,1,187.000005706787,0|10,1:0|0:1,0:0:0:0:
282,56,69782,1,2,0:0:0:0:
230,136,70054,1,0,0:0:0:0:
313,181,70327,1,0,0:0:0:0:
313,222,70463,1,0,1:0:0:0:
313,264,70600,1,10,0:1:0:0:
72,156,71145,5,2,1:2:0:0:
96,116,71282,2,0,L|93:23,2,93.5000028533936,0|2|2,0:0|0:0|0:0,0:0:0:0:
156,204,72100,1,0,0:0:0:0:
156,204,72236,1,2,0:0:0:0:
156,204,72373,2,0,P|202:196|244:214,1,93.5000028533936,0|0,0:0|1:0,0:0:0:0:
276,248,72782,1,10,0:1:0:0:
364,280,73054,1,0,1:0:0:0:
436,220,73327,5,2,1:2:0:0:
412,180,73463,2,0,L|415:86,1,93.5000028533936,0|0,0:0|0:0,0:0:0:0:
384,52,73873,2,0,P|338:42|297:62,1,93.5000028533936,10|2,0:1|0:0,0:0:0:0:
272,154,74418,2,0,L|275:247,1,93.5000028533936,0|0,0:0|0:0,0:0:0:0:
240,280,74827,1,0,1:0:0:0:
240,280,74963,1,10,0:1:0:0:
180,352,75236,1,0,0:0:0:0:
148,272,75509,6,0,B|154:229|87:167|24:162|12:124|2:76|39:16|89:39|109:46|119:58|119:58|129:47|149:40|201:25|234:90|224:138|200:174|132:167|61:224|66:267,1,680,2|0,1:2|1:0,0:0:0:0:
282,125,78236,6,0,P|283:83|271:42,1,85,10|2,0:1|0:0,0:0:0:0:
236,189,78782,6,0,P|283:173|332:186,1,102,0|0,0:0|1:0,0:0:0:0:
288,257,79327,6,0,L|289:320,1,63.75,10|0,0:1|0:0,0:0:0:0:
381,255,79873,6,0,L|377:114,1,140.25000428009,6|0,1:2|0:0,0:0:0:0:
376,68,80418,2,0,B|352:68|326:56|326:56|284:81|240:61,1,140.25000428009,10|0,0:1|0:0,0:0:0:0:
204,88,80963,2,0,L|63:92,1,140.25000428009,0|0,0:0|1:0,0:0:0:0:
28,124,81509,2,0,P|41:169|30:214,1,93.5000028533936,10|0,0:1|1:0,0:0:0:0:
116,376,82054,6,0,B|92:336|104:284|104:284|132:248|132:196,1,187.000005706787,0|10,1:0|0:1,0:0:0:0:
204,88,82873,1,2,0:0:0:0:
253,168,83146,1,0,0:0:0:0:
335,118,83418,1,0,0:0:0:0:
377,118,83555,1,0,1:0:0:0:
418,118,83691,1,10,0:1:0:0:
242,366,84236,6,0,P|176:345|115:375,1,140.25000428009,2|0,1:2|0:0,0:0:0:0:
72,356,84782,2,0,L|68:252,1,93.5000028533936,10|0,0:1|0:0,0:0:0:0:
242,255,85327,2,0,P|307:275|368:245,1,140.25000428009,0|0,0:0|1:0,0:0:0:0:
412,265,85873,2,0,L|416:369,1,93.5000028533936,10|0,0:1|1:0,0:0:0:0:
470,178,86418,6,0,P|386:143|301:178,1,187.000005706787,0|10,1:0|0:1,0:0:0:0:
169,195,87236,1,2,0:0:0:0:
242,255,87509,1,0,0:0:0:0:
230,120,87782,1,0,0:0:0:0:
230,77,87919,1,0,1:0:0:0:
230,35,88055,1,10,0:1:0:0:
412,265,88600,5,2,1:2:0:0:
456,280,88736,2,0,L|452:373,2,93.5000028533936,0|2|2,0:0|0:0|0:0,0:0:0:0:
448,188,89554,1,0,0:0:0:0:
448,188,89691,1,2,0:0:0:0:
448,188,89827,2,0,P|402:179|359:197,1,93.5000028533936,0|0,0:0|1:0,0:0:0:0:
328,232,90236,1,10,0:1:0:0:
240,200,90509,1,0,1:0:0:0:
160,248,90782,5,2,1:2:0:0:
120,224,90918,2,0,L|123:130,1,93.5000028533936,0|0,0:0|0:0,0:0:0:0:
92,96,91327,2,0,P|46:87|3:103,1,93.5000028533936,10|2,0:1|0:0,0:0:0:0:
8,196,91873,2,0,L|11:289,1,93.5000028533936,0|0,0:0|0:0,0:0:0:0:
12,336,92282,1,0,1:0:0:0:
12,336,92418,1,10,0:1:0:0:
100,304,92691,1,0,0:0:0:0:
256,192,92963,12,4,95145,1:2:0:0:
