osu file format v14

[General]
AudioFilename: Dari Mata.mp3
AudioLeadIn: 0
PreviewTime: 60782
Countdown: 0
SampleSet: Soft
StackLeniency: 0.3
Mode: 0
LetterboxInBreaks: 0
EpilepsyWarning: 1
WidescreenStoryboard: 1

[Editor]
DistanceSpacing: 1.2
BeatDivisor: 4
GridSize: 4
TimelineZoom: 1

[Metadata]
Title:Dari Mata
TitleUnicode:Dari Mata
Artist:JAZ
ArtistUnicode:JAZ
Creator:Shiranai
Version:Advanced
Source:
Tags:Mako Sakata Bahasa Indonesia Indonesian Sony Music Entertainment Galau Ganteng Romance Love Lovely Jazz Rnb Guitar
BeatmapID:1273783
BeatmapSetID:603085

[Difficulty]
HPDrainRate:4
CircleSize:3.5
OverallDifficulty:4
ApproachRate:4.5
SliderMultiplier:1.4
SliderTickRate:1

[Events]
//Background and Video events
0,0,"Darimata.jpg",0,0
//Break Periods
//Storyboard Layer 0 (Background)
//Storyboard Layer 1 (Fail)
//Storyboard Layer 2 (Pass)
//Storyboard Layer 3 (Foreground)
//Storyboard Sound Samples

[TimingPoints]
7873,545.454545454546,4,2,1,70,1,0
24509,-100,4,2,1,65,0,0
24782,-100,4,2,1,60,0,0
25054,-100,4,2,1,55,0,0
25327,-100,4,2,1,80,0,0
42782,-100,4,2,1,90,0,0
62418,-100,4,2,1,100,0,1
77691,-100,4,2,1,90,0,0
79873,-100,4,2,1,100,0,1
95145,-100,4,2,1,90,0,0

[Colours]
Combo1 : 145,229,103
Combo2 : 255,213,128
Combo3 : 242,121,97
Combo4 : 255,140,179
Combo5 : 187,103,229
Combo6 : 140,236,255

[HitObjects]
76,212,7873,38,0,P|67:280|87:347,1,140,2|0,0:0|0:0,0:0:0:0:
236,268,8963,2,0,P|244:199|224:132,1,140,2|0,0:0|0:0,0:0:0:0:
224,48,9782,2,0,L|259:48,1,35,0|4,0:0|0:1,0:0:0:0:
384,48,10327,5,0,0:0:0:0:
340,120,10600,2,0,L|340:192,1,70
420,216,11145,2,0,L|407:284,1,70,2|0,0:0|0:0,0:0:0:0:
484,320,11691,2,0,L|449:380,1,70
368,360,12236,6,0,P|299:351|232:371,1,140,2|0,0:0|0:0,0:0:0:0:
144,228,13327,2,0,P|75:236|8:216,1,140,2|0,0:0|0:0,0:0:0:0:
32,136,14145,2,0,L|32:101,1,35,0|4,0:0|0:1,0:0:0:0:
239,76,14963,6,0,P|309:68|375:89,1,140,0|2,0:0|0:0,0:0:0:0:
281,323,16328,1,0,0:0:0:0:
257,241,16600,6,0,P|291:237|323:250,2,70,2|0|0,0:0|0:0|0:0,0:0:0:0:
199,303,17418,1,0,0:0:0:0:
123,267,17690,2,0,L|120:197,1,70,2|0,0:0|0:0,0:0:0:0:
180,40,18508,1,0,0:0:0:0:
252,84,18781,6,0,L|256:153,2,70,2|0|0,0:0|0:0|0:0,0:0:0:0:
328,48,19600,1,0,0:0:0:0:
403,84,19873,2,0,P|438:78|471:88,1,70,2|0,0:0|0:0,0:0:0:0:
432,163,20418,2,0,P|397:169|364:159,1,70
256,192,20963,12,4,23009,0:1:0:0:
504,320,24236,6,0,P|470:329|436:325,1,70,2|0,0:0|0:0,0:0:0:0:
364,284,24782,2,0,P|330:274|296:278,1,70
220,312,25327,6,0,P|152:321|85:301,1,140,2|0,1:2|0:0,0:0:0:0:
24,244,26145,1,0,0:0:0:0:
92,196,26418,2,0,P|160:187|227:207,1,140,8|0,0:1|0:0,0:0:0:0:
348,92,27509,5,0,1:0:0:0:
376,172,27782,1,0,0:0:0:0:
456,148,28054,2,0,P|487:162|509:188,1,70
435,231,28600,2,0,P|441:266|431:299,1,70,8|0,0:1|0:0,0:0:0:0:
357,258,29145,2,0,P|326:274|292:275,1,70
307,192,29691,6,0,B|295:136|295:136|323:104|312:58,1,140,2|0,1:2|0:0,0:0:0:0:
231,80,30509,1,0,0:0:0:0:
151,48,30782,2,0,P|83:39|16:59,1,140,8|0,0:1|0:0,0:0:0:0:
31,228,31873,6,0,P|99:236|166:216,1,140,2|0,1:2|0:0,0:0:0:0:
231,162,32691,1,0,0:0:0:0:
299,210,32963,1,8,0:1:0:0:
472,28,33782,1,0,0:0:0:0:
428,100,34054,6,0,P|422:134|434:166,2,70,2|0|0,1:2|0:0|0:0,0:0:0:0:
508,124,34873,1,0,0:0:0:0:
508,208,35145,2,0,L|505:278,1,70,8|0,0:1|0:0,0:0:0:0:
356,356,35963,1,0,0:0:0:0:
296,296,36236,6,0,L|299:226,2,70,2|0|0,1:2|0:0|0:0,0:0:0:0:
216,320,37054,1,0,0:0:0:0:
144,280,37327,2,0,P|109:270|76:280,1,70,8|0,0:1|0:0,0:0:0:0:
76,362,37873,2,0,P|109:369|142:360,1,70
216,320,38418,6,0,B|180:256|216:184|216:184|252:112|216:52,2,280,2|8|0,1:2|0:1|1:0,0:0:0:0:
372,251,41145,6,0,P|323:292|286:241,2,140,0|8|0,0:0|0:1|0:0,0:0:0:0:
392,84,42782,5,2,1:2:0:0:
476,92,43054,1,2,0:0:0:0:
428,161,43327,2,0,P|395:171|361:165,1,70
292,116,43873,2,0,P|224:107|157:127,1,140,8|0,0:1|0:0,0:0:0:0:
80,92,44691,1,0,0:0:0:0:
16,144,44963,6,0,L|19:213,1,70,2|0,1:2|0:0,0:0:0:0:
92,256,45509,2,0,L|95:325,1,70
20,364,46054,1,8,0:1:0:0:
180,320,46600,1,0,0:0:0:0:
248,372,46873,1,0,0:0:0:0:
324,336,47145,6,0,P|359:330|391:342,2,70,2|0|0,1:2|0:0|0:0,0:0:0:0:
256,288,47963,1,0,0:0:0:0:
260,204,48236,2,0,B|268:148|268:148|240:116|251:69,1,140,8|0,0:1|0:0,0:0:0:0:
332,92,49054,1,0,0:0:0:0:
408,56,49327,6,0,P|442:49|474:61,1,70,2|0,1:2|0:0,0:0:0:0:
468,144,49873,2,0,P|433:150|401:138,1,70
332,92,50418,1,8,0:1:0:0:
164,68,50963,1,0,0:0:0:0:
228,124,51236,1,0,0:0:0:0:
148,152,51509,6,0,P|113:151|79:160,1,70,2|0,1:2|0:0,0:0:0:0:
0,132,52054,2,0,L|3:201,1,70
64,260,52600,2,0,P|130:239|199:248,1,140,8|0,0:1|0:0,0:0:0:0:
276,284,53418,1,0,0:0:0:0:
348,240,53691,6,0,L|345:171,2,70,2|0|0,1:2|0:0|0:0,0:0:0:0:
348,323,54509,1,0,0:0:0:0:
420,284,54782,2,0,P|478:312|504:256,1,140,8|0,0:1|0:0,0:0:0:0:
348,323,55873,6,0,B|284:287|212:323|212:323|140:359|80:323,1,280,2|8,1:2|0:1,0:0:0:0:
36,76,57782,1,0,0:0:0:0:
111,112,58054,6,0,P|144:173|146:243,3,140,2|0|8|0,1:2|0:0|0:1|0:0,0:0:0:0:
76,288,59963,2,0,L|80:324,2,35,0|0|6,1:0|1:0|0:1,0:0:0:0:
424,104,62145,6,0,L|428:68,1,35,0|0,1:0|1:0,0:0:0:0:
388,56,62418,6,0,P|319:46|252:67,1,140,6|10,1:2|0:1,0:0:0:0:
176,36,63236,1,0,0:0:0:0:
180,120,63509,2,0,L|184:224,1,105,0|0,0:0|1:0,0:0:0:0:
184,268,64054,2,0,P|149:263|116:273,1,70,10|0,0:1|1:0,0:0:0:0:
68,344,64600,6,0,L|61:204,1,140,0|10,1:0|0:1,0:0:0:0:
56,120,65418,1,2,0:0:0:0:
94,45,65691,2,0,P|60:35|26:40,2,70,0|0|10,0:0|0:0|0:1,0:0:0:0:
224,152,66782,6,0,P|290:132|359:142,1,140,2|10,1:2|0:1,0:0:0:0:
420,200,67600,1,0,0:0:0:0:
352,248,67873,2,0,P|301:260|249:254,1,105,0|0,0:0|1:0,0:0:0:0:
216,280,68418,2,0,L|219:349,1,70,10|0,0:1|1:0,0:0:0:0:
300,372,68963,6,0,P|366:352|435:362,1,140,0|10,1:0|0:1,0:0:0:0:
504,316,69782,1,2,0:0:0:0:
468,240,70054,2,0,L|471:171,2,70,0|0|10,0:0|0:0|0:1,0:0:0:0:
298,244,71145,6,0,P|248:232|199:249,1,105,2|2,1:2|0:0,0:0:0:0:
169,279,71691,1,10,0:1:0:0:
87,296,71963,1,0,0:0:0:0:
14,253,72236,2,0,L|18:149,1,105,0|0,0:0|1:0,0:0:0:0:
20,105,72782,2,0,P|52:117|86:111,1,70,10|0,0:1|1:0,0:0:0:0:
160,152,73327,6,0,P|226:131|295:141,1,140,2|10,1:2|0:1,0:0:0:0:
368,184,74145,1,2,0:0:0:0:
440,140,74418,2,0,L|436:70,2,70,0|0|10,0:0|0:0|0:1,0:0:0:0:
278,192,75509,6,0,B|207:180|184:281|253:323|253:323|336:359|336:359|412:309|412:309|472:256|434:156|367:183,1,560,2|0,1:2|1:0,0:0:0:0:
282,39,78236,6,0,P|316:28|349:37,1,70,10|2,0:1|0:0,0:0:0:0:
317,116,78782,1,0,0:0:0:0:
330,283,79327,1,10,0:1:0:0:
486,215,79873,6,0,B|480:241|464:266|464:266|495:295|488:343,1,140,6|10,1:2|0:1,0:0:0:0:
404,326,80691,1,0,0:0:0:0:
330,367,80963,2,0,P|279:355|227:360,1,105,0|0,0:0|1:0,0:0:0:0:
191,337,81509,2,0,L|194:268,1,70,10|0,0:1|1:0,0:0:0:0:
263,216,82054,6,0,P|204:183|137:199,1,140,0|10,1:0|0:1,0:0:0:0:
54,207,82873,1,2,0:0:0:0:
87,130,83145,2,0,L|83:60,2,70,0|0|10,0:0|0:0|0:1,0:0:0:0:
21,284,84236,6,0,P|82:316|148:298,1,140,2|10,1:2|0:1,0:0:0:0:
209,241,85054,1,0,0:0:0:0:
260,308,85327,2,0,L|364:304,1,105,0|0,0:0|1:0,0:0:0:0:
392,272,85873,2,0,P|427:267|460:277,1,70,10|0,0:1|1:0,0:0:0:0:
501,349,86418,6,0,L|508:209,1,140,0|10,1:0|0:1,0:0:0:0:
468,136,87236,1,2,0:0:0:0:
387,163,87509,2,0,P|382:129|392:96,2,70,0|0|10,0:0|0:0|0:1,0:0:0:0:
220,144,88600,6,0,L|115:140,1,105,2|2,1:2|0:0,0:0:0:0:
76,156,89145,1,10,0:1:0:0:
52,76,89418,1,0,0:0:0:0:
132,48,89691,2,0,L|236:52,1,105,0|0,0:0|1:0,0:0:0:0:
268,80,90236,2,0,L|336:64,1,70,10|0,0:1|1:0,0:0:0:0:
400,120,90782,6,0,B|392:176|392:176|420:208|409:255,1,140,2|10,1:2|0:1,0:0:0:0:
328,232,91600,1,2,0:0:0:0:
280,300,91873,2,0,P|275:334|285:367,2,70,0|0|10,0:0|0:0|0:1,0:0:0:0:
256,192,92963,12,6,95144,1:2:0:0:
