osu file format v14

[General]
AudioFilename: opening.mp3
AudioLeadIn: 0
PreviewTime: 28618
Countdown: 0
SampleSet: Normal
StackLeniency: 0.5
Mode: 0
LetterboxInBreaks: 0
WidescreenStoryboard: 0

[Editor]
Bookmarks: 8426,17657,25042,32426,39811,54580,69349,76734,87809
DistanceSpacing: 1
BeatDivisor: 4
GridSize: 4
TimelineZoom: 1

[Metadata]
Title:THE HERO!!~Ikareru Kobushi ni Hi o Tsukero~ (TV Size)
TitleUnicode:THE HERO!!~怒れる拳に火をつけろ~ (TV Size)
Artist:JAM Project
ArtistUnicode:JAM Project
Creator:Sonnyc
Version:Expert
Source:ワンパンマン
Tags:오늘부터 수능이다 아싸 one punch man wanpanman 원펀맨 opening eINess halloween [_HalLoWeeN_] Reol Set Fire to the Furious Fist
BeatmapID:821086
BeatmapSetID:374827

[Difficulty]
HPDrainRate:6
CircleSize:4
OverallDifficulty:8
ApproachRate:9.2
SliderMultiplier:1.8
SliderTickRate:1

[Events]
//Background and Video events
0,0,"bg.jpg",0,0
Video,-1400,"OPMOP.avi"
//Break Periods
//Storyboard Layer 0 (Background)
//Storyboard Layer 1 (Fail)
//Storyboard Layer 2 (Pass)
//Storyboard Layer 3 (Foreground)
//Storyboard Sound Samples

[TimingPoints]
1042,230.769230769231,4,1,1,50,1,0
1042,-250,4,1,1,50,0,0
2888,-222.222222222222,4,1,1,50,0,0
4734,-200,4,1,1,50,0,0
8426,-100,4,1,1,60,0,0
15811,-200,4,1,1,60,0,0
17657,-100,4,1,1,60,0,0
32426,-166.666666666667,4,1,1,50,0,0
39695,-166.666666666667,4,1,1,5,0,0
39811,-100,4,1,1,60,0,1
52734,-166.666666666667,4,1,1,60,0,0
54580,-100,4,1,1,60,0,1
69349,-100,4,1,1,60,0,0
80406,230.769230769231,4,1,1,60,1,0
84098,-166.666666666667,4,1,1,60,0,0
85502,230.769230769231,4,1,1,60,1,0
85502,-166.666666666667,4,1,1,60,0,0
86655,-166.666666666667,4,1,1,50,0,0
86732,-166.666666666667,4,1,1,40,0,0
86809,-166.666666666667,4,1,1,30,0,0
86886,-166.666666666667,4,1,1,20,0,0
87348,-166.666666666667,4,1,1,10,0,0
87809,-166.666666666667,4,2,1,5,0,0

[Colours]
Combo1 : 192,192,192
Combo2 : 27,250,138
Combo3 : 128,128,255
Combo4 : 255,128,192
Combo5 : 255,255,21
Combo6 : 128,128,128

[HitObjects]
128,108,1042,70,0,L|136:196,1,72,0|0,0:0|2:0,0:0:0:0:
128,208,1388,2,0,L|216:200,1,72,0|0,0:0|2:0,0:0:0:0:
220,180,1734,2,0,L|308:188,1,72,0|0,0:0|2:0,0:0:0:0:
320,190,2080,1,0,0:0:0:0:
412,288,2311,1,0,1:0:0:0:
424,264,2426,1,0,0:0:0:0:
436,240,2542,1,0,2:0:0:0:
448,216,2657,1,0,0:0:0:0:
460,192,2772,1,0,2:0:0:0:
472,168,2888,6,0,P|432:172|392:160,1,80.9999975280763,0|0,0:0|2:0,0:0:0:0:
324,132,3234,2,0,P|285:143|245:139,1,80.9999975280763,0|0,0:0|2:0,0:0:0:0:
172,120,3580,2,0,P|132:116|92:128,1,80.9999975280763,0|0,0:0|2:0,0:0:0:0:
32,172,3926,2,0,L|36:260,1,80.9999975280763,0|0,0:0|2:0,0:0:0:0:
45,283,4272,1,0,0:0:0:0:
54,314,4388,1,0,2:0:0:0:
64,345,4503,1,0,0:0:0:0:
272,276,4734,70,0,B|312:292|348:276|348:276|360:256,1,90
224,200,5080,2,0,B|190:226|186:265|186:265|197:286,1,90,0|0,0:0|2:0,0:0:0:0:
314,197,5426,2,0,B|307:154|275:131|275:131|252:130,1,90
184,132,5772,1,0,0:0:0:0:
232,344,6003,1,0,0:0:0:0:
232,344,6118,1,0,0:0:0:0:
392,196,6349,1,0,0:0:0:0:
268,224,6580,5,2,0:0:0:0:
256,192,6695,12,0,8195,2:0:0:0:
212,104,8426,6,0,P|136:88|84:184,1,180,12|2,0:0|0:3,0:0:0:0:
238,180,8772,2,0,P|289:122|232:29,1,180,8|2,0:0|0:3,0:0:0:0:
160,164,9118,2,0,L|192:348,1,180,8|2,0:0|0:3,0:0:0:0:
238,180,9465,2,0,L|270:364,1,180,8|2,0:0|0:3,0:0:0:0:
412,356,9811,1,8,0:0:0:0:
340,324,9926,1,8,0:0:0:0:
468,236,10042,1,8,0:0:0:0:
476,312,10157,1,2,0:3:0:0:
332,248,10272,6,0,P|280:188|336:96,1,180,8|0,0:0|0:0,0:0:0:0:
474,88,10618,2,0,P|448:163|340:160,1,180,8|2,0:0|0:3,0:0:0:0:
265,46,10965,2,0,P|342:30|394:125,2,180,8|0|2,0:0|0:0|0:3,0:0:0:0:
204,96,11542,1,2,0:3:0:0:
149,151,11657,2,0,P|128:112|132:68,1,90,8|0,0:0|0:0,0:0:0:0:
168,225,11888,2,0,P|124:224|88:199,1,90,8|0,0:0|0:0,0:0:0:0:
228,172,12118,6,0,P|242:256|172:305,1,180,8|2,0:0|0:2,0:0:0:0:
149,151,12465,2,0,L|340:196,1,180,8|2,0:0|0:3,0:0:0:0:
372,256,12811,2,0,P|358:172|428:123,1,180,8|2,0:0|0:3,0:0:0:0:
420,320,13157,2,0,P|392:332|316:316,1,90,8|0,0:0|0:0,0:0:0:0:
176,284,13388,1,0,0:0:0:0:
176,284,13503,2,0,P|204:296|280:280,1,90,8|0,0:0|0:0,0:0:0:0:
144,210,13734,2,0,P|119:228|95:302,1,90,2|0,0:3|0:0,0:0:0:0:
224,220,13965,6,0,P|208:160|88:152,1,180,8|2,0:0|0:3,0:0:0:0:
176,284,14311,2,0,L|372:256,1,180,8|2,0:0|0:3,0:0:0:0:
400,192,14657,2,0,P|432:248|356:340,1,180,8|0,0:0|0:0,0:0:0:0:
320,188,15003,1,8,0:0:0:0:
364,120,15118,1,8,0:0:0:0:
440,124,15234,1,2,0:3:0:0:
512,264,15349,37,8,0:0:0:0:
354,258,15465,1,0,0:0:0:0:
480,192,15580,1,0,0:0:0:0:
474,331,15695,1,0,0:0:0:0:
396,328,15811,53,2,0:3:0:0:
440,124,16157,1,0,0:0:0:0:
396,328,16503,1,0,0:0:0:0:
440,124,16965,5,0,0:0:0:0:
354,258,17195,1,0,0:0:0:0:
440,124,17426,1,0,0:0:0:0:
320,188,17657,6,0,P|280:200|232:192,1,90,4|0,0:0|0:0,0:0:0:0:
160,160,17888,1,8,0:0:0:0:
168,240,18003,1,0,0:0:0:0:
272,120,18118,2,0,L|260:30,1,90,2|0,0:3|0:0,0:0:0:0:
392,140,18349,2,0,P|404:180|396:228,1,90,8|0,0:0|0:0,0:0:0:0:
273,282,18580,6,0,P|357:256|436:296,1,180,2|8,0:3|0:0,0:0:0:0:
388,360,18926,2,0,P|304:386|225:346,1,180,2|2,0:3|0:3,0:0:0:0:
180,280,19272,2,0,P|192:236|184:188,1,90,8|0,0:0|0:0,0:0:0:0:
64,112,19503,6,0,P|143:149|228:124,1,180,2|8,0:3|0:0,0:0:0:0:
448,56,19849,1,0,0:0:0:0:
448,56,19965,2,0,P|368:93|284:67,1,180,2|8,0:3|0:0,0:0:0:0:
220,20,20311,1,0,0:0:0:0:
284,224,20426,5,2,0:3:0:0:
383,278,20542,1,0,0:0:0:0:
440,180,20657,1,8,0:0:0:0:
339,124,20772,1,8,0:0:0:0:
284,224,20888,37,2,0:3:0:0:
361,201,21003,1,2,0:3:0:0:
440,180,21118,1,4,0:2:0:0:
255,319,21349,6,0,P|224:304|136:336,1,90,4|2,0:2|0:3,0:0:0:0:
10,286,21580,2,0,P|54:292|96:276,1,90,2|2,0:3|0:3,0:0:0:0:
160,136,21811,1,8,0:0:0:0:
80,144,21926,1,0,0:0:0:0:
236,168,22042,1,0,0:0:0:0:
228,88,22157,1,0,0:0:0:0:
172,216,22272,6,0,P|268:240|312:144,1,180,8|2,0:0|0:3,0:0:0:0:
348,48,22618,2,0,B|340:112|340:112|399:142|388:208,1,180
364,284,22965,1,8,0:0:0:0:
313,185,23080,1,8,0:0:0:0:
444,268,23195,5,4,0:2:0:0:
420,344,23311,1,8,0:0:0:0:
281,305,23426,2,0,P|319:282|364:284,1,90
300,380,23657,1,8,0:0:0:0:
224,356,23772,1,0,0:0:0:0:
208,280,23888,2,0,B|220:240|260:228|260:228|255:206|256:180|256:180|276:162|292:144|292:144|264:20|128:12|72:72,1,450,4|0,0:2|0:0,0:0:0:0:
24,124,24580,37,8,0:0:0:0:
36,200,24695,1,8,0:0:0:0:
48,276,24811,1,8,0:0:0:0:
60,352,24926,1,8,0:0:0:0:
208,280,25042,6,0,P|204:324|224:376,1,90,4|0,0:2|0:0,0:0:0:0:
236,204,25272,2,0,P|292:224|408:192,1,180,8|2,0:0|0:3,0:0:0:0:
448,128,25618,1,2,0:3:0:0:
440,268,25734,1,8,0:0:0:0:
405,194,25849,1,0,0:0:0:0:
483,200,25965,6,0,P|516:248|448:348,1,180,2|8,0:3|0:0,0:0:0:0:
388,364,26311,1,2,0:3:0:0:
284,312,26426,1,2,0:3:0:0:
232,372,26542,1,2,0:3:0:0:
167,274,26657,1,8,0:0:0:0:
91,299,26772,1,0,0:0:0:0:
85,182,26888,6,0,P|160:200|256:168,1,180,2|8,0:3|0:0,0:0:0:0:
296,100,27234,1,0,0:0:0:0:
296,100,27349,2,0,P|221:82|125:114,2,180,2|8|2,0:3|0:0|0:3,0:0:0:0:
356,48,27926,1,2,0:3:0:0:
356,48,28042,2,0,P|372:80|360:148,1,90,4|0,0:2|0:0,0:0:0:0:
336,204,28272,1,2,0:3:0:0:
218,254,28388,1,8,0:0:0:0:
284,145,28503,1,8,0:0:0:0:
296,272,28618,1,8,0:0:0:0:
211,176,28734,38,0,P|160:200|144:268,1,90,4|2,0:2|0:3,0:0:0:0:
164,112,28965,2,0,P|106:116|68:174,1,90,2|2,0:3|0:3,0:0:0:0:
141,35,29195,2,0,P|85:19|29:61,2,90,8|0|0,0:0|0:0|0:0,0:0:0:0:
356,48,29657,5,2,0:3:0:0:
360,124,29772,1,8,0:0:0:0:
308,184,29888,2,0,P|336:200|400:192,1,90,2|0,0:3|0:0,0:0:0:0:
357,295,30118,2,0,P|401:291|436:264,1,90,8|0,0:0|0:0,0:0:0:0:
455,366,30349,1,0,0:0:0:0:
231,200,30580,6,0,P|155:168|87:248,1,180,4|0,0:2|0:0,0:0:0:0:
120,384,30926,2,0,P|185:334|150:235,1,180,8|0,0:0|0:0,0:0:0:0:
20,304,31272,2,0,L|110:304,1,90,4|0,0:2|0:0,0:0:0:0:
280,328,31503,5,8,0:0:0:0:
280,328,31618,2,0,P|356:296|424:376,1,180,2|8,0:3|0:0,0:0:0:0:
464,276,31965,2,0,L|421:354,1,90,8|2,0:0|0:3,0:0:0:0:
356,48,32426,6,0,B|300:88|252:56|204:24|148:64,1,215.999993408203,4|8,1:2|0:0,2:0:0:0:
64,184,33118,1,2,0:3:0:0:
204,136,33349,1,8,0:0:0:0:
204,136,33465,1,8,0:0:0:0:
204,136,33580,1,2,0:3:0:0:
63,93,33811,1,8,0:0:0:0:
151,210,34042,1,2,0:3:0:0:
92,344,34272,6,0,P|180:312|296:344,1,215.999993408203,8|8,1:0|0:0,2:0:0:0:
428,280,34965,1,2,0:3:0:0:
308,196,35195,1,8,0:0:0:0:
308,196,35311,1,8,0:0:0:0:
308,196,35426,2,0,L|316:128,1,53.9999983520508,2|0,0:3|0:0,0:0:0:0:
388,96,35657,1,8,0:0:0:0:
380,60,35772,1,8,0:0:0:0:
372,24,35888,1,2,0:3:0:0:
294,343,36118,69,4,0:2:0:0:
136,288,36349,1,2,0:3:0:0:
308,196,36580,1,8,0:0:0:0:
124,180,36811,1,2,0:3:0:0:
128,216,36926,1,2,0:3:0:0:
132,252,37042,1,8,0:0:0:0:
312,160,37272,1,2,0:3:0:0:
144,360,37503,2,0,L|132:252,1,107.999996704102,8|2,0:0|0:3,0:0:0:0:
316,124,37965,5,8,0:0:0:0:
412,224,38195,1,8,0:0:0:0:
381,246,38311,1,8,0:0:0:0:
346,259,38426,1,8,0:0:0:0:
308,262,38542,1,2,0:3:0:0:
272,256,38657,1,2,0:3:0:0:
237,238,38772,1,2,0:3:0:0:
209,213,38888,1,8,0:0:0:0:
316,124,39349,70,0,P|384:148|456:104,1,161.999995056153,2|0,1:2|2:0,2:0:0:0:
404,44,39811,22,0,P|326:23|250:79,1,180,4|8,0:0|0:0,0:0:0:0:
240,236,40157,1,0,0:0:0:0:
316,124,40272,1,2,0:3:0:0:
180,116,40388,1,2,0:3:0:0:
240,236,40503,2,0,L|300:356,1,90,8|0,0:0|0:0,0:0:0:0:
397,366,40734,6,0,P|312:343|232:380,1,180,2|8,0:3|0:0,0:0:0:0:
168,332,41080,1,0,0:0:0:0:
168,332,41195,2,0,P|120:348|52:316,1,90,2|2,0:3|0:3,0:0:0:0:
70,201,41426,2,0,P|107:234|114:309,1,90,8|0,0:0|0:0,0:0:0:0:
40,277,41657,6,0,P|70:201|40:112,1,180,2|8,0:3|0:0,0:0:0:0:
177,55,42003,1,0,0:0:0:0:
177,55,42118,2,0,L|88:48,1,90,2|2,0:3|0:3,0:0:0:0:
312,112,42349,2,0,L|222:119,1,90,8|0,0:0|0:0,0:0:0:0:
447,55,42580,6,0,B|432:116|432:116|448:164|448:164|436:232,1,180,2|8,0:3|0:0,0:0:0:0:
319,303,42926,2,0,P|391:258|464:304,1,180,2|2,0:3|0:3,0:0:0:0:
392,340,43272,1,8,0:0:0:0:
312,112,43503,38,0,P|240:157|167:111,1,180,4|8,0:2|0:0,0:0:0:0:
239,75,43849,1,2,0:3:0:0:
200,200,43965,2,0,L|161:325,1,90,2|2,0:3|0:3,0:0:0:0:
268,268,44195,2,0,L|356:364,1,90,8|0,0:0|0:0,0:0:0:0:
360,243,44426,2,0,P|366:242|436:104,1,180,2|8,0:3|0:0,0:0:0:0:
404,36,44772,1,2,0:3:0:0:
404,36,44888,1,2,0:3:0:0:
81,110,45118,6,0,P|121:122|169:110,1,90,8|0,0:0|0:0,0:0:0:0:
325,142,45349,2,0,P|282:131|240:144,1,90,2|2,0:3|0:3,0:0:0:0:
92,192,45580,1,8,0:0:0:0:
92,192,45695,1,2,0:3:0:0:
92,192,45811,2,0,P|132:204|180:192,1,90,2|2,0:3|0:3,0:0:0:0:
336,224,46042,2,0,P|292:213|250:225,1,90,4|0,0:2|0:0,0:0:0:0:
216,292,46272,5,8,0:0:0:0:
294,293,46388,1,2,0:3:0:0:
172,228,46503,1,2,0:3:0:0:
176,360,46618,1,2,0:3:0:0:
216,292,46734,5,2,0:3:0:0:
128,164,46849,1,2,0:3:0:0:
62,305,46965,1,8,0:0:0:0:
250,98,47195,38,0,P|170:130|82:110,1,180,4|8,0:2|0:0,0:0:0:0:
224,24,47542,1,0,0:0:0:0:
224,24,47657,2,0,P|284:28|328:80,1,90,2|2,0:3|0:3,0:0:0:0:
448,80,47888,2,0,P|388:84|344:136,1,90,8|0,0:0|0:0,0:0:0:0:
235,183,48118,6,0,P|317:151|404:172,1,180,2|8,0:3|0:0,0:0:0:0:
480,304,48465,2,0,P|397:336|311:315,1,180,2|2,0:3|0:3,0:0:0:0:
252,260,48811,1,8,0:0:0:0:
235,183,48926,1,0,0:0:0:0:
242,106,49042,6,0,P|184:112|144:96,1,90,2|0,0:3|0:0,0:0:0:0:
304,56,49272,2,0,P|362:50|402:66,1,90,8|0,0:0|0:0,0:0:0:0:
492,148,49503,1,2,0:3:0:0:
364,192,49618,1,2,0:3:0:0:
416,132,49734,1,8,0:0:0:0:
464,284,49849,1,2,0:3:0:0:
312,252,49965,6,0,P|228:260|200:348,1,180,2|8,0:3|0:0,0:0:0:0:
276,324,50311,2,0,L|168:172,1,180,2|2,0:3|0:3,0:0:0:0:
124,116,50657,1,8,0:0:0:0:
316,176,50888,38,0,P|352:220|468:176,1,180,2|8,0:3|0:0,0:0:0:0:
479,36,51234,1,0,0:0:0:0:
479,36,51349,2,0,P|422:45|403:167,1,180,2|8,0:3|0:0,0:0:0:0:
461,113,51695,2,0,P|376:52|272:72,1,180,2|2,0:3|0:3,0:0:0:0:
232,172,52042,5,8,0:0:0:0:
304,136,52157,1,2,0:3:0:0:
164,128,52272,1,0,0:0:0:0:
88,244,52388,1,2,0:3:0:0:
228,252,52503,2,0,L|368:260,1,90,8|0,0:0|0:0,0:0:0:0:
392,232,52734,37,4,0:2:0:0:
400,200,52849,1,0,0:0:0:0:
408,168,52965,1,0,0:0:0:0:
416,136,53080,1,8,0:0:0:0:
424,104,53195,2,0,L|440:39,1,53.9999983520508,0|2,0:0|0:3,0:0:0:0:
492,160,53426,2,0,L|476:225,1,53.9999983520508,8|0,0:0|0:0,0:0:0:0:
452,296,53657,2,0,P|400:320|308:260,1,161.999995056153,2|8,1:3|0:0,2:0:0:0:
268,200,54118,5,2,0:3:0:0:
239,217,54234,1,2,0:3:0:0:
213,197,54349,1,8,0:0:0:0:
224,167,54465,1,2,0:3:0:0:
257,168,54580,6,0,P|204:200|100:156,1,180,4|8,0:2|0:0,0:0:0:0:
184,100,54926,1,0,0:0:0:0:
184,100,55042,2,0,P|237:132|341:88,1,180,2|8,0:3|0:0,0:0:0:0:
484,224,55503,6,0,P|440:220|384:240,1,90,2|0,0:3|0:0,0:0:0:0:
236,255,55734,2,0,P|279:267|324:264,1,90,8|0,0:0|0:0,0:0:0:0:
348,148,55965,2,0,P|280:188|236:116,1,180,2|8,0:3|0:0,0:0:0:0:
4,228,56426,6,0,P|44:204|96:204,1,90,2|0,0:3|0:0,0:0:0:0:
238,93,56657,2,0,P|238:139|212:184,1,90,8|0,0:0|0:0,0:0:0:0:
238,364,56888,2,0,P|197:341|171:296,1,90,2|2,0:3|0:3,0:0:0:0:
160,228,57118,1,8,0:0:0:0:
348,148,57349,6,0,L|440:160,1,90,2|2,0:3|0:3,0:0:0:0:
404,80,57580,1,8,0:0:0:0:
320,232,57695,2,0,L|228:244,1,90,2|0,0:3|0:0,0:0:0:0:
264,164,57926,1,2,0:3:0:0:
404,212,58042,1,8,0:0:0:0:
234,88,58272,38,0,B|173:103|173:103|125:87|125:87|57:99,1,180,2|8,0:3|0:0,0:0:0:0:
116,175,58618,1,0,0:0:0:0:
116,175,58734,2,0,L|64:251,1,90,2|2,0:3|0:3,0:0:0:0:
152,286,58965,2,0,L|144:377,1,90,8|0,0:0|0:0,0:0:0:0:
238,364,59195,6,0,P|272:324|388:336,1,180,2|8,0:3|0:0,0:0:0:0:
440,172,59542,2,0,P|406:212|290:200,1,180,2|2,0:3|0:3,0:0:0:0:
240,136,59888,2,0,P|236:80|264:32,1,90,8|0,0:0|0:0,0:0:0:0:
312,100,60118,5,2,0:3:0:0:
220,236,60349,2,0,P|137:262|69:208,2,180,8|2|4,0:0|0:3|0:2,0:0:0:0:
416,256,61042,5,2,0:3:0:0:
292,312,61157,1,2,0:3:0:0:
384,184,61272,1,8,0:0:0:0:
368,320,61388,1,2,0:3:0:0:
260,240,61503,2,0,L|151:160,1,90,2|2,0:3|0:3,0:0:0:0:
104,236,61734,2,0,L|119:102,1,90,8|0,0:0|0:0,0:0:0:0:
29,98,61965,38,0,P|76:56|192:88,1,180,4|8,0:2|0:0,0:0:0:0:
344,52,62311,1,0,0:0:0:0:
344,52,62426,2,0,P|292:60|256:48,1,90,2|2,0:3|0:3,0:0:0:0:
416,88,62657,2,0,P|435:38|463:13,1,90,8|0,0:0|0:0,0:0:0:0:
348,132,62888,6,0,P|380:173|388:210,1,90,2|2,0:3|0:3,0:0:0:0:
304,208,63118,1,8,0:0:0:0:
304,208,63234,2,0,P|280:288|168:280,1,180,2|2,0:3|0:3,0:0:0:0:
143,237,63580,2,0,P|184:219|228:228,1,90,8|0,0:0|0:0,0:0:0:0:
116,312,63811,6,0,P|79:285|65:242,1,90,2|0,0:3|0:0,0:0:0:0:
148,127,64042,2,0,P|91:193|4:192,2,180,8|2|8,0:0|0:3|0:0,0:0:0:0:
160,48,64618,1,0,0:0:0:0:
224,96,64734,6,0,B|296:108|296:108|330:84|370:88|395:110,1,180,2|8,0:3|0:0,0:0:0:0:
473,109,65080,2,0,P|428:182|344:172,1,180,2|2,0:3|0:3,0:0:0:0:
280,28,65426,1,8,0:0:0:0:
488,240,65657,38,0,P|408:268|312:248,1,180,4|8,0:2|0:0,0:0:0:0:
268,312,66003,1,0,0:0:0:0:
268,312,66118,2,0,P|224:304|180:320,1,90,2|2,0:3|0:3,0:0:0:0:
32,360,66349,2,0,P|76:352|120:368,1,90,8|0,0:0|0:0,0:0:0:0:
192,232,66580,6,0,P|104:249|20:221,1,180,2|8,0:3|0:0,0:0:0:0:
180,152,66926,2,0,P|240:168|248:292,1,180,2|2,0:3|0:3,0:0:0:0:
228,344,67272,1,8,0:0:0:0:
377,130,67503,6,0,L|390:219,1,90,4|0,0:2|0:0,0:0:0:0:
408,350,67734,1,8,0:0:0:0:
470,234,67849,1,8,0:0:0:0:
352,292,67965,1,8,0:0:0:0:
481,314,68080,1,8,0:0:0:0:
308,228,68195,2,0,L|184:168,1,90,2|0,0:3|0:0,0:0:0:0:
102,128,68426,5,8,0:0:0:0:
180,124,68542,1,2,0:3:0:0:
186,264,68657,1,2,0:3:0:0:
64,200,68772,1,2,0:3:0:0:
140,56,68888,2,0,P|204:48|244:164,1,180,8|0,0:0|0:0,0:0:0:0:
512,152,69349,38,0,P|448:144|408:260,1,180,8|2,0:0|0:3,0:0:0:0:
485,361,69695,2,0,P|523:309|443:216,1,180,8|2,0:0|0:3,0:0:0:0:
317,233,70042,2,0,P|342:292|462:269,1,180,4|2,0:2|0:3,0:0:0:0:
312,152,70388,2,0,L|116:160,1,180,8|2,0:0|0:3,0:0:0:0:
72,108,70734,2,0,P|96:88|168:88,1,90,8|8,0:0|0:0,0:0:0:0:
158,233,70965,2,0,P|114:237|76:215,1,90,2|2,0:3|0:3,0:0:0:0:
189,308,71195,6,0,P|269:288|353:332,1,180,4|2,0:2|0:3,0:0:0:0:
401,268,71542,2,0,P|343:208|339:113,1,180,2|2,0:3|0:3,0:0:0:0:
260,104,71888,2,0,P|237:183|157:234,1,180,8|2,0:0|0:3,0:0:0:0:
96,184,72234,1,2,0:3:0:0:
96,184,72349,2,0,P|118:104|198:53,1,180,2|8,0:3|0:0,0:0:0:0:
275,40,72695,2,0,L|387:20,2,90,2|2|2,0:3|0:3|0:3,0:0:0:0:
312,112,73042,6,0,B|424:92|424:92|488:108,1,180,4|0,0:2|0:0,0:0:0:0:
500,188,73388,2,0,B|388:208|388:208|324:192,1,180,2|2,0:3|0:3,0:0:0:0:
288,264,73734,2,0,L|523:322,2,180,8|2|2,0:0|0:3|0:3,0:0:0:0:
212,240,74311,1,2,0:3:0:0:
212,240,74426,2,0,P|192:237|126:275,1,90,8|2,0:0|0:3,0:0:0:0:
72,214,74657,2,0,P|60:230|60:306,1,90,2|2,0:3|0:3,0:0:0:0:
92,368,74888,1,8,0:0:0:0:
288,264,75118,6,0,L|523:322,2,180,2|8|2,0:3|0:0|0:3,0:0:0:0:
272,188,75695,1,0,0:0:0:0:
272,188,75811,2,0,L|247:72,1,90,2|8,0:3|0:0,0:0:0:0:
167,72,76042,2,0,L|279:108,1,90,8|8,0:0|0:0,0:0:0:0:
320,40,76272,2,0,L|231:119,1,90,8|2,0:0|0:3,0:0:0:0:
194,154,76503,1,2,0:3:0:0:
304,340,76734,38,0,P|373:288|457:312,1,180,4|2,0:2|0:2,0:0:0:0:
291,123,77080,2,0,P|300:209|237:269,1,180,2|2,0:3|0:3,0:0:0:0:
485,220,77426,2,0,P|405:185|384:100,1,180,8|8,0:0|0:0,0:0:0:0:
304,340,77772,2,0,P|204:360|144:296,1,180,8|2,0:0|0:3,0:0:0:0:
156,216,78118,1,8,0:0:0:0:
237,269,78234,1,2,0:3:0:0:
69,261,78349,1,8,0:0:0:0:
160,118,78465,1,2,0:3:0:0:
393,144,78580,6,0,P|323:196|240:172,1,180,4|2,0:2|0:3,0:0:0:0:
388,48,78926,2,0,P|467:82|488:167,1,180,8|8,0:0|0:0,0:0:0:0:
307,101,79272,2,0,P|292:56|308:-4,1,90,8|2,0:0|0:3,0:0:0:0:
393,144,79503,1,2,0:3:0:0:
317,299,79618,1,2,0:3:0:0:
224,156,79734,1,2,0:3:0:0:
312,200,79849,1,8,0:0:0:0:
234,354,79965,5,2,0:3:0:0:
140,210,80080,1,2,0:3:0:0:
307,101,80195,1,2,0:3:0:0:
447,282,80406,6,0,B|403:266|359:286|359:286|315:306|271:290,1,180,4|2,0:2|0:3,0:0:0:0:
133,366,80752,2,0,B|168:335|173:287|173:287|178:239|214:209,1,180,8|8,0:0|0:0,0:0:0:0:
217,52,81098,2,0,B|225:98|264:126|264:126|303:154|311:200,1,180,8|0,0:0|0:0,0:0:0:0:
328,383,81444,1,0,0:0:0:0:
328,383,81559,2,0,P|283:383|239:372,1,90,0|2,0:0|0:3,0:0:0:0:
105,212,81790,2,0,P|126:172|158:141,1,90,8|2,0:0|0:3,0:0:0:0:
363,104,82021,2,0,P|385:142|397:185,1,90,2|2,0:3|0:3,0:0:0:0:
236,272,82252,38,0,P|236:192|300:272,1,180,8|8,0:0|0:0,0:0:0:0:
176,136,82598,2,0,P|144:280|176:328,1,180,8|8,0:0|0:0,0:0:0:0:
325,351,82944,2,0,P|395:200|263:99,1,360,8|8,0:0|0:0,0:0:0:0:
176,136,83521,1,2,0:3:0:0:
88,108,83636,5,2,0:3:0:0:
82,152,83752,1,2,0:3:0:0:
77,197,83867,1,2,0:3:0:0:
71,242,83982,1,2,0:3:0:0:
67,287,84098,38,0,L|56:372,1,53.9999983520508,8|2,0:0|0:3,0:0:0:0:
200,212,84444,1,8,0:0:0:0:
69,264,84790,6,0,L|58:349,1,53.9999983520508,8|2,0:0|0:3,0:0:0:0:
224,288,85136,1,2,0:3:0:0:
70,242,85502,70,0,L|61:312,1,53.9999983520508,8|2,0:0|0:2,0:0:0:0:
248,364,85848,1,4,2:0:0:0:
256,192,85963,12,0,87809,0:0:0:0:
