osu file format v14

[General]
AudioFilename: opening.mp3
AudioLeadIn: 0
PreviewTime: 28618
Countdown: 0
SampleSet: Normal
StackLeniency: 0.5
Mode: 0
LetterboxInBreaks: 0
WidescreenStoryboard: 0

[Editor]
Bookmarks: 8426,17657,25042,32426,39811,54580,69349,76734,87811
DistanceSpacing: 1.6
BeatDivisor: 6
GridSize: 4
TimelineZoom: 1

[Metadata]
Title:THE HERO!!~Ikareru Kobushi ni Hi o Tsukero~ (TV Size)
TitleUnicode:THE HERO!!~怒れる拳に火をつけろ~ (TV Size)
Artist:JAM Project
ArtistUnicode:JAM Project
Creator:Sonnyc
Version:Easy
Source:ワンパンマン
Tags:오늘부터 수능이다 아싸 one punch man wanpanman 원펀맨 opening eINess halloween [_HalLoWeeN_] Reol Set Fire to the Furious Fist
BeatmapID:821752
BeatmapSetID:374827

[Difficulty]
HPDrainRate:2
CircleSize:3
OverallDifficulty:2
ApproachRate:3
SliderMultiplier:0.999999999999999
SliderTickRate:1

[Events]
//Background and Video events
0,0,"bg.jpg",0,0
Video,-1400,"OPMOP.avi"
//Break Periods
//Storyboard Layer 0 (Background)
//Storyboard Layer 1 (Fail)
//Storyboard Layer 2 (Pass)
//Storyboard Layer 3 (Foreground)
//Storyboard Sound Samples

[TimingPoints]
1042,230.769230769231,4,1,1,50,1,0
1042,-200,4,1,1,50,0,0
8426,-200,4,1,1,60,0,0
17657,-200,4,1,1,60,0,0
32426,-200,4,1,1,50,0,0
39811,-200,4,1,1,60,0,1
52734,-200,4,1,1,60,0,0
54580,-200,4,1,1,60,0,1
69349,-200,4,1,1,60,0,0
80406,230.769230769231,4,1,1,60,1,0
80406,-200,4,1,1,60,0,0
85502,230.769230769231,4,1,1,60,1,0
86655,-200,4,1,1,50,0,0
86732,-200,4,1,1,40,0,0
86809,-200,4,1,1,30,0,0
86886,-200,4,1,1,20,0,0
87348,-200,4,1,1,10,0,0
87810,-200,4,2,1,5,0,0

[Colours]
Combo1 : 192,192,192
Combo2 : 27,250,138
Combo3 : 128,128,255
Combo4 : 255,128,192
Combo5 : 255,255,21
Combo6 : 128,128,128

[HitObjects]
328,104,1042,70,0,P|272:88|184:104,2,150,0|0|0,1:0|0:0|0:0,2:0:0:0:
328,200,2888,2,0,P|272:216|184:200,2,150,0|0|0,1:0|0:0|0:0,2:0:0:0:
398,264,4734,6,0,P|284:304|114:264,1,300,0|0,1:0|0:0,2:0:0:0:
256,192,6580,12,12,8426,0:0:0:0:
256,192,10272,6,0,L|256:344,2,150,8|8|8,0:0|0:0|0:0,0:0:0:0:
207,102,12118,2,0,P|158:156|161:229,2,150,8|8|8,0:0|0:0|0:0,0:0:0:0:
304,102,13965,2,0,P|353:156|350:229,2,150,8|8|8,0:0|0:0|0:0,0:0:0:0:
84,144,17657,5,4,0:2:0:0:
84,240,18118,1,2,0:3:0:0:
172,288,18580,2,0,P|236:244|340:288,1,200,2|2,0:3|0:3,0:0:0:0:
428,240,19965,2,0,P|428:144|436:132,2,99.9999999999999,2|2|2,0:3|0:3|0:3,0:0:0:0:
512,192,21349,5,4,0:2:0:0:
328,132,22272,2,0,P|232:132|220:124,1,99.9999999999999,2|8,0:3|0:0,0:0:0:0:
280,48,23195,2,0,P|184:48|140:104,2,150,4|4|8,0:2|0:2|0:0,0:0:0:0:
360,104,25042,6,0,B|360:152|360:152|380:200,1,99.9999999999999,4|2,0:2|0:3,0:0:0:0:
280,192,25965,2,0,L|320:288,1,99.9999999999999,2|2,0:3|0:3,0:0:0:0:
364,372,26888,1,2,0:3:0:0:
464,372,27349,1,2,0:3:0:0:
418,284,27811,2,0,L|379:191,1,99.9999999999999,2|2,0:3|0:3,0:0:0:0:
336,100,28734,38,0,P|228:100|156:48,1,200,4|2,0:2|0:3,0:0:0:0:
64,88,30118,1,8,0:0:0:0:
96,184,30580,2,0,B|116:264|68:256|88:336,2,150,4|8|2,0:2|0:0|0:3,0:0:0:0:
180,128,32426,54,0,P|288:128|360:180,3,200,4|8|8|8,1:2|0:0|0:0|0:0,2:0:0:0:
412,264,35657,1,2,0:3:0:0:
352,344,36118,6,0,P|312:364|256:356,1,99.9999999999999,4|8,1:2|0:0,2:0:0:0:
160,380,37042,2,0,P|120:360|64:368,1,99.9999999999999,8|8,1:0|0:0,2:0:0:0:
16,280,37965,2,0,B|24:204|24:204|48:164|48:164|56:88,1,200,2|8,1:3|0:0,2:0:0:0:
256,40,39811,6,0,P|312:88|416:40,2,200,4|2|2,0:0|0:3|0:3,0:0:0:0:
168,88,42118,1,2,0:3:0:0:
80,40,42580,2,0,P|68:96|88:148,1,99.9999999999999,2|2,0:3|0:3,0:0:0:0:
136,220,43503,5,4,0:2:0:0:
56,280,43965,2,0,P|124:320|224:268,1,200,2|2,0:3|0:3,0:0:0:0:
308,216,45349,2,0,B|396:168|412:248|500:200,1,200,2|2,0:3|0:3,0:0:0:0:
388,36,47195,6,0,P|304:64|200:36,2,200,4|2|2,0:2|0:3|0:3,0:0:0:0:
440,120,49503,1,2,0:3:0:0:
392,208,49965,2,0,P|448:220|500:200,2,99.9999999999999,2|2|2,0:3|0:3|0:3,0:0:0:0:
344,296,51349,2,0,P|256:264|180:328,1,200,2|2,0:3|0:3,0:0:0:0:
88,292,52734,22,0,P|100:168|256:180,1,300,2|8,1:3|0:0,2:0:0:0:
340,136,54580,22,0,P|380:148|448:128,2,99.9999999999999,4|2|2,0:2|0:3|0:3,0:0:0:0:
388,48,55965,1,0,0:0:0:0:
288,52,56426,2,0,L|188:56,1,99.9999999999999,2|2,0:3|0:3,0:0:0:0:
108,112,57349,2,0,L|112:212,1,99.9999999999999,2|2,0:3|0:3,0:0:0:0:
168,292,58272,5,4,0:2:0:0:
216,208,58734,2,0,B|292:200|292:200|332:176|332:176|408:168,1,200,2|2,1:3|0:3,0:0:0:0:
468,88,60118,2,0,P|504:144|440:264,1,200,2|2,0:3|0:3,0:0:0:0:
272,326,61965,6,0,B|200:308|200:308|76:336,2,200,4|2|2,0:2|0:3|0:3,0:0:0:0:
368,352,64272,1,2,0:3:0:0:
344,256,64734,2,0,P|344:220|384:152,1,99.9999999999999
444,236,65657,6,0,P|472:148|308:84,1,300,4|2,0:2|0:3,0:0:0:0:
236,140,67503,2,0,P|144:112|64:192,1,200,4|2,0:2|0:3,0:0:0:0:
164,212,68888,1,2,0:3:0:0:
239,281,69349,38,0,P|174:315|104:296,2,150,8|8|8,0:0|0:0|0:0,0:0:0:0:
296,200,71195,2,0,P|357:239|376:309,2,150,4|8|8,0:2|0:0|0:0,0:0:0:0:
197,191,73042,2,0,P|200:117|251:66,2,150,4|8|8,0:2|0:0|0:0,0:0:0:0:
295,161,74888,6,0,P|280:252|104:236,1,300,8|2,0:0|0:3,0:0:0:0:
64,152,76734,5,4,0:2:0:0:
188,64,77426,2,0,P|240:76|324:20,1,150,8|8,0:0|0:0,0:0:0:0:
368,116,78580,2,0,P|420:104|504:160,2,150,4|8|8,0:2|0:0|0:0,0:0:0:0:
416,204,80406,5,4,0:2:0:0:
312,312,81098,2,0,P|260:300|176:356,1,150,8|8,0:0|0:0,0:0:0:0:
132,260,82252,2,0,P|80:272|-4:216,2,150,8|8|8,0:0|0:0|0:0,0:0:0:0:
220,212,84098,6,0,B|276:176|380:196|340:260|444:280|500:244,1,300,8|8,1:0|0:0,2:0:0:0:
256,192,85848,12,0,87810,0:0:0:0:
