osu file format v14

[General]
AudioFilename: opening.mp3
AudioLeadIn: 0
PreviewTime: 28618
Countdown: 0
SampleSet: Normal
StackLeniency: 0.2
Mode: 0
LetterboxInBreaks: 0
WidescreenStoryboard: 1

[Editor]
Bookmarks: 8426,17657,25042,32426,39811,54580,69349,76734,87811
DistanceSpacing: 1
BeatDivisor: 4
GridSize: 4
TimelineZoom: 2.4

[Metadata]
Title:THE HERO!!~Ikareru Kobushi ni Hi o Tsukero~ (TV Size)
TitleUnicode:THE HERO!!~怒れる拳に火をつけろ~ (TV Size)
Artist:JAM Project
ArtistUnicode:JAM Project
Creator:Sonnyc
Version:Collab Insane
Source:ワンパンマン
Tags:오늘부터 수능이다 아싸 one punch man wanpanman 원펀맨 opening eINess halloween [_HalLoWeeN_] Reol Set Fire to the Furious Fist
BeatmapID:900576
BeatmapSetID:374827

[Difficulty]
HPDrainRate:5.5
CircleSize:4.2
OverallDifficulty:7.5
ApproachRate:8.8
SliderMultiplier:1.7
SliderTickRate:1

[Events]
//Background and Video events
0,0,"bg.jpg",0,0
Video,-1400,"OPMOP.avi"
//Break Periods
//Storyboard Layer 0 (Background)
//Storyboard Layer 1 (Fail)
//Storyboard Layer 2 (Pass)
//Storyboard Layer 3 (Foreground)
//Storyboard Sound Samples

[TimingPoints]
1042,230.769230769231,4,1,1,50,1,0
1042,-200,4,1,1,50,0,0
8426,-100,4,1,1,60,0,0
15811,-142.857142857143,4,1,1,60,0,0
17657,-111.111111111111,4,1,1,60,0,0
22618,-106.382978723404,4,1,1,60,0,0
22965,-111.111111111111,4,1,1,60,0,0
32426,-166.666666666667,4,1,1,50,0,0
39811,-100,4,1,1,60,0,1
52734,-166.666666666667,4,1,1,60,0,0
54580,-100,4,1,1,60,0,1
69349,-100,4,1,1,60,0,0
80406,230.769230769231,4,1,1,60,1,0
84098,-166.666666666667,4,1,1,60,0,0
85502,230.769230769231,4,1,1,60,1,0
85502,-166.666666666667,4,1,1,60,0,0
86655,-200,4,1,1,50,0,0
86732,-200,4,1,1,40,0,0
86809,-200,4,1,1,30,0,0
86886,-200,4,1,1,20,0,0
87348,-200,4,1,1,10,0,0
87809,-200,4,2,1,5,0,0

[Colours]
Combo1 : 192,192,192
Combo2 : 27,250,138
Combo3 : 128,128,255
Combo4 : 255,128,192
Combo5 : 255,255,21
Combo6 : 128,128,128

[HitObjects]
116,240,1042,70,0,L|243:246,1,127.5,0|0,1:0|0:0,2:0:0:0:
400,344,1734,2,0,L|248:336,1,127.5,0|0,1:0|0:0,2:0:0:0:
36,240,2426,2,0,P|56:184|96:160,1,85
88,160,2772,1,0,0:0:0:0:
88,160,2888,6,0,L|80:24,1,127.5,0|0,1:0|0:0,2:0:0:0:
256,80,3580,2,0,L|263:207,1,127.5,0|0,1:0|0:0,2:0:0:0:
368,348,4272,2,0,P|424:332|456:312,1,85
464,308,4618,1,0,0:0:0:0:
464,308,4734,70,0,L|456:164,2,127.5,0|0|0,1:0|0:0|0:0,2:0:0:0:
248,356,5772,2,0,L|256:212,1,127.5,0|0,1:0|0:0,2:0:0:0:
152,96,6349,6,0,P|122:103|98:117,2,42.5,0|0|2,0:0|0:0|0:0,0:0:0:0:
256,192,6695,12,0,8195,2:0:0:0:
272,124,8426,6,0,L|444:104,1,170,4|2,0:0|0:3,0:0:0:0:
504,164,8772,2,0,P|484:264|408:296,1,170,8|2,0:0|0:3,0:0:0:0:
356,336,9118,2,0,B|264:328|264:328|188:356,1,170,8|2,0:0|0:3,0:0:0:0:
124,300,9465,2,0,B|224:264|224:264|136:232,1,170,8|2,0:0|0:3,0:0:0:0:
92,192,9811,2,0,P|104:132|140:96,1,85,8|2,0:0|0:3,0:0:0:0:
288,80,10042,2,0,P|276:148|240:184,1,85,2|2,0:3|0:3,0:0:0:0:
36,71,10272,6,0,L|204:100,1,170,4|2,0:2|0:3,0:0:0:0:
288,80,10618,2,0,B|384:64|384:64|476:112,1,170,8|2,0:0|0:3,0:0:0:0:
448,184,10965,2,0,B|381:148|381:148|341:188|358:235,1,170,8|2,0:0|0:3,0:0:0:0:
416,296,11311,2,0,P|336:316|272:248,1,170,8|2,0:0|0:3,0:0:0:0:
220,196,11657,2,0,P|128:208|116:216,1,85,8|2,0:0|0:3,0:0:0:0:
104,360,11888,2,0,P|196:348|208:340,1,85,8|2,0:0|0:3,0:0:0:0:
12,136,12118,6,0,B|4:200|4:200|30:302,1,170,4|2,0:2|0:3,0:0:0:0:
112,280,12465,2,0,B|88:192|88:192|104:84,1,170,8|2,0:0|0:3,0:0:0:0:
160,55,12811,2,0,P|237:27|314:59,1,170,8|2,0:0|0:3,0:0:0:0:
336,144,13157,2,0,B|384:132|400:80|400:80|416:132|500:156,1,170,8|2,0:0|0:3,0:0:0:0:
492,208,13503,2,0,P|492:256|480:304,1,85,8|2,0:0|0:3,0:0:0:0:
296,308,13734,2,0,P|296:260|308:212,1,85,2|2,0:3|0:3,0:0:0:0:
392,372,13965,6,0,L|192:356,1,170,8|2,0:0|0:3,0:0:0:0:
152,316,14311,2,0,P|80:323|104:255,1,170,8|2,0:0|0:3,0:0:0:0:
184,236,14657,2,0,B|204:184|204:184|184:32,1,170,8|2,0:0|0:3,0:0:0:0:
112,140,15003,2,0,P|64:140|4:120,2,85,2|8|2,0:3|0:0|0:3,0:0:0:0:
272,96,15349,1,8,0:0:0:0:
356,104,15465,1,2,0:3:0:0:
420,160,15580,1,2,0:3:0:0:
440,244,15695,1,2,0:3:0:0:
364,280,15811,6,0,P|440:328|516:280,2,178.499994552612,0|0|0,1:0|0:0|0:0,2:0:0:0:
160,220,16965,2,0,P|92:220|32:244,2,118.999996368408
264,360,17657,22,0,L|256:240,1,76.4999976654053,4|2,0:2|0:3,0:0:0:0:
312,216,17888,2,0,L|317:139,1,76.4999976654053,8|2,0:0|0:3,0:0:0:0:
272,68,18118,2,0,P|188:36|100:112,1,152.999995330811,2|8,0:3|0:0,0:0:0:0:
32,256,18580,2,0,L|212:236,1,152.999995330811,2|8,0:3|0:0,0:0:0:0:
258,283,18926,1,0,0:0:0:0:
312,216,19042,2,0,P|396:216|432:228,1,76.4999976654053,2|2,0:3|0:3,0:0:0:0:
496,360,19272,2,0,P|412:360|376:348,1,76.4999976654053,8|2,0:0|0:3,0:0:0:0:
264,152,19503,6,0,P|352:132|452:156,2,152.999995330811,2|8|2,0:3|0:0|0:3,0:0:0:0:
208,216,20080,1,2,0:3:0:0:
258,283,20195,2,0,L|264:360,1,76.4999976654053,8|2,0:0|0:3,0:0:0:0:
88,332,20426,2,0,L|104:132,1,152.999995330811,2|8,0:3|0:0,0:0:0:0:
272,44,20888,2,0,P|310:42|347:49,1,76.4999976654053,2|2,0:3|0:3,0:0:0:0:
412,106,21118,2,0,P|449:113|488:111,1,76.4999976654053,4|2,0:2|0:3,0:0:0:0:
344,160,21349,6,0,P|312:248|376:312,2,152.999995330811,0|2|8,0:0|0:3|0:0,0:0:0:0:
392,228,21926,1,0,0:0:0:0:
280,360,22042,2,0,L|164:352,1,76.4999976654053,2|0,0:3|0:0,0:0:0:0:
9,259,22272,2,0,P|82:246|138:295,1,152.999995330811
60,328,22618,2,0,L|48:136,1,159.799997561646
88,92,22965,2,0,P|172:84|212:96,1,76.4999976654053,2|2,0:3|0:3,0:0:0:0:
315,122,23195,6,0,P|276:121|239:112,2,76.4999976654053,4|0|2,0:2|0:0|0:3,0:0:0:0:
392,84,23542,1,0,0:0:0:0:
468,124,23657,2,0,P|486:157|497:193,1,76.4999976654053,8|2,0:0|0:3,0:0:0:0:
468,352,23888,2,0,L|315:339,1,152.999995330811,4|2,0:2|0:3,0:0:0:0:
240,296,24234,2,0,L|71:313,1,152.999995330811,8|2,0:0|0:3,0:0:0:0:
22,255,24580,1,2,0:3:0:0:
9,171,24695,1,2,0:3:0:0:
48,96,24811,1,8,0:0:0:0:
132,78,24926,1,8,0:0:0:0:
211,113,25042,38,0,P|321:113|374:37,2,152.999995330811,4|8|2,0:2|0:0|0:3,0:0:0:0:
132,78,25618,1,2,0:3:0:0:
48,96,25733,1,8,0:0:0:0:
9,171,25849,1,2,0:3:0:0:
22,255,25965,2,0,L|158:241,1,76.4999976654053,2|2,0:3|0:3,0:0:0:0:
172,348,26195,2,0,L|248:355,1,76.4999976654053,8|2,0:0|0:3,0:0:0:0:
368,320,26426,2,0,L|444:327,1,76.4999976654053,2|2,0:3|0:3,0:0:0:0:
292,276,26657,2,0,P|292:232|304:200,1,76.4999976654053,8|2,0:0|0:3,0:0:0:0:
436,132,26888,6,0,P|436:88|424:56,1,76.4999976654053,2|2,0:3|0:3,0:0:0:0:
348,24,27118,2,0,L|228:40,1,76.4999976654053,8|2,0:0|0:3,0:0:0:0:
204,132,27349,2,0,L|356:108,1,152.999995330811,2|8,0:3|0:0,0:0:0:0:
464,332,27811,2,0,L|312:356,2,152.999995330811,2|4|2,0:3|0:2|0:3,0:0:0:0:
492,248,28388,1,8,0:0:0:0:
468,164,28503,1,8,0:0:0:0:
388,128,28618,1,8,0:0:0:0:
299,127,28734,6,0,L|208:142,2,76.4999976654053,4|0|0,0:2|0:0|0:0,0:0:0:0:
252,216,29080,2,0,P|140:143|205:60,1,229.499992996216
116,276,29657,6,0,L|25:261,2,76.4999976654053,2|0|0,0:3|0:0|0:0,0:0:0:0:
192,316,30003,2,0,L|283:301,2,76.4999976654053,0|8|0,0:0|0:0|0:0,0:0:0:0:
120,360,30349,1,2,0:3:0:0:
416,312,30580,38,0,B|410:261|410:261|426:213|426:213|421:162,1,152.999995330811,4|2,0:2|0:3,0:0:0:0:
468,92,30926,2,0,P|416:132|336:108,1,152.999995330811,8|2,0:0|0:3,0:0:0:0:
284,44,31272,2,0,P|336:4|416:28,2,152.999995330811,4|2|8,0:2|0:3|0:0,0:0:0:0:
252,124,31849,1,0,0:0:0:0:
264,209,31965,1,8,0:0:0:0:
264,209,32080,1,2,0:3:0:0:
67,47,32426,54,0,P|100:141|59:232,1,203.999993774414,4|8,1:2|0:0,2:0:0:0:
119,303,33118,2,0,P|73:322|23:317,1,101.999996887207,2|8,0:3|0:0,0:0:0:0:
22,316,33465,1,8,0:0:0:0:
22,316,33580,1,2,0:3:0:0:
180,172,33811,2,0,P|174:222|193:268,1,101.999996887207,8|2,0:0|0:3,0:0:0:0:
360,222,34272,6,0,P|314:203|264:209,2,101.999996887207,8|2|8,0:0|0:3|0:0,0:0:0:0:
256,116,34965,1,2,0:3:0:0:
256,116,35080,1,2,0:3:0:0:
256,116,35195,2,0,P|205:122|165:152,1,101.999996887207,8|2,0:0|0:3,0:0:0:0:
111,76,35657,1,8,0:0:0:0:
77,99,35772,1,8,0:0:0:0:
56,133,35887,1,2,0:3:0:0:
49,173,36003,1,2,0:3:0:0:
58,212,36118,69,4,0:2:0:0:
104,292,36349,1,2,0:3:0:0:
172,192,36580,1,8,0:0:0:0:
228,336,36811,1,2,0:3:0:0:
228,336,36926,1,2,0:3:0:0:
228,336,37042,2,0,P|278:330|324:349,1,101.999996887207,8|2,0:0|0:3,0:0:0:0:
488,274,37503,2,0,P|442:293|392:288,1,101.999996887207,8|2,0:0|0:3,0:0:0:0:
280,212,37965,5,4,0:2:0:0:
380,124,38195,1,8,0:0:0:0:
348,98,38310,1,8,0:0:0:0:
311,82,38425,1,8,0:0:0:0:
270,79,38541,1,2,0:3:0:0:
230,88,38656,1,2,0:3:0:0:
196,109,38771,1,2,0:3:0:0:
168,139,38887,1,8,0:0:0:0:
280,212,39349,70,0,B|288:264|288:264|272:312|272:312|280:364,1,152.999995330811,2|0,1:2|2:0,2:0:0:0:
360,320,39811,22,0,B|375:273|375:273|356:152,1,170,4|8,0:0|0:0,0:0:0:0:
276,124,40157,1,0,0:0:0:0:
340,72,40272,2,0,P|392:76|432:128,2,85,2|0|8,0:3|0:0|0:0,0:0:0:0:
260,40,40618,1,0,0:0:0:0:
196,96,40734,6,0,L|112:108,1,85,2|0,0:3|0:0,0:0:0:0:
0,180,40965,2,0,L|84:192,1,85,8|0,0:0|0:0,0:0:0:0:
196,264,41195,1,2,0:3:0:0:
196,264,41311,1,0,0:0:0:0:
196,264,41426,2,0,L|112:276,1,85,8|0,0:0|0:0,0:0:0:0:
236,188,41657,6,0,P|276:236|236:340,1,170,2|8,0:3|0:0,0:0:0:0:
152,188,42003,1,0,0:0:0:0:
192,116,42118,2,0,P|244:104|304:140,1,85,2|0,0:3|0:0,0:0:0:0:
421,63,42349,2,0,P|381:50|340:60,1,85,8|0,0:0|0:0,0:0:0:0:
378,135,42580,6,0,B|388:168|388:168|384:218,2,85,2|0|8,0:3|0:0|0:0,0:0:0:0:
440,284,42926,2,0,P|368:256|292:300,1,170,2|2,0:3|0:3,0:0:0:0:
260,376,43272,1,8,0:0:0:0:
44,100,43503,38,0,P|114:142|191:115,1,170,4|8,0:2|0:0,0:0:0:0:
240,44,43849,1,0,0:0:0:0:
191,115,43965,2,0,P|180:164|188:212,1,85,2|0,0:3|0:0,0:0:0:0:
331,255,44195,2,0,P|334:212|323:171,1,85,8|0,0:0|0:0,0:0:0:0:
140,316,44426,6,0,L|308:336,1,170,2|8,0:3|0:0,0:0:0:0:
392,320,44772,1,0,0:0:0:0:
392,320,44888,2,0,L|476:330,1,85,2|0,0:3|0:0,0:0:0:0:
331,255,45118,2,0,L|246:244,1,85,8|0,0:0|0:0,0:0:0:0:
416,236,45349,6,0,L|426:151,1,85,2|0,0:3|0:0,0:0:0:0:
349,15,45580,2,0,L|360:100,1,85,8|0,0:0|0:0,0:0:0:0:
288,240,45811,2,0,L|298:155,1,85,2|0,0:3|0:0,0:0:0:0:
221,19,46042,2,0,L|231:103,1,85,4|0,0:2|0:0,0:0:0:0:
298,155,46272,5,2,0:3:0:0:
231,103,46388,1,2,0:3:0:0:
146,91,46503,1,8,0:0:0:0:
67,123,46619,1,8,0:0:0:0:
14,190,46734,2,0,P|28:232|20:288,1,85,2|2,0:3|0:3,0:0:0:0:
0,352,46965,1,8,0:0:0:0:
288,240,47195,38,0,P|336:280|440:240,1,170,4|8,0:2|0:0,0:0:0:0:
468,176,47542,1,0,0:0:0:0:
440,96,47657,2,0,P|437:53|451:13,1,85,2|2,0:3|0:3,0:0:0:0:
284,48,47888,2,0,P|297:87|295:130,1,85,8|2,0:0|0:3,0:0:0:0:
357,191,48118,6,0,P|281:158|213:203,1,170,2|8,0:3|0:0,0:0:0:0:
180,279,48465,1,0,0:0:0:0:
180,279,48580,2,0,P|137:277|97:291,1,85,2|0,0:3|0:0,0:0:0:0:
338,331,48811,2,0,P|298:317|255:320,1,85,8|2,0:0|0:3,0:0:0:0:
420,304,49042,6,0,P|440:232|420:140,1,170,2|8,0:3|0:0,0:0:0:0:
124,52,49503,2,0,P|103:133|124:215,1,170,2|8,0:3|0:0,0:0:0:0:
180,279,49849,1,0,0:0:0:0:
179,278,49965,2,0,P|105:245|36:289,1,170,2|8,0:3|0:0,0:0:0:0:
256,240,50311,2,0,P|324:284|399:252,1,170,2|2,0:3|0:3,0:0:0:0:
432,172,50657,1,8,0:0:0:0:
192,172,50888,6,0,P|124:216|49:184,1,170,4|8,0:2|0:0,0:0:0:0:
68,100,51234,1,0,0:0:0:0:
68,100,51349,2,0,P|136:56|211:88,2,170,2|8|0,0:3|0:0|0:0,0:0:0:0:
368,40,52042,37,8,0:0:0:0:
355,123,52157,2,0,B|349:180|349:180|367:233|367:233|361:290,1,170,2|2,0:3|0:3,0:0:0:0:
344,372,52503,1,8,0:0:0:0:
204,264,52734,54,0,L|152:272,1,50.9999984436036
84,308,52965,2,0,L|76:256,1,50.9999984436036,0|8,0:0|0:0,0:0:0:0:
40,188,53195,2,0,L|92:180,1,50.9999984436036
160,144,53426,2,0,L|168:196,1,50.9999984436036,8|0,0:0|0:0,0:0:0:0:
153,271,53657,2,0,B|254:256|254:256|304:272,1,152.999995330811,0|8,1:0|0:0,2:0:0:0:
376,304,54118,5,0,0:0:0:0:
398,315,54233,1,0,0:0:0:0:
393,340,54349,1,8,0:0:0:0:
367,344,54464,1,0,0:0:0:0:
356,320,54580,6,0,P|440:348|500:256,1,170,4|8,0:0|0:0,0:0:0:0:
512,216,54926,1,0,0:0:0:0:
464,144,55042,2,0,P|424:128|376:136,1,85,2|0,0:3|0:0,0:0:0:0:
268,76,55272,2,0,P|225:82|187:113,1,85,8|0,0:0|0:0,0:0:0:0:
44,164,55503,6,0,P|85:169|119:194,1,85,2|0,0:3|0:0,0:0:0:0:
153,271,55734,1,8,0:0:0:0:
124,352,55849,1,0,0:0:0:0:
153,271,55965,2,0,P|194:275|233:259,1,85,2|0,0:3|0:0,0:0:0:0:
368,207,56195,2,0,P|326:211|288:196,1,85,8|0,0:0|0:0,0:0:0:0:
328,42,56426,6,0,L|338:127,1,85,2|0,0:3|0:0,0:0:0:0:
452,197,56657,2,0,L|367:207,1,85,8|0,0:0|0:0,0:0:0:0:
297,321,56888,2,0,L|287:236,1,85,2|0,0:3|0:0,0:0:0:0:
173,166,57118,2,0,L|258:156,1,85,8|0,0:0|0:0,0:0:0:0:
152,84,57349,6,0,P|96:132|128:236,1,170,2|8,0:3|0:0,0:0:0:0:
164,284,57695,2,0,P|107:237|10:286,1,170,2|2,0:3|0:3,0:0:0:0:
88,324,58042,1,8,0:0:0:0:
452,197,58272,38,0,B|458:254|458:254|440:307|440:307|446:364,1,170,2|8,0:3|0:0,0:0:0:0:
376,244,58618,1,0,0:0:0:0:
376,244,58734,2,0,B|370:187|370:187|388:134|388:134|382:77,2,170,2|8|2,0:3|0:0|0:3,0:0:0:0:
168,92,59426,5,8,0:0:0:0:
168,92,59542,2,0,P|116:64|24:120,1,170,2|2,0:3|0:3,0:0:0:0:
104,148,59888,2,0,L|112:232,1,85,8|0,0:0|0:0,0:0:0:0:
209,325,60118,6,0,P|144:276|68:304,2,170,2|8|2,0:3|0:0|0:3,0:0:0:0:
276,272,60695,1,0,0:0:0:0:
276,272,60811,2,0,P|320:296|372:288,1,85,4|0,0:2|0:0,0:0:0:0:
394,156,61042,6,0,P|357:176|336:212,1,85,2|0,0:3|0:0,0:0:0:0:
435,316,61272,2,0,P|433:265|400:224,1,85,8|0,0:0|0:0,0:0:0:0:
312,96,61503,2,0,P|364:124|456:68,1,170,2|8,0:3|0:0,0:0:0:0:
122,146,61965,38,0,P|187:195|264:168,1,170,4|8,0:2|0:0,0:0:0:0:
200,112,62311,1,0,0:0:0:0:
264,168,62426,2,0,P|279:207|278:249,1,85,2|0,0:3|0:0,0:0:0:0:
40,172,62657,2,0,P|40:128|54:89,2,85,8|0|2,0:0|0:0|0:3,0:0:0:0:
256,332,63118,5,0,0:0:0:0:
196,272,63234,2,0,P|264:248|340:324,1,170
196,272,63580,2,0,P|181:233|182:191,1,85,2|0,0:3|0:0,0:0:0:0:
270,126,63811,6,0,P|195:161|116:136,1,170,2|8,0:3|0:0,0:0:0:0:
62,70,64157,1,0,0:0:0:0:
62,70,64272,2,0,P|137:35|216:60,1,170,2|8,0:3|0:0,0:0:0:0:
270,126,64618,1,0,0:0:0:0:
296,208,64734,6,0,P|375:182|450:217,1,170,2|8,0:3|0:0,0:0:0:0:
322,290,65080,2,0,P|242:264|167:299,1,170,2|2,0:3|0:3,0:0:0:0:
120,368,65426,1,8,0:0:0:0:
24,144,65657,38,0,P|99:178|178:153,1,170,4|8,0:2|0:0,0:0:0:0:
232,88,66003,1,0,0:0:0:0:
308,124,66118,2,0,P|383:89|462:114,2,170,2|8|2,0:3|0:0|0:3,0:0:0:0:
480,312,66811,5,8,0:0:0:0:
397,325,66926,2,0,B|340:331|340:331|287:313|287:313|230:319,1,170,2|2,0:3|0:3,0:0:0:0:
148,332,67272,1,8,0:0:0:0:
155,43,67503,6,0,P|219:87|147:151,1,170,4|8,0:2|0:0,0:0:0:0:
104,112,67849,1,2,0:3:0:0:
52,180,67965,2,0,P|40:232|48:272,1,85,8|2,0:0|0:3,0:0:0:0:
244,296,68195,2,0,P|248:253|236:213,1,85,8|2,0:0|0:3,0:0:0:0:
178,151,68426,5,8,0:0:0:0:
248,196,68542,1,2,0:3:0:0:
332,200,68657,1,2,0:3:0:0:
405,161,68773,1,2,0:3:0:0:
451,91,68888,2,0,B|445:148|445:148|463:201|463:201|457:258,1,170,8|2,0:0|0:3,0:0:0:0:
312,344,69349,38,0,B|240:356|208:336|208:336|188:352|147:351,1,170,8|2,0:0|0:3,0:0:0:0:
64,352,69695,2,0,B|72:296|116:276|116:276|84:248|85:210,1,170,8|2,0:0|0:3,0:0:0:0:
32,144,70042,2,0,P|116:132|168:200,1,170,4|0,0:2|0:0,0:0:0:0:
244,224,70388,2,0,B|332:212|332:212|448:248,1,170,8|2,0:0|0:3,0:0:0:0:
473,178,70734,2,0,L|392:154,1,85,8|2,0:0|0:3,0:0:0:0:
267,56,70965,2,0,L|348:80,1,85,2|2,0:3|0:3,0:0:0:0:
345,287,71195,6,0,P|331:207|392:154,1,170,4|2,0:2|0:3,0:0:0:0:
409,236,71542,2,0,P|422:316|361:369,1,170,8|2,0:0|0:3,0:0:0:0:
280,344,71888,2,0,B|220:328|220:328|96:356,1,170,8|2,0:0|0:2,0:0:0:0:
56,288,72234,2,0,L|248:240,1,170,2|2,0:3|0:3,0:0:0:0:
264,176,72580,2,0,P|248:88|244:76,1,85,8|2,0:0|0:3,0:0:0:0:
80,80,72811,2,0,P|96:168|100:180,1,85,2|2,0:3|0:3,0:0:0:0:
340,204,73042,6,0,P|332:120|304:32,1,170,4|2,0:2|0:3,0:0:0:0:
392,56,73388,2,0,B|444:68|476:56|476:56|468:92|492:137,1,170,8|2,0:0|0:3,0:0:0:0:
488,224,73734,2,0,B|463:269|471:305|471:305|439:293|387:305,1,170,8|2,0:0|0:3,0:0:0:0:
312,348,74080,2,0,B|252:316|252:316|212:360|136:352,1,170,8|2,0:0|0:3,0:0:0:0:
88,308,74426,2,0,P|148:272|192:276,1,85,8|2,0:0|0:3,0:0:0:0:
340,204,74657,2,0,P|284:220|220:200,1,85,2|2,0:3|0:3,0:0:0:0:
216,60,74888,6,0,L|200:184,1,85,8|2,0:0|0:3,0:0:0:0:
368,296,75118,2,0,L|357:211,1,85,2|2,0:3|0:3,0:0:0:0:
205,144,75349,2,0,L|189:268,1,85,2|2,0:3|0:3,0:0:0:0:
328,132,75580,2,0,P|368:128|420:152,1,85,2|2,0:3|0:3,0:0:0:0:
484,276,75811,1,8,0:0:0:0:
448,352,75926,1,2,0:3:0:0:
364,368,76042,1,2,0:3:0:0:
284,340,76157,1,2,0:3:0:0:
244,264,76272,2,0,P|148:256|100:340,1,170,8|2,0:0|0:3,0:0:0:0:
364,368,76734,38,0,L|384:199,1,170,4|2,0:2|0:3,0:0:0:0:
464,164,77080,2,0,P|412:116|308:156,1,170,8|2,0:0|0:3,0:0:0:0:
244,176,77426,2,0,P|152:156|112:68,1,170,4|2,0:2|0:3,0:0:0:0:
64,24,77772,2,0,P|36:116|92:200,1,170,8|2,0:0|0:3,0:0:0:0:
120,244,78118,2,0,P|136:292|136:348,1,85,8|2,0:0|0:3,0:0:0:0:
272,368,78349,2,0,P|257:328|253:285,1,85,2|2,0:3|0:3,0:0:0:0:
500,277,78580,6,0,L|332:256,1,170,8|2,0:0|0:3,0:0:0:0:
264,204,78926,2,0,P|248:134|318:150,1,170,8|2,0:0|0:3,0:0:0:0:
400,128,79272,2,0,P|360:68|248:44,1,170,8|2,0:0|0:3,0:0:0:0:
188,68,79618,2,0,B|104:96|104:96|8:64,1,170,8|2,0:0|0:3,0:0:0:0:
12,156,79965,2,0,L|112:196,1,85,8|2,0:0|0:3,0:0:0:0:
100,364,80195,2,0,L|21:332,1,85,2|2,0:2|0:3,0:0:0:0:
172,263,80406,6,0,B|256:291|256:291|333:264,1,170,4|2,0:2|0:3,0:0:0:0:
412,300,80752,2,0,P|392:200|312:180,1,170,8|0,0:0|0:3,0:0:0:0:
260,136,81098,2,0,B|194:148|194:148|146:116|96:133,1,170,4|2,0:2|0:3,0:0:0:0:
58,56,81444,2,0,P|10:136|66:212,1,170,8|2,0:0|0:3,0:0:0:0:
108,252,81790,2,0,L|220:236,1,85,2|2,0:3|0:3,0:0:0:0:
356,356,82021,2,0,L|271:368,1,85,8|2,0:0|0:3,0:0:0:0:
48,300,82252,6,0,L|248:272,1,170,8|2,0:0|0:3,0:0:0:0:
300,292,82598,2,0,L|468:260,1,170,8|2,0:0|0:3,0:0:0:0:
508,188,82944,2,0,P|472:100|392:76,1,170,8|2,0:0|0:3,0:0:0:0:
348,136,83290,2,0,P|296:168|184:112,1,170,8|2,0:0|0:3,0:0:0:0:
172,56,83636,1,2,0:3:0:0:
92,28,83752,1,2,0:3:0:0:
16,60,83867,1,2,0:3:0:0:
4,144,83982,1,2,0:3:0:0:
56,212,84098,5,8,0:0:0:0:
56,212,84213,2,0,L|36:344,1,101.999996887207,2|8,0:3|0:0,0:0:0:0:
256,132,84790,5,8,0:0:0:0:
256,132,84905,2,0,L|236:0,1,101.999996887207,2|2,0:3|0:3,0:0:0:0:
452,244,85502,69,8,0:0:0:0:
452,244,85617,2,0,L|432:360,1,101.999996887207,2|4,0:3|0:2,0:0:0:0:
256,192,85963,12,0,87809,0:0:0:0:
