osu file format v7

[General]
AudioFilename: Soultaker-Jam project.mp3
AudioLeadIn: 1996
PreviewTime: 24743
Countdown: 0
SampleSet: Soft
StackLeniency: 0.5
Mode: 0
LetterboxInBreaks: 1

[Editor]
DistanceSpacing: 0.800000011920929
BeatDivisor: 2
GridSize: 8

[Metadata]
Title:Soul Taker (TV Size)
Artist:JAM Project
Creator:ztrot
Version:Hard
Source:The SoulTaker
Tags:demons angels gods action

[Difficulty]
HPDrainRate:6
CircleSize:4
OverallDifficulty:8
SliderMultiplier:1.5
SliderTickRate:1

[Events]
//Background and Video events
0,0,"BG.png"
Video,0,"[V-A]_SoulTaker_04_[E63F3C8A]_xvid_xvid.avi"
//Break Periods
//Storyboard Layer 0 (Background)
//Storyboard Layer 1 (Fail)
//Storyboard Layer 2 (Pass)
//Storyboard Layer 3 (Foreground)
//Storyboard Sound Samples
//Background Colour Transformations
3,100,163,162,255

[TimingPoints]
330,329.67032967033,4,2,0,60,1,0
9395,-100,4,2,0,0,0,0
13351,-100,4,1,1,50,0,0
60659,-100,4,1,1,50,0,1

[Colours]
Combo1 : 191,191,0
Combo2 : 147,0,0
Combo3 : 56,112,112
Combo4 : 90,46,46

[HitObjects]
432,72,330,1,0
416,192,659,1,0
328,272,989,2,2,B|256:312|184:272,2,150
80,72,2308,5,0
96,192,2637,1,0
184,272,2967,2,2,B|256:312|328:272,2,150
200,152,3956,1,0
312,152,4286,1,2
88,72,4945,5,2
56,192,5275,1,0
160,256,5604,2,2,B|256:288|352:224|320:72|272:72,2,300
424,72,7582,1,2
456,192,7912,1,0
352,256,8242,1,2
256,192,9560,12,4,13516
368,120,13846,6,0,B|416:192|368:264,1,150,8|0
328,304,14340,2,0,B|256:352|184:304,1,150,8|0
144,264,14835,2,0,B|96:192|144:120,1,150,8|0
184,80,15330,2,0,B|256:32|328:80,1,150,8|0
296,128,15824,1,4
256,176,15989,1,12
256,296,16319,6,0,B|192:344,2,75,0|8|0
256,296,16813,2,0,B|320:352,2,75,0|8|0
256,176,17472,1,8
256,176,17802,1,8
256,176,17967,1,0
256,176,18132,1,8
256,112,18297,1,12
256,112,18461,1,12
80,344,18791,5,0
152,248,19121,1,8
48,192,19450,1,0
24,136,19615,1,0
72,104,19780,1,8
432,40,20110,5,0
360,136,20439,1,8
464,192,20769,1,0
488,248,20934,1,0
432,280,21099,1,8
256,56,21593,6,0,B|192:112,2,75,0|8|0
256,56,22088,2,0,B|320:112,2,75,0|0|8
256,120,22582,1,0
256,176,22747,2,0,B|216:128|216:200|184:168,2,75,8|0|8
256,176,23242,2,0,B|296:128|296:200|328:168,2,75,8|0|8
208,240,23736,1,8
256,280,23901,1,0
304,240,24066,1,4
416,192,24395,5,8
352,80,24725,1,0
296,64,24890,1,0
256,112,25055,1,8
216,64,25220,1,0
160,80,25384,2,4,B|72:80|72:184,1,150,4|8
72,240,25879,2,0,B|71:337|159:337,1,150,0|0
208,296,26373,1,8
256,184,26703,1,4
256,64,27033,1,8
368,104,27362,5,0
352,160,27527,1,0
304,192,27692,1,8
256,232,27857,1,0
208,192,28022,2,0,B|152:120|152:256|72:184,1,150,4|8
80,128,28516,2,0,B|151:192|151:56|207:128,1,150
256,168,29011,1,8
256,232,29176,1,0
256,296,29340,1,4
432,128,30000,5,0
352,40,30329,1,8
312,88,30494,1,0
256,120,30659,2,0,B|152:40|152:40|96:40|96:112,1,225
56,280,31648,5,8
168,328,31978,2,0,B|312:328|312:168,2,225
168,208,33297,1,4
256,56,33791,5,0
304,88,33956,1,0
256,128,34121,1,0
304,168,34286,2,0,B|256:280|208:168,2,150,8|0|8
424,192,35275,5,0
384,240,35439,1,0
336,272,35604,1,8
288,304,35769,1,0
256,256,35934,2,0,B|224:304|224:304|152:232,1,150,4|8
160,240,36428,2,0,B|112:304|112:304|48:248,1,150
56,200,36923,1,8
96,152,37088,1,0
56,112,37253,1,4
256,40,37582,5,8
456,112,37912,5,0
416,152,38077,1,0
456,200,38242,1,8
344,248,38571,2,0,B|240:288|256:176,1,150,4|8
166,116,39066,2,0,B|270:76|254:188,1,150
254,182,39725,1,4
120,304,40220,5,8
72,192,40549,1,0
48,136,40714,1,0
72,80,40879,1,8
254,182,41209,5,0
392,80,41538,1,8
440,192,41868,1,0
464,248,42033,1,0
440,304,42198,1,8
256,48,42527,6,4,B|168:48|168:192|256:192|344:192|344:48|272:48,1,300,4|0
440,80,43516,1,0
488,192,43846,2,0,B|384:264|384:144|272:248,2,225,4|0|4
440,80,45165,1,4
56,48,46483,6,0,B|144:48|144:152,1,150,0|8
96,184,46978,2,0,B|24:256|96:320,2,150,0|0|0
136,248,47802,5,0
192,264,47967,1,0
248,232,48132,1,8
256,176,48297,1,4
464,48,48791,5,8
464,112,48956,1,0
408,136,49121,2,0,B|336:184|384:272,1,150,0|8
381,267,49615,2,0,B|297:312|249:240,2,150,4|0|4
320,216,50439,5,0
320,152,50604,1,0
272,112,50769,1,8
216,120,50934,1,4
120,192,51264,1,0
120,248,51428,1,12
256,352,51758,5,0
256,232,52088,1,8
256,168,52253,1,0
256,48,52582,1,0
256,168,52912,1,0
256,104,53077,5,4
480,192,53736,1,4
256,280,54395,1,4
32,192,55055,5,4
168,176,55384,1,0
256,48,55714,1,4
256,336,56373,1,4
200,104,57033,5,0
312,104,57362,1,0
136,216,57692,1,0
376,216,58022,1,0
256,320,58351,1,0
256,192,58516,12,4,60659
200,80,60989,5,4
312,80,61319,1,8
256,184,61648,1,0
208,144,61813,1,0
152,128,61978,1,8
104,168,62143,1,0
96,232,62308,2,0,B|136:304|240:296,1,150,4|0
288,296,62802,2,0,B|374:303|408:224,1,150,4|0
408,168,63297,5,8
360,128,63461,1,0
304,144,63626,1,4
256,32,63956,1,8
152,96,64286,5,0
112,144,64450,1,0
144,200,64615,1,8
176,256,64780,1,0
224,216,64945,1,4
256,104,65275,1,8
256,160,65439,1,0
360,96,65769,5,0
400,144,65934,1,8
368,200,66099,1,0
336,256,66264,1,4
256,160,66593,5,8
104,296,66923,1,4
408,296,67253,1,8
256,160,67582,1,4
408,24,68242,5,0
256,160,68571,1,8
104,24,68901,1,4
408,152,69560,5,4
104,152,70220,1,4
256,248,70714,1,4
256,128,71044,1,0
208,96,71209,1,0
152,80,71373,1,0
120,136,71538,1,4
120,256,71868,5,8
232,216,72198,1,0
232,272,72362,1,0
280,312,72527,1,8
344,312,72692,1,0
384,272,72857,1,0
472,144,73187,5,8
472,144,73351,1,0
360,96,73681,1,0
360,160,73846,1,8
312,200,74011,1,0
256,200,74176,1,4
96,96,74505,1,8
120,264,74835,5,0
168,296,75000,1,0
224,272,75165,1,8
256,224,75330,1,0
256,168,75494,1,0
256,48,75824,1,8
256,48,75989,1,0
256,168,76319,5,4
256,224,76483,1,8
288,272,76648,1,0
344,296,76813,1,0
336,176,77143,5,4
176,176,77472,1,0
256,264,77802,1,4
256,96,78132,1,4
56,232,78791,5,0
56,112,79121,1,4
160,56,79450,1,0
256,360,80110,5,4
32,192,80769,1,0
488,192,81428,1,4
256,16,82088,1,4
256,192,82417,12,0,83406
256,192,83736,12,0,89011
