osu file format v7

[General]
AudioFilename: Soultaker-Jam project.mp3
AudioLeadIn: 0
PreviewTime: 24743
Countdown: 0
SampleSet: Normal
StackLeniency: 0.5
Mode: 0
LetterboxInBreaks: 1

[Editor]
DistanceSpacing: 0.699999988079071
BeatDivisor: 1
GridSize: 8

[Metadata]
Title:Soul Taker (TV Size)
Artist:JAM Project
Creator:ztrot
Version:Easy
Source:The SoulTaker
Tags:demons angels gods action

[Difficulty]
HPDrainRate:2
CircleSize:3
OverallDifficulty:2
SliderMultiplier:1.2
SliderTickRate:1

[Events]
//Background and Video events
0,0,"BG.png"
Video,0,"[V-A]_SoulTaker_04_[E63F3C8A]_xvid_xvid.avi"
//Break Periods
//Storyboard Layer 0 (Background)
//Storyboard Layer 1 (Fail)
//Storyboard Layer 2 (Pass)
//Storyboard Layer 3 (Foreground)
//Storyboard Sound Samples
//Background Colour Transformations
3,100,163,162,255

[TimingPoints]
330,329.67032967033,4,2,0,70,1,0
9231,-100,4,2,0,0,0,0
13351,-100,4,1,1,50,0,0
60659,-100,4,1,1,50,0,1

[Colours]
Combo1 : 191,191,0
Combo2 : 147,0,0
Combo3 : 56,112,112
Combo4 : 90,46,46

[HitObjects]
256,192,9560,12,4,13846
104,248,14505,5,8
104,80,15165,1,4
256,152,15824,1,8
408,80,16483,5,4
408,248,17143,1,8
328,248,17472,1,8
328,248,17802,1,8
136,80,18791,5,4
80,136,19121,1,8
80,216,19450,1,0
136,280,19780,1,8
256,160,20439,5,4
344,160,20769,1,0
432,160,21099,1,8
344,304,21758,5,4
256,304,22088,1,0
168,304,22417,1,8
256,192,22747,12,4,24066
120,80,24395,5,0
56,144,24725,1,0
56,232,25055,1,8
120,288,25384,6,0,B|168:360|216:280,2,120,0|8|0
168,216,26373,1,8
152,136,26703,6,0,B|256:32|368:144,2,240,4|0|4
256,264,28681,5,0
184,224,29011,1,8
256,176,29340,1,4
360,40,30000,5,4
432,80,30330,1,8
432,160,30659,1,4
152,40,31319,5,4
80,80,31648,1,8
80,160,31978,1,4
208,272,32637,5,0
304,272,32967,1,8
256,192,33297,1,0
136,72,33956,6,0,B|208:16|224:96,2,120,0|8|0
376,72,35275,2,0,B|304:16|288:96,2,120,0|8|0
256,192,36593,5,0
192,248,36923,1,8
128,304,37253,1,0
256,192,37912,5,0
320,248,38242,1,8
384,304,38571,1,0
440,240,38901,2,0,B|472:184|440:120,1,120,8|0
384,64,39560,2,0,B|328:32|264:64,1,120,8|0
136,160,40549,6,0,B|224:160|224:8|136:8|48:8|48:160|120:160,2,240,4|4|4
56,184,42198,1,0
96,256,42527,6,0,B|96:360|248:360|248:256,1,240,4|0
331,260,43516,1,8
415,260,43846,6,0,B|519:260|519:108|415:108,1,240,4|0
372,178,44835,1,8
287,178,45165,2,0,B|159:178|159:346|287:426|407:346|407:186|303:186,1,360,4|8
372,180,46483,5,0
372,95,46813,1,8
287,95,47143,1,0
203,95,47472,1,8
120,96,47802,6,0,B|0:200|120:304,2,240,4|0|4
200,120,49450,1,8
256,184,49780,1,0
320,240,50110,1,8
376,304,50439,6,0,B|496:200|376:96,2,240,4|0|4
296,336,52088,1,8
256,264,52417,1,0
216,336,52747,1,8
128,272,53077,5,4
256,168,53736,1,4
384,272,54395,1,4
384,64,55055,5,4
256,168,55714,1,4
128,64,56373,1,4
48,216,57033,5,0
136,216,57362,1,8
224,216,57692,1,0
312,216,58022,1,8
256,192,58351,12,4,60989
424,176,61648,5,0
360,120,61978,1,8
304,56,62308,1,0
256,128,62637,1,8
208,56,62967,1,0
152,120,63297,1,8
88,176,63626,6,0,B|88:328|240:328,2,240,4|0|4
152,120,65275,1,8
208,56,65604,1,0
256,128,65934,1,8
304,56,66264,6,4,B|464:56|432:240,2,240
256,208,68242,5,0
256,208,68571,1,0
256,208,68901,1,4
112,296,69560,5,8
112,128,70220,1,4
256,216,70879,1,8
400,128,71538,1,4
400,296,72198,5,0
336,240,72527,1,8
256,208,72857,1,0
176,240,73187,1,8
112,296,73516,1,0
32,264,73846,1,8
80,192,74176,6,0,B|80:40|232:40,2,240,4|0|4
128,264,75824,1,8
192,320,76154,1,0
256,264,76483,1,8
320,320,76813,6,0,B|480:320|448:136,2,240,4|0|4
256,176,78791,5,0
256,176,79121,1,0
256,176,79450,1,4
408,112,80110,5,4
256,40,80769,1,4
104,112,81428,1,4
256,176,82088,1,4
256,192,82417,12,0,89011
