osu file format v11

[General]
AudioFilename: Meteor Lovers(TV Size).mp3
AudioLeadIn: 0
PreviewTime: 58251
Countdown: 0
SampleSet: Normal
StackLeniency: 0.7
Mode: 0
LetterboxInBreaks: 0

[Editor]
DistanceSpacing: 1
BeatDivisor: 4
GridSize: 4

[Metadata]
Title:Ryuusei Lovers (TV Size)
TitleUnicode:流星 Lovers (TV Size)
Artist:JAM Project
ArtistUnicode:JAM Project
Creator:Sagisawa-Yukari
Version:Normal
Source:Super Robot Wars OG2 -The Inspector-
Tags:SRW ryuusei Deen AoiX xykbear yelfea026 Sagisawa-Yukari -[NYAN]- Rotte kiddly
BeatmapID:127541
BeatmapSetID:37275

[Difficulty]
HPDrainRate:3
CircleSize:3
OverallDifficulty:3
ApproachRate:4
SliderMultiplier:1
SliderTickRate:1

[Events]
//Background and Video events
Video,0,"OG2.flv"
0,0,"Konachan.com - 41048 alteisen mecha robot super_robot_wars weissritter.jpg"
//Break Periods
//Storyboard Layer 0 (Background)
//Storyboard Layer 1 (Fail)
//Storyboard Layer 2 (Pass)
//Storyboard Layer 3 (Foreground)
//Storyboard Sound Samples
//Background Colour Transformations
3,100,163,162,255

[TimingPoints]
16639,387.096774193548,4,1,0,60,1,0
18477,-100,4,2,0,20,0,0
18671,-100,4,1,0,60,0,0
32026,-100,4,1,0,5,0,0
33477,-100,4,1,0,60,0,0
45574,-100,4,2,0,20,0,0
45768,-100,4,1,0,60,0,0
70832,-100,4,1,0,70,0,1
87864,-100,4,1,0,70,0,0

[Colours]
Combo1 : 255,0,128
Combo2 : 255,26,26
Combo3 : 0,0,255
Combo4 : 255,128,0

[HitObjects]
256,192,16639,12,0,18575,0:0:0
256,92,18961,21,0,0:0:0
180,156,19348,1,0,0:0:0
116,232,19735,6,0,P|156:280|192:288,1,100,4|8,0:0|0:0,0:0:0
292,292,20509,2,0,P|332:244|368:236,1,100,0|8,0:0|0:0,0:0:0
468,232,21284,5,0,0:0:0
464,132,21671,2,0,P|416:132|364:124,1,100,8|0,0:0|0:0,0:0:0
276,76,22445,2,0,P|236:72|176:84,1,100,8|0,0:0|0:0,0:0:0
100,144,23219,5,8,0:0:0
68,240,23606,1,0,0:0:0
144,304,23993,1,8,0:0:0
244,304,24380,6,0,P|348:304,1,100,0|8,0:0|0:0,0:0:0
372,208,25155,2,0,P|268:208,1,100,0|8,0:0|0:0,0:0:0
256,108,25929,5,4,0:0:0
168,64,26316,1,8,0:0:0
76,100,26703,1,0,0:0:0
44,196,27090,1,8,0:0:0
84,288,27477,6,0,P|104:336|148:352,1,100,4|8,0:0|0:0,0:0:0
220,284,28251,2,0,P|240:236|284:220,1,100,0|8,0:0|0:0,0:0:0
364,276,29026,5,0,0:0:0
440,212,29413,1,8,0:0:0
440,112,29800,1,0,0:0:0
364,48,30187,1,8,0:0:0
276,92,30574,6,0,P|232:108|184:92,1,100,0|8,0:0|0:0,0:0:0
124,172,31348,2,0,P|140:216|124:264,1,100,0|8,0:0|0:0,0:0:0
196,332,32122,6,0,P|256:332,2,50
248,244,32897,2,0,P|248:193,2,50
341,280,33671,6,0,P|337:230|344:180,1,100,4|8,0:0|0:0,0:0:0
323,82,34445,2,0,P|375:46|413:33,1,100,0|8,0:0|0:0,0:0:0
444,128,35219,5,0,0:0:0
360,184,35606,1,8,0:0:0
440,244,35993,1,0,0:0:0
352,296,36380,1,8,0:0:0
256,264,36768,6,0,P|256:320|232:364,1,100,0|8,0:0|0:0,0:0:0
136,348,37542,2,0,P|84:356|40:336,1,100,0|8,0:0|0:0,0:0:0
52,236,38316,5,4,0:0:0
84,140,38703,2,0,P|24:108,2,50,0|0|0,0:0|0:0|0:0,0:0:0
172,92,39477,2,0,P|224:60,2,50,0|0|4,0:0|0:0|0:0,0:0:0
172,192,40251,5,8,0:0:0
272,192,40638,2,0,P|304:144|340:124,1,100,0|8,0:0|0:0,0:0:0
440,144,41413,5,4,0:0:0
460,240,41800,2,0,P|452:308|424:328,1,100,8|0,0:0|0:0,0:0:0
340,288,42574,1,8,0:0:0
240,304,42961,6,0,P|188:320|140:312,1,100,0|8,0:0|0:0,0:0:0
72,240,43735,1,0,0:0:0
156,188,44122,1,8,0:0:0
256,192,44509,12,0,45671,0:0:0
316,84,46058,6,0,P|360:128|400:136,1,100,4|8,0:0|0:0,0:0:0
424,232,46832,2,0,P|380:276|340:284,1,100,0|8,0:0|0:0,0:0:0
256,328,47606,5,0,0:0:0
168,280,47993,1,8,0:0:0
68,300,48380,1,0,0:0:0
24,212,48768,1,8,0:0:0
120,180,49155,6,0,P|152:136|152:92,1,100,0|8,0:0|0:0,0:0:0
252,80,49929,2,0,P|296:112|340:112,1,100,0|8,0:0|0:0,0:0:0
432,72,50703,5,4,0:0:0
436,172,51090,2,0,P|436:232,2,50,0|0|0,0:0|0:0|0:0,0:0:0
340,212,51864,1,8,0:0:0
336,312,52251,6,0,P|236:312,1,100,4|8,0:0|0:0,0:0:0
136,312,53026,1,0,0:0:0
48,264,53413,1,8,0:0:0
80,168,53800,5,0,0:0:0
184,168,54187,2,0,P|236:168,2,50,8|0|0,0:0|0:0|0:0,0:0:0
132,84,54961,1,8,0:0:0
256,192,55348,12,0,58058,0:0:0
256,100,58445,6,0,P|304:72,2,50,4|0|0,0:0|0:0|0:0,0:0:0
168,144,59219,1,8,0:0:0
80,192,59606,1,0,0:0:0
132,276,59993,6,0,P|84:300,2,50
232,284,60768,1,8,0:0:0
324,244,61155,1,0,0:0:0
400,176,61542,6,0,P|372:136|324:124,1,100,0|8,0:0|0:0,0:0:0
248,56,62316,2,0,P|196:72|164:108,1,100,0|8,0:0|0:0,0:0:0
128,192,63090,1,0,0:0:0
84,280,63477,5,8,0:0:0
160,348,63864,1,0,0:0:0
240,288,64251,1,8,0:0:0
240,288,64638,1,4,0:0:0
256,188,65026,6,0,P|256:84,1,100,8|0,0:0|0:0,0:0:0
348,52,65800,1,8,0:0:0
428,112,66187,21,0,0:0:0
462,205,66574,2,0,P|479:256|469:303,1,100,8|0,0:0|0:0,0:0:0
375,268,67348,1,8,0:0:0
256,192,67735,12,0,70445,0:0:0
212,48,70832,38,0,P|164:60|124:96,1,100,4|8,0:0|0:0,0:0:0
72,176,71606,2,0,P|40:200|16:256,1,100,0|8,0:0|0:0,0:0:0
104,300,72380,5,0,0:0:0
104,300,72574,1,0,0:0:0
104,300,72768,2,0,P|136:336|188:344,1,100,8|0,0:0|0:0,0:0:0
252,272,73542,1,4,0:0:0
196,192,73929,5,0,0:0:0
256,112,74316,1,8,0:0:0
344,60,74703,2,0,P|404:68|440:96,1,100,0|8,0:0|0:0,0:0:0
456,188,75477,6,0,P|504:160,2,50,0|0|8,0:0|0:0|0:0,0:0:0
384,256,76251,2,0,P|344:288|292:280,1,100,0|8,0:0|0:0,0:0:0
256,192,77026,6,0,P|224:152|232:100,1,100,0|8,0:0|0:0,0:0:0
144,52,77800,1,0,0:0:0
84,132,78187,1,8,0:0:0
68,180,78380,1,0,0:0:0
48,228,78574,6,0,P|24:276,2,50,0|0|8,0:0|0:0|0:0,0:0:0
144,260,79348,2,0,P|164:304|212:328,1,100,0|8,0:0|0:0,0:0:0
256,240,80122,5,4,0:0:0
344,292,80509,1,8,0:0:0
428,240,80897,1,0,0:0:0
444,140,81284,1,8,0:0:0
400,48,81671,6,0,P|344:52|300:76,1,100,4|8,0:0|0:0,0:0:0
256,160,82445,1,0,0:0:0
256,260,82832,2,0,P|256:312,2,50,8|0|0,0:0|0:0|0:0,0:0:0
256,192,83606,12,4,85155,0:0:0
204,244,85542,5,0,0:0:0
304,244,85929,1,8,0:0:0
256,192,86316,12,6,87864,0:0:0
