osu file format v11

[General]
AudioFilename: Meteor Lovers(TV Size).mp3
AudioLeadIn: 0
PreviewTime: 58251
Countdown: 0
SampleSet: Normal
StackLeniency: 0.7
Mode: 0
LetterboxInBreaks: 0

[Editor]
DistanceSpacing: 1.2
BeatDivisor: 4
GridSize: 4

[Metadata]
Title:Ryuusei Lovers (TV Size)
TitleUnicode:流星 Lovers (TV Size)
Artist:JAM Project
ArtistUnicode:JAM Project
Creator:Sagisawa-Yukari
Version:Hard
Source:Super Robot Wars OG2 -The Inspector-
Tags:SRW ryuusei Deen AoiX xykbear yelfea026 Sagisawa-Yukari -[NYAN]- Rotte kiddly
BeatmapID:121882
BeatmapSetID:37275

[Difficulty]
HPDrainRate:6
CircleSize:4
OverallDifficulty:6
ApproachRate:7
SliderMultiplier:1.6
SliderTickRate:1

[Events]
//Background and Video events
Video,0,"OG2.flv"
0,0,"Konachan.com - 41048 alteisen mecha robot super_robot_wars weissritter.jpg"
//Break Periods
//Storyboard Layer 0 (Background)
//Storyboard Layer 1 (Fail)
//Storyboard Layer 2 (Pass)
//Storyboard Layer 3 (Foreground)
//Storyboard Sound Samples
//Background Colour Transformations
3,100,163,162,255

[TimingPoints]
16639,387.096774193548,4,1,0,60,1,0
18477,-100,4,2,0,20,0,0
18671,-100,4,1,0,60,0,0
33187,-100,4,2,0,20,0,0
33380,-100,4,1,0,60,0,0
45574,-100,4,2,0,20,0,0
45768,-100,4,1,0,60,0,0
56606,-100,4,2,0,20,0,0
58155,-100,4,1,0,60,0,0
70832,-100,4,1,0,70,0,1
85058,-100,4,1,0,60,0,1
87864,-100,4,1,0,70,0,0

[Colours]
Combo1 : 255,0,128
Combo2 : 255,26,26
Combo3 : 0,0,255
Combo4 : 255,128,0

[HitObjects]
256,192,16639,12,0,18575,0:0:0
196,108,18961,6,0,P|180:144|184:188,1,80,4|0,0:0|0:0,0:0:0
328,192,19348,2,0,P|344:232|340:272,1,80,4|0,0:0|0:0,0:0:0
268,332,19735,5,0,0:0:0
84,284,20122,1,8,0:0:0
60,92,20509,2,0,P|96:60|128:40,1,80,4|0,0:0|0:0,0:0:0
196,108,20897,1,8,0:0:0
280,64,21090,1,0,0:0:0
372,92,21284,6,0,P|384:132|404:168,1,80,0|0,0:0|0:0,0:0:0
460,240,21671,2,0,P|472:280|468:320,1,80,8|0,0:0|0:0,0:0:0
376,284,22058,1,0,0:0:0
296,228,22251,1,0,0:0:0
288,324,22445,2,0,P|272:364|240:376,1,80,8|0,0:0|0:0,0:0:0
152,332,22832,5,4,0:0:0
20,196,23219,1,8,0:0:0
156,60,23606,1,0,0:0:0
292,196,23993,2,0,P|308:240|336:264,1,80,8|0,0:0|0:0,0:0:0
332,261,24380,5,0,0:0:0
408,200,24574,2,0,P|420:156|408:120,1,80,0|8,0:0|0:0,0:0:0
344,56,24961,1,0,0:0:0
260,104,25155,1,0,0:0:0
260,104,25251,1,0,0:0:0
260,104,25348,2,0,P|192:148,1,80,0|8,0:0|0:0,0:0:0
108,188,25735,1,0,0:0:0
68,100,25929,5,4,0:0:0
68,292,26316,1,8,0:0:0
256,320,26703,2,0,P|340:320,1,80,0|0,0:0|0:0,0:0:0
392,244,27090,2,0,P|312:244,1,80,8|0,0:0|0:0,0:0:0
216,240,27477,5,4,0:0:0
160,164,27671,1,0,0:0:0
68,184,27864,2,0,P|40:152|36:116,1,80,8|0,0:0|0:0,0:0:0
100,44,28251,1,0,0:0:0
192,76,28445,1,0,0:0:0
284,52,28639,2,0,P|364:40,1,80,8|0,0:0|0:0,0:0:0
460,28,29026,5,4,0:0:0
364,196,29413,1,8,0:0:0
484,344,29800,2,0,P|448:324|408:320,1,80,0|0,0:0|0:0,0:0:0
316,344,30187,1,8,0:0:0
240,288,30380,1,0,0:0:0
148,312,30574,6,0,P|64:312,2,80,0|0|8,0:0|0:0|0:0,0:0:0
240,288,31155,1,0,0:0:0
256,192,31348,1,0,0:0:0
256,192,31445,1,0,0:0:0
256,192,31542,1,0,0:0:0
256,192,31638,1,0,0:0:0
256,192,31735,2,0,P|336:192,1,80,0|4,0:0|0:0,0:0:0
256,192,32122,12,0,33284,0:0:0
192,48,33671,6,0,P|132:100,1,80,4|0,0:0|0:0,0:0:0
56,164,34058,1,8,0:0:0
24,252,34251,1,0,0:0:0
100,312,34445,2,0,P|136:336|172:324,1,80,0|0,0:0|0:0,0:0:0
188,232,34832,1,8,0:0:0
260,296,35026,1,0,0:0:0
344,340,35219,6,0,P|388:336|420:316,1,80,4|0,0:0|0:0,0:0:0
488,252,35606,2,0,P|488:216|472:172,1,80,8|0,0:0|0:0,0:0:0
448,80,35993,1,0,0:0:0
380,168,36187,1,0,0:0:0
336,64,36380,1,8,0:0:0
256,144,36574,1,0,0:0:0
220,56,36768,6,0,P|140:56,1,80,0|0,0:0|0:0,0:0:0
92,140,37155,2,0,P|60:216,1,80,8|0,0:0|0:0,0:0:0
36,308,37542,1,0,0:0:0
228,308,37929,1,8,0:0:0
320,140,38316,6,0,P|324:192|336:216,1,80,0|0,0:0|0:0,0:0:0
412,276,38703,1,8,0:0:0
444,184,38897,1,0,0:0:0
428,88,39090,2,0,P|396:60|356:48,1,80,0|0,0:0|0:0,0:0:0
264,56,39477,1,8,0:0:0
184,108,39671,1,0,0:0:0
96,148,39864,6,0,P|96:68,2,80,0|0|8,0:0|0:0|0:0,0:0:0
140,232,40445,1,0,0:0:0
212,296,40638,2,0,P|292:296,2,80,0|0|8,0:0|0:0|0:0,0:0:0
140,232,41219,1,0,0:0:0
220,164,41413,5,4,0:0:0
364,36,41800,1,8,0:0:0
428,108,41993,1,0,0:0:0
428,108,42090,1,0,0:0:0
428,108,42187,2,0,P|436:148|460:184,1,80,0|0,0:0|0:0,0:0:0
504,264,42574,1,8,0:0:0
432,328,42768,6,0,P|408:368,2,40,0|0|0,0:0|0:0|0:0,0:0:0
392,240,43155,1,0,0:0:0
308,288,43348,2,0,P|296:328|264:344,1,80,8|0,0:0|0:0,0:0:0
176,304,43735,1,4,0:0:0
20,192,44122,1,8,0:0:0
256,192,44509,12,0,45671,0:0:0
336,136,46058,6,0,P|332:96|308:64,1,80,4|0,0:0|0:0,0:0:0
216,36,46445,1,8,0:0:0
152,108,46638,1,0,0:0:0
84,40,46832,2,0,P|56:76|48:112,1,80,0|0,0:0|0:0,0:0:0
64,204,47219,1,8,0:0:0
124,280,47413,1,0,0:0:0
192,216,47606,5,4,0:0:0
356,312,47993,1,8,0:0:0
336,120,48380,1,0,0:0:0
408,60,48574,1,0,0:0:0
460,140,48768,1,8,0:0:0
452,164,48864,1,0,0:0:0
436,184,48961,1,0,0:0:0
420,200,49058,1,0,0:0:0
399,213,49155,6,0,P|319:229,1,80,4|0,0:0|0:0,0:0:0
252,164,49542,1,8,0:0:0
336,120,49735,1,0,0:0:0
272,48,49929,2,0,P|232:40|192:56,1,80,0|0,0:0|0:0,0:0:0
116,104,50316,1,8,0:0:0
56,180,50509,1,0,0:0:0
64,276,50703,6,0,P|36:320,2,40,0|0|0,0:0|0:0|0:0,0:0:0
156,248,51090,1,8,0:0:0
232,308,51284,1,0,0:0:0
324,276,51477,2,0,P|368:284,2,40,0|0|0,0:0|0:0|0:0,0:0:0
248,216,51864,1,8,0:0:0
252,192,51961,1,0,0:0:0
264,172,52058,1,0,0:0:0
284,160,52155,1,0,0:0:0
306,152,52251,6,0,P|386:132,1,80,4|0,0:0|0:0,0:0:0
470,173,52638,1,8,0:0:0
504,262,52832,1,0,0:0:0
480,355,53026,2,0,P|403:334,1,80,0|0,0:0|0:0,0:0:0
325,276,53413,1,8,0:0:0
234,308,53606,1,0,0:0:0
161,245,53800,6,0,P|137:220|124:173,1,80,0|0,0:0|0:0,0:0:0
123,81,54187,1,8,0:0:0
210,41,54380,1,0,0:0:0
286,99,54574,1,0,0:0:0
234,308,54961,1,4,0:0:0
256,192,55348,12,0,56703,0:0:0
256,192,56897,12,0,58058,0:0:0
165,220,58251,5,4,0:0:0
165,220,58348,1,0,0:0:0
165,220,58445,2,0,P|98:168,1,80,0|0,0:0|0:0,0:0:0
50,89,58832,1,8,0:0:0
142,61,59026,1,0,0:0:0
237,59,59219,2,0,P|258:48|318:44,1,80,0|0,0:0|0:0,0:0:0
378,113,59606,1,8,0:0:0
437,188,59800,5,4,0:0:0
437,188,59897,1,0,0:0:0
437,188,59993,2,0,P|449:226|445:269,1,80,0|0,0:0|0:0,0:0:0
395,347,60380,1,8,0:0:0
331,274,60574,1,0,0:0:0
245,229,60768,2,0,P|205:218|172:244,1,80,0|0,0:0|0:0,0:0:0
107,306,61155,1,8,0:0:0
80,213,61348,5,4,0:0:0
80,213,61445,1,0,0:0:0
80,213,61542,2,0,P|57:179|50:140,1,80,0|0,0:0|0:0,0:0:0
146,137,61929,2,0,P|123:103|116:64,1,80,8|0,0:0|0:0,0:0:0
207,34,62316,1,0,0:0:0
284,136,62509,1,0,0:0:0
364,35,62703,1,8,0:0:0
440,137,62897,1,0,0:0:0
484,221,63090,6,0,P|499:267|490:297,1,80,0|0,0:0|0:0,0:0:0
394,290,63477,2,0,P|323:335,1,80,8|0,0:0|0:0,0:0:0
246,279,63864,2,0,P|317:234,1,80,0|0,0:0|0:0,0:0:0
364,156,64251,1,8,0:0:0
344,144,64348,1,0,0:0:0
324,132,64445,1,0,0:0:0
244,80,64638,5,0,0:0:0
156,40,64832,1,0,0:0:0
104,120,65026,1,8,0:0:0
16,80,65219,1,0,0:0:0
36,176,65413,2,0,P|28:220|36:256,1,80,0|0,0:0|0:0,0:0:0
132,240,65800,2,0,P|128:276|140:320,1,80,8|0,0:0|0:0,0:0:0
224,276,66187,5,0,0:0:0
312,308,66380,2,0,P|316:268|308:224,1,80,0|8,0:0|0:0,0:0:0
272,140,66768,1,0,0:0:0
188,96,66961,2,0,P|212:56|240:40,1,80,0|0,0:0|0:0,0:0:0
336,48,67348,1,8,0:0:0
400,120,67542,1,0,0:0:0
256,192,67735,12,4,69284,0:0:0
48,52,70832,6,0,P|40:88|48:136,1,80,4|0,0:0|0:0,0:0:0
140,144,71219,2,0,P|148:180|140:228,1,80,8|0,0:0|0:0,0:0:0
48,244,71606,1,0,0:0:0
96,328,71800,1,0,0:0:0
184,296,71993,1,8,0:0:0
272,332,72187,1,0,0:0:0
368,332,72380,6,0,P|444:304,1,80,4|0,0:0|0:0,0:0:0
448,208,72768,2,0,P|372:236,1,80,8|0,0:0|0:0,0:0:0
276,224,73155,1,0,0:0:0
328,144,73348,1,0,0:0:0
276,64,73542,1,8,0:0:0
180,48,73735,1,0,0:0:0
180,48,73832,1,0,0:0:0
180,48,73929,6,0,P|116:104,1,80,4|0,0:0|0:0,0:0:0
24,116,74316,2,0,P|8:160|16:196,1,80,8|0,0:0|0:0,0:0:0
92,244,74703,1,0,0:0:0
168,184,74897,1,0,0:0:0
204,272,75090,1,8,0:0:0
288,320,75284,1,0,0:0:0
304,304,75380,1,0,0:0:0
321,288,75477,6,0,P|385:232,1,80,0|0,0:0|0:0,0:0:0
476,260,75864,2,0,P|476:224|468:180,1,80,8|0,0:0|0:0,0:0:0
392,124,76251,1,0,0:0:0
392,124,76445,1,0,0:0:0
332,48,76638,1,8,0:0:0
332,48,76832,1,0,0:0:0
244,88,77026,6,0,P|164:112,1,80,4|0,0:0|0:0,0:0:0
72,132,77413,1,8,0:0:0
36,220,77606,1,0,0:0:0
88,300,77800,2,0,P|120:324|156:340,1,80,0|0,0:0|0:0,0:0:0
220,268,78187,1,8,0:0:0
312,300,78380,1,0,0:0:0
380,232,78574,5,0,0:0:0
372,136,78768,1,0,0:0:0
372,136,78864,1,0,0:0:0
372,136,78961,2,0,P|296:104,1,80,8|0,0:0|0:0,0:0:0
204,60,79348,1,0,0:0:0
148,148,79542,1,0,0:0:0
204,60,79735,1,8,0:0:0
148,148,79929,1,0,0:0:0
76,208,80122,6,0,P|88:248|112:276,1,80,0|0,0:0|0:0,0:0:0
200,316,80509,2,8,P|236:348|272:356,1,80,8|0,0:0|0:0,0:0:0
372,348,80897,2,0,P|396:320|416:280,1,80,0|0,0:0|0:0,0:0:0
488,204,81284,2,0,P|484:160|464:128,1,80,8|0,0:0|0:0,0:0:0
396,52,81671,5,0,0:0:0
376,64,81768,1,0,0:0:0
356,76,81864,2,0,P|280:120,1,80,0|8,0:0|0:0,0:0:0
200,76,82251,1,0,0:0:0
108,48,82445,1,0,0:0:0
40,228,82832,1,12,0:0:0
256,192,83219,12,0,85348,0:0:0
256,92,85542,5,4,0:0:0
256,284,85929,1,8,0:0:0
256,192,86316,12,4,87864,0:0:0
