osu file format v11

[General]
AudioFilename: Meteor Lovers(TV Size).mp3
AudioLeadIn: 0
PreviewTime: 58251
Countdown: 0
SampleSet: Normal
StackLeniency: 0.7
Mode: 0
LetterboxInBreaks: 0

[Editor]
DistanceSpacing: 1
BeatDivisor: 2
GridSize: 4

[Metadata]
Title:Ryuusei Lovers (TV Size)
TitleUnicode:流星 Lovers (TV Size)
Artist:JAM Project
ArtistUnicode:JAM Project
Creator:Sagisawa-Yukari
Version:Easy
Source:Super Robot Wars OG2 -The Inspector-
Tags:SRW ryuusei Deen AoiX xykbear yelfea026 Sagisawa-Yukari -[NYAN]- Rotte kiddly
BeatmapID:131420
BeatmapSetID:37275

[Difficulty]
HPDrainRate:2
CircleSize:3
OverallDifficulty:2
ApproachRate:3
SliderMultiplier:1
SliderTickRate:1

[Events]
//Background and Video events
Video,0,"OG2.flv"
0,0,"Konachan.com - 41048 alteisen mecha robot super_robot_wars weissritter.jpg"
//Break Periods
//Storyboard Layer 0 (Background)
//Storyboard Layer 1 (Fail)
//Storyboard Layer 2 (Pass)
//Storyboard Layer 3 (Foreground)
//Storyboard Sound Samples
//Background Colour Transformations
3,100,163,162,255

[TimingPoints]
16639,387.096774193548,4,1,0,60,1,0
17993,-100,4,2,0,100,0,0
18380,-100,4,1,0,60,0,0
70832,-100,4,1,0,70,0,1
87864,-100,4,1,0,70,0,0

[Colours]
Combo1 : 255,0,128
Combo2 : 255,26,26
Combo3 : 0,0,255
Combo4 : 255,128,0

[HitObjects]
256,192,16639,12,0,18187,0:0:0
108,200,18961,5,0,0:0:0
160,116,19348,1,0,0:0:0
212,200,19735,6,0,P|208:256|184:296,1,100,0|8,0:0|0:0,0:0:0
288,300,20509,2,0,P|344:304|384:328,1,100,0|8,0:0|0:0,0:0:0
432,240,21284,6,0,P|444:184|428:144,2,100,0|8|0,0:0|0:0|0:0,0:0:0
344,188,22445,1,8,0:0:0
296,100,22832,5,0,0:0:0
96,100,23606,1,0,0:0:0
140,296,24380,6,0,P|200:304|244:296,1,100,0|8,0:0|0:0,0:0:0
216,200,25155,2,0,P|276:192|320:200,1,100,0|8,0:0|0:0,0:0:0
400,248,25929,6,4,P|406:209|398:149,1,100,4|8,0:0|0:0,0:0:0
328,80,26703,2,0,P|289:73|229:81,1,100,0|8,0:0|0:0,0:0:0
132,104,27477,6,0,P|52:164,1,100,0|8,0:0|0:0,0:0:0
108,248,28251,2,0,P|188:188,1,100,0|8,0:0|0:0,0:0:0
284,216,29026,5,4,0:0:0
452,108,29800,1,0,0:0:0
464,308,30574,6,0,P|428:268|384:268,1,100,0|8,0:0|0:0,0:0:0
300,320,31348,2,0,P|264:360|220:360,1,100,0|8,0:0|0:0,0:0:0
72,116,33671,6,0,P|96:72|136:44,1,100,4|8,0:0|0:0,0:0:0
236,52,34445,2,0,P|280:76|336:80,1,100,0|8,0:0|0:0,0:0:0
428,84,35219,5,0,0:0:0
436,284,35993,1,0,0:0:0
236,312,36768,6,0,P|200:276|152:256,1,100,0|8,0:0|0:0,0:0:0
64,212,37542,2,0,P|52:168|64:112,1,100,0|8,0:0|0:0,0:0:0
136,48,38316,1,4,0:0:0
296,120,39864,6,0,P|396:120,2,100,0|8|0,0:0|0:0|0:0,0:0:0
228,192,41026,1,8,0:0:0
168,272,41413,6,0,P|68:272,2,100,0|8|0,0:0|0:0|0:0,0:0:0
216,360,42574,1,8,0:0:0
308,324,42961,6,0,P|308:268|332:232,1,100,0|8,0:0|0:0,0:0:0
420,192,43735,2,0,P|420:136|396:100,1,100,0|8,0:0|0:0,0:0:0
312,48,44509,1,4,0:0:0
108,52,46058,6,0,P|64:84|60:140,1,100,4|8,0:0|0:0,0:0:0
60,228,46832,2,0,P|92:272|148:276,1,100,0|8,0:0|0:0,0:0:0
228,244,47606,1,0,0:0:0
256,48,48380,1,0,0:0:0
456,48,49155,6,0,P|488:92|484:136,1,100,4|8,0:0|0:0,0:0:0
456,232,49929,2,0,P|412:264|368:260,1,100,0|8,0:0|0:0,0:0:0
296,192,50703,1,0,0:0:0
116,280,51477,1,0,0:0:0
160,84,52251,6,0,P|264:84,1,100,4|8,0:0|0:0,0:0:0
292,180,53026,2,0,P|188:180,1,100,0|8,0:0|0:0,0:0:0
148,268,53800,5,0,0:0:0
236,316,54187,2,0,P|288:316,2,50,8|0|0,0:0|0:0|0:0,0:0:0
256,192,55348,12,0,57671,0:0:0
256,72,58445,6,0,P|360:72,2,100,4|0|8,0:0|0:0|0:0,0:0:0
260,272,59993,6,0,P|156:272,2,100,4|0|8,0:0|0:0|0:0,0:0:0
456,316,61542,6,0,P|476:268|472:216,1,100,0|8,0:0|0:0,0:0:0
388,168,62316,2,0,P|388:60,2,100,0|8|4,0:0|0:0|0:0,0:0:0
288,172,63477,5,8,0:0:0
232,88,63864,1,4,0:0:0
176,172,64251,1,8,0:0:0
128,84,64638,6,0,P|84:64|36:80,1,100,4|8,0:0|0:0,0:0:0
24,180,65413,2,0,P|-4:236|12:272,1,100,0|8,0:0|0:0,0:0:0
108,268,66187,5,0,0:0:0
184,332,66574,1,8,0:0:0
256,260,66961,1,0,0:0:0
320,184,67348,2,0,P|368:160,2,50,8|0|0,0:0|0:0|0:0,0:0:0
256,192,68122,12,0,70058,0:0:0
400,108,70832,6,0,P|416:152|396:204,1,100,4|8,0:0|0:0,0:0:0
368,296,71606,2,0,P|320:312|268:296,1,100,0|8,0:0|0:0,0:0:0
188,248,72380,5,4,0:0:0
100,296,72768,1,8,0:0:0
20,232,73155,2,0,P|4:172|20:140,1,100,0|8,0:0|0:0,0:0:0
108,92,73929,5,4,0:0:0
304,52,74703,1,4,0:0:0
424,212,75477,6,0,P|424:320,2,100,0|8|0,0:0|0:0|0:0,0:0:0
260,328,77026,6,0,P|160:328,1,100,4|8,0:0|0:0,0:0:0
148,228,77800,2,0,P|248:228,1,100,0|8,0:0|0:0,0:0:0
348,224,78574,6,0,P|364:180|360:128,1,100,0|8,0:0|0:0,0:0:0
280,64,79348,1,0,0:0:0
192,108,79735,1,8,0:0:0
188,208,80122,6,0,P|80:208,2,100,4|8|0,0:0|0:0|0:0,0:0:0
256,192,81671,12,4,84768,0:0:0
204,244,85542,5,0,0:0:0
304,244,85929,1,8,0:0:0
256,192,86316,12,6,87864,0:0:0
