osu file format v11

[General]
AudioFilename: Meteor Lovers(TV Size).mp3
AudioLeadIn: 0
PreviewTime: 58251
Countdown: 0
SampleSet: Normal
StackLeniency: 0.4
Mode: 1
LetterboxInBreaks: 0

[Editor]
DistanceSpacing: 1.2
BeatDivisor: 4
GridSize: 32

[Metadata]
Title:Ryuusei Lovers (TV Size)
TitleUnicode:流星 Lovers (TV Size)
Artist:JAM Project
ArtistUnicode:JAM Project
Creator:Sagisawa-Yukari
Version:Aoiko
Source:Super Robot Wars OG2 -The Inspector-
Tags:SRW ryuusei Deen AoiX xykbear yelfea026 Sagisawa-Yukari -[NYAN]- Rotte kiddly
BeatmapID:150588
BeatmapSetID:37275

[Difficulty]
HPDrainRate:5
CircleSize:5
OverallDifficulty:5
ApproachRate:5
SliderMultiplier:1.4
SliderTickRate:1

[Events]
//Background and Video events
0,0,"Konachan.com - 41048 alteisen mecha robot super_robot_wars weissritter.jpg"
//Break Periods
//Storyboard Layer 0 (Background)
//Storyboard Layer 1 (Fail)
//Storyboard Layer 2 (Pass)
//Storyboard Layer 3 (Foreground)
//Storyboard Sound Samples
//Background Colour Transformations
3,100,163,162,255

[TimingPoints]
16639,387.096774193548,4,1,0,40,1,0
18768,-100,4,1,0,90,0,0
33380,-100,4,1,0,80,0,0
44509,-100,4,1,0,70,0,0
45864,-100,4,1,0,80,0,0
70832,-100,4,1,0,100,0,1
87864,-100,4,1,0,60,0,0

[Colours]
Combo1 : 255,128,128
Combo2 : 0,128,255

[HitObjects]
256,192,16639,12,0,18574,0:0:0
256,192,18961,5,2,0:0:0
256,192,19155,5,0,0:0:0
256,192,19348,5,2,0:0:0
256,192,19542,5,0,0:0:0
256,192,19735,1,4,0:0:0
256,192,19929,1,0,0:0:0
256,192,20122,5,2,0:0:0
256,192,20316,5,0,0:0:0
256,192,20413,1,0,0:0:0
256,192,20509,1,0,0:0:0
256,192,20606,1,0,0:0:0
256,192,20703,1,0,0:0:0
256,192,20897,5,2,0:0:0
256,192,21090,5,0,0:0:0
256,192,21477,1,0,0:0:0
256,192,21574,1,0,0:0:0
256,192,21671,1,0,0:0:0
256,192,21768,1,0,0:0:0
256,192,21864,5,2,0:0:0
256,192,22058,1,2,0:0:0
256,192,22445,5,0,0:0:0
256,192,22639,5,2,0:0:0
256,192,22832,5,0,0:0:0
256,192,23219,5,2,0:0:0
256,192,23606,5,0,0:0:0
256,192,23993,5,2,0:0:0
256,192,24380,5,0,0:0:0
256,192,24477,1,0,0:0:0
256,192,24574,1,0,0:0:0
256,192,24671,1,0,0:0:0
256,192,24768,5,2,0:0:0
256,192,24961,1,2,0:0:0
256,192,25348,5,0,0:0:0
256,192,25542,5,2,0:0:0
256,192,25735,5,0,0:0:0
256,192,25929,1,4,0:0:0
256,192,26316,5,2,0:0:0
256,192,26703,5,0,0:0:0
256,192,27090,5,2,0:0:0
256,192,27477,5,0,0:0:0
256,192,27574,1,0,0:0:0
256,192,27671,1,0,0:0:0
256,192,27768,1,0,0:0:0
256,192,27864,5,2,0:0:0
256,192,28058,1,2,0:0:0
256,192,28251,5,0,0:0:0
256,192,28348,1,0,0:0:0
256,192,28445,1,0,0:0:0
256,192,28639,5,2,0:0:0
256,192,28832,5,0,0:0:0
256,192,29026,1,4,0:0:0
256,192,29219,1,0,0:0:0
256,192,29316,1,0,0:0:0
256,192,29413,5,8,0:0:0
256,192,29606,5,0,0:0:0
256,192,29703,1,0,0:0:0
256,192,29800,1,0,0:0:0
256,192,29993,1,0,0:0:0
256,192,30090,1,0,0:0:0
256,192,30187,5,2,0:0:0
256,192,30380,1,2,0:0:0
256,192,30574,5,4,0:0:0
256,192,30961,1,4,0:0:0
256,192,31348,5,12,0:0:0
256,192,31735,1,12,0:0:0
256,192,32122,12,0,33284,0:0:0
256,192,33477,5,0,0:0:0
256,192,33574,1,0,0:0:0
256,192,33671,1,0,0:0:0
256,192,33864,1,0,0:0:0
256,192,34058,5,2,0:0:0
256,192,34251,5,0,0:0:0
256,192,34445,1,0,0:0:0
256,192,34542,1,0,0:0:0
256,192,34638,1,0,0:0:0
256,192,34832,5,2,0:0:0
256,192,35026,1,2,0:0:0
256,192,35219,5,0,0:0:0
256,192,35316,1,0,0:0:0
256,192,35413,1,0,0:0:0
256,192,35509,1,0,0:0:0
256,192,35606,5,2,0:0:0
256,192,35800,1,2,0:0:0
256,192,35993,5,0,0:0:0
256,192,36090,1,0,0:0:0
256,192,36187,1,0,0:0:0
256,192,36284,1,0,0:0:0
256,192,36380,5,2,0:0:0
256,192,36574,5,0,0:0:0
256,192,36768,5,2,0:0:0
256,192,36961,5,0,0:0:0
256,192,37058,1,0,0:0:0
256,192,37155,1,0,0:0:0
256,192,37348,5,2,0:0:0
256,192,37542,5,0,0:0:0
256,192,37735,5,2,0:0:0
256,192,37832,1,2,0:0:0
256,192,37929,1,2,0:0:0
256,192,38122,5,0,0:0:0
256,192,38219,1,0,0:0:0
256,192,38316,1,0,0:0:0
256,192,38606,5,2,0:0:0
256,192,38897,5,0,0:0:0
256,192,39090,1,0,0:0:0
256,192,39380,1,0,0:0:0
256,192,39477,5,2,0:0:0
256,192,39671,5,0,0:0:0
256,192,39768,1,0,0:0:0
256,192,39864,1,0,0:0:0
256,192,40155,5,2,0:0:0
256,192,40445,5,0,0:0:0
256,192,40638,5,2,0:0:0
256,192,40832,5,0,0:0:0
256,192,41026,5,2,0:0:0
256,192,41219,5,0,0:0:0
256,192,41316,1,0,0:0:0
256,192,41413,1,0,0:0:0
256,192,41606,1,0,0:0:0
256,192,41800,1,0,0:0:0
256,192,41897,1,0,0:0:0
256,192,41993,1,0,0:0:0
256,192,42090,1,0,0:0:0
256,192,42187,5,2,0:0:0
256,192,42574,1,2,0:0:0
256,192,42768,5,0,0:0:0
256,192,42864,1,0,0:0:0
256,192,42961,1,0,0:0:0
256,192,43155,1,0,0:0:0
256,192,43251,5,2,0:0:0
256,192,43542,5,0,0:0:0
256,192,43735,5,2,0:0:0
256,192,43929,5,0,0:0:0
256,192,44122,5,2,0:0:0
256,192,44316,5,0,0:0:0
256,192,44509,1,0,0:0:0
256,192,44606,1,0,0:0:0
256,192,44703,1,0,0:0:0
256,192,44800,5,8,0:0:0
256,192,44897,5,0,0:0:0
256,192,45090,5,8,0:0:0
256,192,45187,5,0,0:0:0
256,192,45284,5,8,0:0:0
256,192,45477,1,8,0:0:0
256,192,45574,1,8,0:0:0
256,192,45864,1,12,0:0:0
256,192,46058,5,4,0:0:0
256,192,46251,1,0,0:0:0
256,192,46348,1,0,0:0:0
256,192,46445,1,0,0:0:0
256,192,46638,5,2,0:0:0
256,192,46832,5,0,0:0:0
256,192,47026,1,0,0:0:0
256,192,47122,1,0,0:0:0
256,192,47219,5,2,0:0:0
256,192,47413,1,2,0:0:0
256,192,47606,5,4,0:0:0
256,192,47897,5,12,0:0:0
256,192,48187,5,4,0:0:0
256,192,48380,1,0,0:0:0
256,192,48477,1,0,0:0:0
256,192,48574,1,0,0:0:0
256,192,48671,1,0,0:0:0
256,192,48768,5,2,0:0:0
256,192,48961,1,2,0:0:0
256,192,49155,5,4,0:0:0
256,192,49445,5,12,0:0:0
256,192,49735,5,4,0:0:0
256,192,49929,1,4,0:0:0
256,192,50219,5,12,0:0:0
256,192,50509,5,4,0:0:0
256,192,50703,1,0,0:0:0
256,192,50800,1,0,0:0:0
256,192,50897,1,0,0:0:0
256,192,50993,1,0,0:0:0
256,192,51090,1,0,0:0:0
256,192,51284,1,0,0:0:0
256,192,51380,1,0,0:0:0
256,192,51671,1,0,0:0:0
256,192,51768,1,0,0:0:0
256,192,51864,5,2,0:0:0
256,192,52058,1,2,0:0:0
256,192,52155,1,2,0:0:0
256,192,52251,5,0,0:0:0
256,192,52445,1,0,0:0:0
256,192,52542,5,2,0:0:0
256,192,52832,5,0,0:0:0
256,192,53026,5,2,0:0:0
256,192,53219,5,0,0:0:0
256,192,53413,5,2,0:0:0
256,192,53606,5,0,0:0:0
256,192,53703,1,0,0:0:0
256,192,53800,1,0,0:0:0
256,192,53993,1,0,0:0:0
256,192,54090,5,2,0:0:0
256,192,54380,5,0,0:0:0
256,192,54477,1,0,0:0:0
256,192,54574,5,2,0:0:0
256,192,54671,1,2,0:0:0
256,192,54768,1,2,0:0:0
256,192,54864,1,2,0:0:0
256,192,54961,1,2,0:0:0
256,192,55348,5,4,0:0:0
256,192,55735,1,4,0:0:0
256,192,56122,1,4,0:0:0
256,192,56509,1,4,0:0:0
256,192,56897,5,12,0:0:0
256,192,57284,1,12,0:0:0
256,192,57671,1,12,0:0:0
256,192,58058,1,12,0:0:0
256,192,58251,1,2,0:0:0
256,192,58348,1,2,0:0:0
256,192,58445,5,0,0:0:0
256,192,58638,1,0,0:0:0
256,192,58735,5,2,0:0:0
256,192,59026,5,0,0:0:0
256,192,59219,5,2,0:0:0
256,192,59413,1,2,0:0:0
256,192,59606,5,0,0:0:0
256,192,59800,1,0,0:0:0
256,192,59897,1,0,0:0:0
256,192,59993,5,2,0:0:0
256,192,60187,1,2,0:0:0
256,192,60284,5,0,0:0:0
256,192,60574,1,0,0:0:0
256,192,60768,1,0,0:0:0
256,192,60864,1,0,0:0:0
256,192,60961,1,0,0:0:0
256,192,61058,1,0,0:0:0
256,192,61155,5,2,0:0:0
256,192,61348,1,2,0:0:0
256,192,61445,1,2,0:0:0
256,192,61542,5,0,0:0:0
256,192,61735,1,0,0:0:0
256,192,61929,5,2,0:0:0
256,192,62122,1,2,0:0:0
256,192,62316,5,0,0:0:0
256,192,62509,1,0,0:0:0
256,192,62703,5,2,0:0:0
256,192,62897,1,2,0:0:0
256,192,63090,5,4,0:0:0
256,192,63477,1,4,0:0:0
256,192,63864,5,12,0:0:0
256,192,64251,1,12,0:0:0
256,192,64638,5,0,0:0:0
256,192,64929,1,0,0:0:0
256,192,65026,1,0,0:0:0
256,192,65219,1,0,0:0:0
256,192,65413,1,0,0:0:0
256,192,65606,5,2,0:0:0
256,192,65800,5,0,0:0:0
256,192,65993,5,2,0:0:0
256,192,66187,5,0,0:0:0
256,192,66284,1,0,0:0:0
256,192,66380,1,0,0:0:0
256,192,66477,1,0,0:0:0
256,192,66574,5,2,0:0:0
256,192,66768,1,2,0:0:0
256,192,66961,5,0,0:0:0
256,192,67058,1,0,0:0:0
256,192,67155,1,0,0:0:0
256,192,67251,1,0,0:0:0
256,192,67348,5,2,0:0:0
256,192,67542,1,2,0:0:0
256,192,67735,5,0,0:0:0
256,192,67832,1,0,0:0:0
256,192,67929,1,0,0:0:0
256,192,68026,1,0,0:0:0
256,192,68122,1,0,0:0:0
256,192,68316,5,2,0:0:0
256,192,68509,5,0,0:0:0
256,192,68606,1,0,0:0:0
256,192,68703,1,0,0:0:0
256,192,68800,1,0,0:0:0
256,192,68897,1,0,0:0:0
256,192,69090,5,2,0:0:0
256,192,69284,1,12,0:0:0
256,192,69671,1,2,0:0:0
256,192,69864,1,2,0:0:0
256,192,70058,5,4,0:0:0
256,192,70832,1,0,0:0:0
256,192,71219,5,8,0:0:0
256,192,71413,5,0,0:0:0
256,192,71509,1,0,0:0:0
256,192,71606,5,2,0:0:0
256,192,71800,1,2,0:0:0
256,192,71993,5,0,0:0:0
256,192,72187,5,2,0:0:0
256,192,72380,5,0,0:0:0
256,192,72477,1,0,0:0:0
256,192,72574,1,0,0:0:0
256,192,72671,5,8,0:0:0
256,192,72768,5,0,0:0:0
256,192,72961,5,2,0:0:0
256,192,73155,5,0,0:0:0
256,192,73251,1,0,0:0:0
256,192,73348,1,0,0:0:0
256,192,73542,1,0,0:0:0
256,192,73638,1,0,0:0:0
256,192,73735,5,2,0:0:0
256,192,73929,1,2,0:0:0
256,192,74122,5,0,0:0:0
256,192,74219,1,0,0:0:0
256,192,74316,1,0,0:0:0
256,192,74509,5,2,0:0:0
256,192,74703,5,0,0:0:0
256,192,74897,1,0,0:0:0
256,192,74993,1,0,0:0:0
256,192,75090,1,0,0:0:0
256,192,75284,5,2,0:0:0
256,192,75477,1,2,0:0:0
256,192,75671,5,0,0:0:0
256,192,75768,1,0,0:0:0
256,192,75864,1,0,0:0:0
256,192,76058,5,2,0:0:0
256,192,76251,5,0,0:0:0
256,192,76348,1,0,0:0:0
256,192,76445,1,0,0:0:0
256,192,76542,1,0,0:0:0
256,192,76638,5,2,0:0:0
256,192,76832,1,2,0:0:0
256,192,77026,5,0,0:0:0
256,192,77122,1,0,0:0:0
256,192,77219,1,0,0:0:0
256,192,77316,1,0,0:0:0
256,192,77413,1,0,0:0:0
256,192,77606,5,2,0:0:0
256,192,77800,5,0,0:0:0
256,192,77993,5,2,0:0:0
256,192,78187,1,2,0:0:0
256,192,78380,5,0,0:0:0
256,192,78574,1,0,0:0:0
256,192,78671,1,0,0:0:0
256,192,78768,1,0,0:0:0
256,192,78864,1,0,0:0:0
256,192,78961,5,2,0:0:0
256,192,79155,1,2,0:0:0
256,192,79348,1,2,0:0:0
256,192,79542,5,0,0:0:0
256,192,79735,5,2,0:0:0
256,192,79929,1,2,0:0:0
256,192,80122,5,4,0:0:0
256,192,80509,1,0,0:0:0
256,192,80703,1,0,0:0:0
256,192,81090,1,0,0:0:0
256,192,81187,1,0,0:0:0
256,192,81284,1,0,0:0:0
256,192,81477,5,2,0:0:0
256,192,81574,1,2,0:0:0
256,192,81671,1,2,0:0:0
256,192,81864,5,0,0:0:0
256,192,82058,1,0,0:0:0
256,192,82251,1,0,0:0:0
256,192,82445,5,2,0:0:0
256,192,82638,1,2,0:0:0
256,192,82832,5,0,0:0:0
256,192,83026,1,0,0:0:0
256,192,83122,1,0,0:0:0
256,192,83219,1,0,0:0:0
256,192,83413,1,0,0:0:0
256,192,83606,5,2,0:0:0
256,192,83800,5,0,0:0:0
256,192,83993,1,0,0:0:0
256,192,84187,1,0,0:0:0
256,192,84380,5,2,0:0:0
256,192,84574,5,0,0:0:0
256,192,84768,1,0,0:0:0
256,192,84864,1,0,0:0:0
256,192,84961,1,0,0:0:0
256,192,85058,1,0,0:0:0
256,192,85155,1,8,0:0:0
256,192,85251,1,0,0:0:0
256,192,85348,1,0,0:0:0
256,192,85445,1,0,0:0:0
256,192,85542,1,8,0:0:0
256,192,85929,5,0,0:0:0
256,192,86316,1,2,0:0:0
256,192,86509,5,0,0:0:0
256,192,86703,5,2,0:0:0
256,192,86897,5,0,0:0:0
256,192,87090,5,2,0:0:0
256,192,87284,5,0,0:0:0
256,192,87477,5,2,0:0:0
256,192,87671,5,0,0:0:0
256,192,87864,12,0,90961,0:0:0
