osu file format v13

[General]
AudioFilename: JAKAZiD See It Coming.mp3
AudioLeadIn: 0
PreviewTime: -1
Countdown: 0
SampleSet: Normal
StackLeniency: 0.4
Mode: 0
LetterboxInBreaks: 0
WidescreenStoryboard: 0

[Editor]
Bookmarks: 23618,46206,113971,170441,193029,206441,215618,226912,238206,260794
DistanceSpacing: 0.5
BeatDivisor: 4
GridSize: 8
TimelineZoom: 3.200002

[Metadata]
Title:See It Coming
TitleUnicode:See It Coming
Artist:JAKAZiD
ArtistUnicode:JAKAZiD
Creator:Akali
Version:AR9
Source:
Tags:tokyo hardcore drum and bass dnb
BeatmapID:441731
BeatmapSetID:184531

[Difficulty]
HPDrainRate:5.7
CircleSize:4.2
OverallDifficulty:7.5
ApproachRate:9
SliderMultiplier:1.99999990463257
SliderTickRate:2

[Events]
//Background and Video events
0,0,"aweseme2.jpg",0,0
//Break Periods
//Storyboard Layer 0 (Background)
//Storyboard Layer 1 (Fail)
//Storyboard Layer 2 (Pass)
//Storyboard Layer 3 (Foreground)
//Storyboard Sound Samples
//Background Colour Transformations
3,100,163,162,255

[TimingPoints]
1030,352.941176470588,4,1,0,61,1,0
3324,-133.333333333333,4,1,0,61,0,0
3765,-133.333333333333,4,1,0,5,0,0
3853,-100,4,1,0,61,0,0
4912,-76.9230769230769,4,1,0,61,0,0
5265,-100,4,1,0,61,0,0
8971,-133.333333333333,4,1,0,61,0,0
9500,-100,4,1,0,61,0,0
11706,-76.9230769230769,4,1,0,61,0,0
12324,-100,4,1,0,61,0,0
14088,-76.9230769230769,4,1,0,61,0,0
15147,-100,4,1,0,61,0,0
16206,-76.9230769230769,4,1,0,61,0,0
16559,-100,4,1,0,61,0,0
20265,-133.333333333333,4,1,0,61,0,0
22206,-200,4,1,0,5,0,0
22912,-100,4,1,0,61,0,0
45147,-58.8235294117647,4,1,0,61,0,0
46206,-76.9230769230769,4,1,0,61,0,0
46912,-100,4,1,0,61,0,0
47265,-76.9230769230769,4,1,0,61,0,0
49735,-133.333333333333,4,1,0,61,0,0
50441,-76.9230769230769,4,1,0,61,0,0
51500,-58.8235294117647,4,1,0,61,0,0
51853,-76.9230769230769,4,1,0,61,0,0
52559,-133.333333333333,4,1,0,61,0,0
52912,-76.9230769230769,4,1,0,61,0,0
55382,-133.333333333333,4,1,0,61,0,0
56088,-76.9230769230769,4,1,0,61,0,0
58029,-133.333333333333,4,1,0,61,0,0
58559,-58.8235294117647,4,1,0,61,0,0
59088,-76.9230769230769,4,1,0,61,0,0
61029,-133.333333333333,4,1,0,61,0,0
61735,-76.9230769230769,4,1,0,61,0,0
63853,-133.333333333333,4,1,0,61,0,0
64206,-76.9230769230769,4,1,0,61,0,0
66677,-100,4,1,0,61,0,0
67029,-76.9230769230769,4,1,0,61,0,0
68441,-50,4,1,0,61,0,0
68794,-76.9230769230769,4,1,0,61,0,0
69500,-133.333333333333,4,1,0,61,0,0
69765,-76.9230769230769,4,1,0,61,0,0
72324,-100,4,1,0,61,0,0
73029,-76.9230769230769,4,1,0,61,0,0
74088,-58.8235294117647,4,1,0,61,0,0
74441,-76.9230769230769,4,1,0,61,0,0
75147,-133.333333333333,4,1,0,61,0,0
75853,-76.9230769230769,4,1,0,61,0,0
77971,-133.333333333333,4,1,0,61,0,0
78324,-76.9230769230769,4,1,0,61,0,0
83971,-58.8235294117647,4,1,0,61,0,0
84324,-76.9230769230769,4,1,0,61,0,0
85029,-50,4,1,0,61,0,0
85735,-58.8235294117647,4,1,0,61,0,0
86794,-50,4,1,0,61,0,0
87147,-58.8235294117647,4,1,0,61,0,0
89265,-76.9230769230769,4,1,0,61,0,0
90677,-50,4,1,0,61,0,0
91382,-200,4,1,0,5,0,0
113971,-100,4,2,0,61,0,0
125265,-100,4,1,0,61,0,0
142912,-90.9090909090909,4,1,0,61,0,0
143618,-83.3333333333333,4,1,0,61,0,0
144324,-76.9230769230769,4,1,0,61,0,0
146441,-100,4,1,0,61,0,0
147853,-76.9230769230769,4,1,0,61,0,1
170441,-76.9230769230769,4,1,0,61,0,0
193029,-100,4,1,0,61,0,0
203618,-76.9230769230769,4,1,0,61,0,0
204324,-58.8235294117647,4,1,0,61,0,0
204677,-100,4,1,0,61,0,0
207147,-58.8235294117647,4,1,0,61,0,0
207500,-76.9230769230769,4,1,0,61,0,0
226912,-58.8235294117647,4,1,0,61,0,1
237500,-50,4,1,0,61,0,1
238206,-76.9230769230769,4,1,0,61,0,0
241029,-100,4,1,0,61,0,0
242088,-76.9230769230769,4,1,0,61,0,0
242441,-100,4,1,0,61,0,0
242441,-100,4,1,0,61,0,0
245618,-76.9230769230769,4,1,0,61,0,0
246677,-100,4,1,0,61,0,0
248441,-133.333333333333,4,1,0,61,0,0
249500,-100,4,1,0,61,0,0
251794,-76.9230769230769,4,1,0,61,0,0
252324,-100,4,1,0,61,0,0
253382,-76.9230769230769,4,1,0,61,0,0
253735,-100,4,1,0,61,0,0
257441,-76.9230769230769,4,1,0,61,0,0
260441,-50,4,1,0,61,0,0

[HitObjects]
245,316,1030,6,0,P|194:351|139:351,1,99.9999952316285
153,193,1382,1,8,0:0:0:0:
311,199,1559,6,0,L|322:259,1,49.9999976158143
234,314,1735,2,0,P|180:344|125:340,1,99.9999952316285
155,162,2088,1,8,0:0:0:0:
310,205,2265,6,0,L|315:266,1,49.9999976158143
223,312,2441,2,0,P|167:337|113:328,1,99.9999952316285
166,130,2794,1,8,0:0:0:0:
307,45,2971,2,0,L|363:43,1,49.9999976158143
301,219,3147,2,0,L|251:205,1,49.9999976158143
295,126,3324,6,0,B|313:124|313:124|328:137|328:137|329:123|329:123|314:122|314:122|360:125|360:125|433:183,1,187.499998211861
418,171,3853,6,0,B|453:205|453:205|465:298,1,99.9999952316285
270,294,4206,1,8,0:0:0:0:
369,109,4382,2,0,L|392:61,1,49.9999976158143
419,185,4559,6,0,B|451:222|451:222|454:315,1,99.9999952316285
273,311,4912,6,0,L|173:274,1,64.9999939250949
206,267,5088,2,0,L|279:277,1,64.9999939250949
155,320,5265,6,0,L|148:212,1,99.9999952316285
71,123,5618,1,8,0:0:0:0:
193,15,5794,1,0,0:0:0:0:
168,11,5882,1,8,0:0:0:0:
286,160,6059,1,0,0:0:0:0:
298,181,6147,1,10,0:0:0:0:
246,98,6324,2,0,L|257:41,1,49.9999976158143,0|10,0:0|0:0,0:0:0:0:
217,248,6500,2,0,L|206:305,1,49.9999976158143,0|8,0:0|0:0,0:0:0:0:
136,153,6677,6,0,L|99:40,1,99.9999952316285
65,278,7029,1,8,0:0:0:0:
286,209,7206,2,0,L|299:276,1,49.9999976158143
241,323,7382,2,0,P|180:341|110:315,1,99.9999952316285
184,164,7735,1,8,0:0:0:0:
369,155,7912,2,0,L|425:150,1,49.9999976158143
450,237,8088,6,0,L|324:249,1,99.9999952316285
385,62,8441,1,10,0:0:0:0:
408,323,8618,1,0,0:0:0:0:
273,114,8794,1,0,0:0:0:0:
221,258,8971,6,0,B|211:287|211:287|204:275|204:275|224:281|224:281|203:320,2,74.9999992847443,0|0|0,0:0|0:0|0:0,0:0:0:0:
277,100,9500,5,0,0:0:0:0:
278,96,9677,1,0,0:0:0:0:
106,31,9853,1,8,0:0:0:0:
183,184,10029,2,0,L|214:243,1,49.9999976158143
208,69,10206,5,0,0:0:0:0:
209,65,10383,1,0,0:0:0:0:
69,16,10559,1,8,0:0:0:0:
85,230,10735,2,0,L|91:317,1,49.9999976158143
79,137,10912,5,8,0:0:0:0:
78,132,11000,1,8,0:0:0:0:
78,127,11088,1,8,0:0:0:0:
90,322,11265,1,8,0:0:0:0:
216,191,11441,6,0,L|256:147,1,49.9999976158143,0|8,0:0|0:0,0:0:0:0:
284,260,11706,6,0,L|344:189,1,64.9999939250949
453,138,11971,6,0,P|417:135|381:156,3,64.9999939250949,0|0|0|0,0:0|0:0|0:0|0:0,0:0:0:0:
433,213,12324,6,0,L|422:318,1,99.9999952316285,4|0,0:0|0:0,0:0:0:0:
270,139,12677,1,8,0:0:0:0:
357,80,12853,2,0,L|413:42,1,49.9999976158143
241,158,13029,2,0,L|227:282,1,99.9999952316285
199,324,13294,1,0,0:0:0:0:
199,324,13382,1,8,0:0:0:0:
138,104,13559,6,0,L|115:24,1,49.9999976158143
61,189,13735,2,0,P|125:217|183:198,1,99.9999952316285
255,195,14000,1,0,0:0:0:0:
260,195,14088,6,0,P|337:226|348:274,1,129.99998785019,8|0,0:0|0:0,0:0:0:0:
272,269,14353,1,0,0:0:0:0:
266,272,14441,1,8,0:0:0:0:
120,329,14618,2,2,B|47:354|47:354|55:364|59:352|59:352|-12:331,2,129.99998785019,0|0|0,0:0|0:0|0:0,0:0:0:0:
273,270,15147,6,0,L|339:172,1,99.9999952316285
337,119,15412,1,0,0:0:0:0:
338,114,15500,1,8,0:0:0:0:
169,88,15677,2,0,L|156:145,1,49.9999976158143
231,34,15853,2,0,P|162:9|101:38,1,99.9999952316285
74,204,16206,6,0,L|79:275,1,64.9999939250949,8|0,0:0|0:0,0:0:0:0:
44,178,16382,2,0,L|39:107,1,64.9999939250949
53,304,16559,5,0,0:0:0:0:
217,357,16735,1,0,0:0:0:0:
240,365,16824,1,0,0:0:0:0:
263,372,16912,1,8,0:0:0:0:
215,209,17088,1,0,0:0:0:0:
180,214,17177,1,8,0:0:0:0:
145,220,17265,2,0,L|130:277,1,49.9999976158143,0|8,0:0|0:0,0:0:0:0:
254,204,17441,2,0,L|269:147,1,49.9999976158143,2|8,0:0|0:0,0:0:0:0:
216,323,17618,1,0,0:0:0:0:
181,328,17707,1,8,0:0:0:0:
141,333,17794,1,0,0:0:0:0:
106,338,17883,1,8,0:0:0:0:
66,342,17971,6,0,L|90:229,1,99.9999952316285
284,118,18324,1,2,0:0:0:0:
287,114,18500,1,2,0:0:0:0:
428,278,18677,2,0,L|404:391,1,99.9999952316285
226,72,19029,1,2,0:0:0:0:
229,68,19205,1,2,0:0:0:0:
272,304,19382,6,0,L|158:300,1,99.9999952316285
345,163,19735,1,2,0:0:0:0:
348,159,19911,1,2,0:0:0:0:
466,93,20088,1,0,0:0:0:0:
418,201,20265,6,2,B|397:248|397:248|387:238|387:238|403:286|374:334,1,149.999998569489,0|8,0:0|0:0,0:0:0:0:
250,153,20794,5,8,0:0:0:0:
291,273,20971,1,0,0:0:0:0:
153,250,21147,5,8,0:0:0:0:
126,246,21235,1,0,0:0:0:0:
100,243,21323,1,0,0:0:0:0:
74,240,21411,1,0,0:0:0:0:
100,171,21500,5,8,0:0:0:0:
127,175,21588,1,0,0:0:0:0:
153,178,21676,1,0,0:0:0:0:
179,181,21764,1,0,0:0:0:0:
172,106,21853,5,8,0:0:0:0:
145,102,21941,1,0,0:0:0:0:
119,99,22029,1,0,0:0:0:0:
93,96,22117,1,0,0:0:0:0:
68,93,22206,6,0,L|262:117,1,174.99999165535
277,120,22912,5,12,0:0:0:0:
318,126,23265,5,12,0:0:0:0:
365,133,23618,5,2,0:0:0:0:
130,339,23794,1,0,0:0:0:0:
231,115,23971,1,0,0:0:0:0:
101,40,24324,5,0,0:0:0:0:
245,215,24677,1,8,0:0:0:0:
101,40,25029,1,0,0:0:0:0:
258,312,25382,1,8,0:0:0:0:
101,40,25735,1,0,0:0:0:0:
276,88,26088,5,0,0:0:0:0:
245,215,26265,1,0,0:0:0:0:
101,40,26441,1,0,0:0:0:0:
398,39,26618,1,0,0:0:0:0:
376,171,26794,1,0,0:0:0:0:
443,29,27147,5,0,0:0:0:0:
245,215,27500,1,8,0:0:0:0:
443,29,27853,1,0,0:0:0:0:
123,261,28206,1,8,0:0:0:0:
443,29,28559,1,0,0:0:0:0:
312,357,28912,6,0,L|424:342,1,99.9999952316285
100,28,29265,2,0,L|-12:43,1,99.9999952316285
73,164,29618,5,0,0:0:0:0:
103,342,29971,1,0,0:0:0:0:
73,164,30324,1,0,0:0:0:0:
256,322,30677,1,0,0:0:0:0:
73,164,31029,1,0,0:0:0:0:
410,295,31382,1,0,0:0:0:0:
73,164,31735,5,0,0:0:0:0:
52,271,31912,1,0,0:0:0:0:
32,368,32088,1,0,0:0:0:0:
95,50,32265,1,0,0:0:0:0:
52,271,32441,1,0,0:0:0:0:
410,295,32794,5,0,0:0:0:0:
73,164,33147,1,8,0:0:0:0:
410,295,33500,1,0,0:0:0:0:
95,50,33853,1,8,0:0:0:0:
201,143,34206,1,0,0:0:0:0:
235,174,34294,2,0,L|246:291,1,99.9999952316285,8|0,0:0|0:0,0:0:0:0:
276,300,34559,1,8,0:0:0:0:
377,188,34735,5,0,0:0:0:0:
372,147,34824,1,0,0:0:0:0:
366,107,34912,1,0,0:0:0:0:
194,274,35088,1,0,0:0:0:0:
199,315,35177,1,0,0:0:0:0:
205,355,35265,1,8,0:0:0:0:
376,177,35441,5,0,0:0:0:0:
367,137,35530,1,0,0:0:0:0:
358,97,35618,1,0,0:0:0:0:
201,279,35794,1,0,0:0:0:0:
209,319,35883,1,0,0:0:0:0:
219,358,35971,1,8,0:0:0:0:
371,156,36147,5,0,0:0:0:0:
356,118,36236,1,0,0:0:0:0:
340,81,36324,1,0,0:0:0:0:
216,287,36500,1,0,0:0:0:0:
231,325,36589,1,0,0:0:0:0:
248,361,36677,1,8,0:0:0:0:
363,136,36853,5,0,0:0:0:0:
341,101,36942,1,0,0:0:0:0:
319,68,37030,1,0,0:0:0:0:
225,290,37206,1,0,0:0:0:0:
243,326,37295,1,0,0:0:0:0:
263,361,37382,1,8,0:0:0:0:
251,142,37559,5,0,0:0:0:0:
211,139,37647,1,0,0:0:0:0:
171,137,37735,1,0,0:0:0:0:
332,254,37912,1,0,0:0:0:0:
372,257,38000,1,0,0:0:0:0:
412,259,38088,1,8,0:0:0:0:
246,142,38265,5,0,0:0:0:0:
206,143,38353,1,0,0:0:0:0:
166,144,38441,1,0,0:0:0:0:
337,247,38618,1,0,0:0:0:0:
377,246,38706,1,0,0:0:0:0:
417,245,38794,1,8,0:0:0:0:
242,143,38971,5,0,0:0:0:0:
202,147,39059,1,0,0:0:0:0:
162,152,39147,1,0,0:0:0:0:
341,239,39324,1,0,0:0:0:0:
381,235,39412,1,0,0:0:0:0:
421,230,39500,1,8,0:0:0:0:
237,144,39677,5,0,0:0:0:0:
198,151,39765,1,0,0:0:0:0:
158,160,39853,1,0,0:0:0:0:
344,231,40030,1,0,0:0:0:0:
384,223,40118,1,0,0:0:0:0:
423,215,40206,1,8,0:0:0:0:
157,262,40382,5,0,0:0:0:0:
152,302,40471,1,0,0:0:0:0:
148,341,40559,1,4,0:0:0:0:
237,145,40735,1,0,0:0:0:0:
238,104,40824,1,0,0:0:0:0:
239,65,40912,1,8,0:0:0:0:
163,270,41088,5,0,0:0:0:0:
161,310,41177,1,0,0:0:0:0:
161,349,41265,1,0,0:0:0:0:
232,146,41441,1,0,0:0:0:0:
230,105,41530,1,0,0:0:0:0:
227,66,41618,1,8,0:0:0:0:
201,322,41794,5,0,0:0:0:0:
241,327,41883,1,0,0:0:0:0:
280,331,41971,1,4,0:0:0:0:
84,242,42147,1,0,0:0:0:0:
43,241,42236,1,0,0:0:0:0:
4,240,42324,1,8,0:0:0:0:
148,124,42500,6,0,L|159:67,2,49.9999976158143,0|0|0,0:0|0:0|0:0,0:0:0:0:
84,345,42853,2,0,L|25:366,2,49.9999976158143,0|0|0,0:0|0:0|0:0,0:0:0:0:
261,245,43206,5,0,0:0:0:0:
259,204,43295,1,0,0:0:0:0:
256,165,43383,5,0,0:0:0:0:
293,177,43471,1,0,0:0:0:0:
332,177,43559,1,0,0:0:0:0:
366,157,43647,1,0,0:0:0:0:
387,123,43735,1,8,0:0:0:0:
409,156,43824,1,0,0:0:0:0:
429,190,43912,1,0,0:0:0:0:
450,223,44000,1,0,0:0:0:0:
469,257,44088,5,8,0:0:0:0:
432,272,44176,1,0,0:0:0:0:
395,288,44265,1,8,0:0:0:0:
358,303,44353,1,0,0:0:0:0:
321,319,44440,1,8,0:0:0:0:
291,293,44529,1,0,0:0:0:0:
254,275,44618,1,8,0:0:0:0:
214,282,44706,1,0,0:0:0:0:
182,306,44794,6,0,L|206:201,1,99.9999952316285,8|0,0:0|0:0,0:0:0:0:
140,157,45059,1,0,0:0:0:0:
128,226,45147,6,0,P|194:288|271:245,1,169.999995136261,8|0,0:0|0:0,0:0:0:0:
278,196,45412,1,0,0:0:0:0:
292,129,45500,1,8,0:0:0:0:
22,182,45677,1,8,0:0:0:0:
150,55,45853,6,2,L|28:31,1,84.9999975681305
66,38,46029,2,2,L|154:95,1,84.9999975681305
149,56,46206,6,0,P|79:107|68:189,1,129.99998785019
203,265,46559,1,8,0:0:0:0:
237,69,46735,1,0,0:0:0:0:
225,204,46912,6,0,B|223:232|223:232|194:264|201:293|201:293|174:302|161:318|157:340,1,149.999992847443
230,371,47265,6,0,B|286:350|281:289|281:289|422:249,1,194.999981775285,8|0,0:0|0:0,0:0:0:0:
418,251,47618,5,0,0:0:0:0:
303,81,47794,1,0,0:0:0:0:
253,64,47882,1,0,0:0:0:0:
203,78,47970,2,0,B|139:97|139:97|99:159,1,129.99998785019,8|0,0:0|0:0,0:0:0:0:
126,335,48324,1,0,0:0:0:0:
164,233,48500,1,0,0:0:0:0:
21,203,48677,2,0,P|50:236|74:244,1,64.9999939250949,8|0,0:0|0:0,0:0:0:0:
122,54,48853,2,0,L|45:44,1,64.9999939250949
104,150,49029,6,0,L|256:173,1,129.99998785019
284,180,49294,1,0,0:0:0:0:
335,188,49382,6,0,B|396:197|396:197|369:284,1,129.99998785019,8|0,0:0|0:0,0:0:0:0:
333,38,49735,6,0,L|470:58,1,112.499998927116,0|2,0:0|0:0,0:0:0:0:
423,127,50088,6,0,L|286:107,1,112.499998927116,8|0,0:0|0:0,0:0:0:0:
266,104,50441,5,0,0:0:0:0:
87,202,50618,5,0,0:0:0:0:
105,249,50706,1,0,0:0:0:0:
219,93,50882,1,0,0:0:0:0:
201,46,50970,1,0,0:0:0:0:
260,271,51147,2,0,L|438:294,1,129.99998785019
230,112,51500,6,0,P|281:190|256:100,1,254.999992704392,8|0,0:0|0:0,0:0:0:0:
220,94,51853,6,0,P|142:103|85:45,1,129.99998785019
172,26,52118,1,0,0:0:0:0:
171,29,52206,2,0,L|150:174,1,129.99998785019,8|0,0:0|0:0,0:0:0:0:
222,330,52559,6,0,B|248:375|248:375|300:345,1,112.499998927116
380,325,52912,6,0,B|340:309|328:289|321:269|326:232|326:232|253:274,1,194.999981775285,8|0,0:0|0:0,0:0:0:0:
220,295,53265,1,2,0:0:0:0:
402,249,53441,1,0,0:0:0:0:
395,197,53529,1,0,0:0:0:0:
358,159,53618,2,2,B|312:152|312:152|218:204,1,129.99998785019,8|0,0:0|0:0,0:0:0:0:
154,242,53971,1,0,0:0:0:0:
79,288,54147,1,0,0:0:0:0:
153,334,54324,1,8,0:0:0:0:
120,68,54500,1,0,0:0:0:0:
209,178,54677,6,0,P|236:253|199:315,1,129.99998785019
153,334,54941,1,0,0:0:0:0:
153,334,55029,2,0,L|318:330,1,129.99998785019,8|0,0:0|0:0,0:0:0:0:
265,131,55382,6,0,L|128:134,1,112.499998927116
268,219,55735,2,0,B|232:208|232:208|209:179,2,74.9999992847443,8|0|0,0:0|0:0|0:0,0:0:0:0:
417,50,56265,5,0,0:0:0:0:
443,94,56353,1,2,0:0:0:0:
289,177,56529,1,0,0:0:0:0:
263,133,56617,1,2,0:0:0:0:
465,132,56794,2,0,L|454:204,1,64.9999939250949
238,100,56971,2,0,L|249:28,1,64.9999939250949
343,121,57147,1,8,0:0:0:0:
335,163,57235,1,8,0:0:0:0:
327,206,57323,1,8,0:0:0:0:
320,249,57411,1,8,0:0:0:0:
312,293,57500,6,0,L|159:320,1,129.99998785019,12|0,0:0|0:0,0:0:0:0:
132,324,57765,1,0,0:0:0:0:
125,326,57853,1,8,0:0:0:0:
177,162,58029,6,0,B|219:155|219:155|253:163,2,74.9999992847443,0|0|0,0:0|0:0|0:0,0:0:0:0:
148,244,58559,6,0,P|243:218|104:116,1,339.999990272522
279,49,59088,5,0,0:0:0:0:
329,33,59177,1,0,0:0:0:0:
380,17,59265,2,0,B|366:107|366:107|448:106,1,129.99998785019,8|0,0:0|0:0,0:0:0:0:
508,260,59618,2,0,L|428:260,1,64.9999939250949,2|0,0:0|0:0,0:0:0:0:
405,107,59794,2,0,L|485:107,1,64.9999939250949,2|0,0:0|0:0,0:0:0:0:
439,183,59971,2,0,B|373:182|373:182|359:215|308:231,2,129.99998785019,8|0|0,0:0|0:0|0:0,0:0:0:0:
297,146,60500,5,0,0:0:0:0:
245,137,60588,1,0,0:0:0:0:
193,126,60677,2,0,B|108:110|108:110|108:192,1,129.99998785019,8|0,0:0|0:0,0:0:0:0:
179,234,61029,6,0,L|310:258,1,112.499998927116
336,41,61382,6,0,L|205:17,1,112.499998927116,8|0,0:0|0:0,0:0:0:0:
195,13,61735,5,0,0:0:0:0:
112,281,61912,1,0,0:0:0:0:
114,332,62000,1,2,0:0:0:0:
103,106,62177,1,0,0:0:0:0:
101,55,62265,1,2,0:0:0:0:
114,332,62441,5,0,0:0:0:0:
101,55,62618,1,0,0:0:0:0:
278,103,62794,2,0,B|314:147|354:145|354:145|372:103|271:103,1,194.999981775285,8|0,0:0|0:0,0:0:0:0:
231,162,63147,2,0,P|301:209|388:213,1,129.99998785019
410,189,63412,1,0,0:0:0:0:
428,120,63500,2,0,P|394:62|307:42,1,129.99998785019,8|0,0:0|0:0,0:0:0:0:
203,93,63853,6,0,B|184:141|184:141|189:219,1,112.499998927116
194,285,64206,6,0,B|184:144|184:144|208:77,1,194.999981775285,8|0,0:0|0:0,0:0:0:0:
225,46,64559,5,0,0:0:0:0:
149,237,64735,2,0,L|172:173,1,64.9999939250949
121,313,64912,1,8,0:0:0:0:
225,46,65088,1,0,0:0:0:0:
246,234,65265,2,0,B|256:305|256:305|221:367,1,129.99998785019
104,152,65618,1,8,0:0:0:0:
360,134,65794,1,0,0:0:0:0:
16,160,65971,5,0,0:0:0:0:
255,144,66147,1,0,0:0:0:0:
308,139,66236,1,0,0:0:0:0:
360,134,66324,1,8,0:0:0:0:
332,356,66500,1,0,0:0:0:0:
232,224,66677,6,0,L|215:43,1,149.999992847443
298,40,67029,6,0,L|323:293,1,194.999981775285,8|0,0:0|0:0,0:0:0:0:
326,316,67382,1,4,0:0:0:0:
157,155,67559,1,0,0:0:0:0:
118,120,67647,1,0,0:0:0:0:
326,315,67824,1,0,0:0:0:0:
365,350,67912,1,0,0:0:0:0:
130,367,68088,6,0,L|-22:378,1,129.99998785019
152,272,68441,6,2,B|228:228|239:119|136:92|72:206|298:205,1,299.999985694885
260,204,68794,6,0,L|420:224,1,129.99998785019,4|0,0:0|0:0,0:0:0:0:
196,77,69147,2,0,P|90:114|78:177,1,129.99998785019
179,150,69500,6,0,L|196:77,1,74.9999992847443
168,201,69765,1,0,0:0:0:0:
156,251,69853,6,0,B|133:355|133:355|171:326|244:331,1,194.999981775285,8|0,0:0|0:0,0:0:0:0:
300,333,70206,2,0,P|388:359|427:404,1,129.99998785019
383,308,70471,1,0,0:0:0:0:
344,238,70559,2,0,B|326:250|322:259|322:259|281:253|254:271|254:271|271:192,1,129.99998785019,8|0,0:0|0:0,0:0:0:0:
294,121,70912,1,0,0:0:0:0:
465,282,71088,1,0,0:0:0:0:
375,94,71265,1,8,0:0:0:0:
169,66,71441,1,8,0:0:0:0:
424,179,71618,6,0,B|426:152|426:152|472:121|458:48|415:40,1,129.99998785019
375,94,71882,1,0,0:0:0:0:
348,164,71971,2,0,B|344:189|344:209|358:226|381:241|381:241|367:296,1,129.99998785019,8|0,0:0|0:0,0:0:0:0:
256,363,72324,6,0,L|154:380,2,99.9999952316285,0|0|8,0:0|0:0|0:0,0:0:0:0:
211,295,72765,5,0,0:1:0:0:
178,300,72853,1,0,0:1:0:0:
145,305,72941,1,0,0:1:0:0:
112,311,73029,1,4,0:1:0:0:
324,234,73206,5,0,0:1:0:0:
363,241,73294,1,2,0:1:0:0:
120,204,73471,1,0,0:1:0:0:
80,197,73559,1,2,0:1:0:0:
322,235,73735,6,0,L|471:263,1,129.99998785019
510,95,74088,6,0,B|498:75|498:75|467:100|467:100|444:60|444:60|405:83|405:83|382:44|382:44|343:66|343:66|262:28,1,254.999992704392,8|0,0:0|0:0,0:0:0:0:
333,61,74441,6,0,P|260:59|225:151,1,129.99998785019
295,126,74706,1,0,0:0:0:0:
366,153,74794,2,0,P|321:197|258:191,1,129.99998785019,8|0,0:0|0:0,0:0:0:0:
139,140,75147,6,0,B|109:113|109:113|106:62,2,74.9999992847443,0|0|8,0:0|0:0|0:0,0:0:0:0:
184,173,75588,1,0,0:0:0:0:
206,225,75677,1,0,0:0:0:0:
195,280,75765,1,0,0:0:0:0:
156,320,75853,1,0,0:0:0:0:
384,240,76029,6,0,L|434:280,1,64.9999939250949
301,256,76206,6,0,P|319:189|377:159,1,129.99998785019
420,168,76471,1,0,0:0:0:0:
424,172,76559,1,0,0:0:0:0:
280,53,76735,1,0,0:0:0:0:
486,35,76912,1,8,0:0:0:0:
289,169,77088,1,0,0:0:0:0:
245,197,77177,1,0,0:0:0:0:
200,223,77265,6,0,L|212:368,1,129.99998785019
160,301,77529,1,0,0:0:0:0:
115,244,77618,2,0,B|111:214|111:214|136:164|136:164|125:66,1,129.99998785019,8|0,0:0|0:0,0:0:0:0:
34,201,77971,6,0,L|44:333,1,112.499998927116
115,244,78324,6,0,B|112:212|112:212|136:166|136:166|131:120|131:120|41:128,1,194.999981775285,8|0,0:0|0:0,0:0:0:0:
14,134,78677,5,0,0:0:0:0:
202,53,78853,1,0,0:0:0:0:
250,34,78941,1,2,0:0:0:0:
339,251,79118,1,0,0:0:0:0:
291,270,79206,1,2,0:0:0:0:
333,126,79382,2,0,L|415:135,1,64.9999939250949,8|0,0:0|0:0,0:0:0:0:
242,288,79559,2,0,L|160:279,1,64.9999939250949,0|0,0:0|0:0,0:0:0:0:
281,195,79735,5,8,0:0:0:0:
280,208,79824,1,8,0:0:0:0:
337,249,79912,5,8,0:0:0:0:
336,262,80001,1,8,0:0:0:0:
404,297,80088,6,0,B|397:372|397:372|327:373,1,129.99998785019,4|0,0:0|0:0,0:0:0:0:
270,374,80353,1,0,0:0:0:0:
303,311,80441,1,8,0:0:0:0:
432,167,80618,1,0,0:0:0:0:
501,184,80706,1,0,0:0:0:0:
455,238,80794,6,0,B|420:130|420:130|457:106|457:66|449:-1|374:2,1,259.99997570038,0|8,0:0|0:0,0:0:0:0:
376,72,81235,1,0,0:0:0:0:
316,112,81324,1,0,0:0:0:0:
246,125,81412,1,0,0:0:0:0:
178,101,81500,1,0,0:0:0:0:
195,244,81677,6,0,L|204:316,1,64.9999939250949
70,353,81853,2,0,L|51:197,1,129.99998785019,8|0,0:0|0:0,0:0:0:0:
126,231,82118,1,0,0:0:0:0:
196,244,82206,2,0,B|184:301|136:306|136:306|147:382,1,129.99998785019
112,129,82559,5,2,0:0:0:0:
512,291,82735,1,2,0:0:0:0:
361,35,82912,6,0,L|179:58,1,129.99998785019,4|0,0:0|0:0,0:0:0:0:
265,115,83177,1,0,0:0:0:0:
298,177,83265,1,8,0:0:0:0:
476,165,83441,1,0,0:0:0:0:
478,94,83529,1,0,0:0:0:0:
482,23,83617,1,0,0:0:0:0:
297,178,83794,2,0,L|295:273,1,64.9999939250949
365,283,83971,6,0,B|366:180|366:180|269:147|269:147|206:183,1,254.999992704392
162,205,84324,5,0,0:0:0:0:
310,333,84500,1,0,0:0:0:0:
376,359,84588,1,8,0:0:0:0:
164,132,84765,1,0,0:0:0:0:
93,123,84853,1,8,0:0:0:0:
241,292,85029,6,0,P|304:336|272:253,1,199.999990463257
56,248,85382,2,2,B|61:257|61:257|44:261|44:261|57:273|57:273|39:276|39:276|53:288|53:288|35:292|35:292|49:304|49:304|31:307|31:307|45:319|45:319|27:323|27:323|40:335|40:335|23:338|23:338|36:350|36:350|19:354|19:354|32:365|32:365|15:369|15:369|28:381|28:381|11:385|11:385|6:433,1,299.999985694885,10|2,0:0|0:0,0:0:0:0:
116,349,85735,6,0,B|145:235|145:235|213:213,1,169.999995136261,4|0,0:0|0:0,0:0:0:0:
270,201,86000,1,0,0:0:0:0:
344,184,86088,2,0,B|427:167|427:167|390:310,1,169.999995136261,8|0,0:0|0:0,0:0:0:0:
261,328,86441,6,0,P|202:240|213:80,1,254.999992704392
320,63,86794,6,0,B|376:94|376:94|403:166|403:166|365:186|322:253|390:343,1,299.999985694885,8|0,0:0|0:0,0:0:0:0:
454,252,87147,6,0,P|377:234|268:203,1,169.999995136261
215,186,87412,1,0,0:0:0:0:
141,164,87500,2,0,B|152:267|152:267|246:308,1,169.999995136261,8|0,0:0|0:0,0:0:0:0:
356,347,87853,1,0,0:0:0:0:
319,63,88029,1,0,0:0:0:0:
454,251,88206,1,8,0:0:0:0:
132,13,88382,1,0,0:0:0:0:
142,167,88559,5,8,0:0:0:0:
146,217,88647,1,0,0:0:0:0:
151,268,88735,1,0,0:0:0:0:
156,319,88823,1,0,0:0:0:0:
220,358,88912,5,0,0:0:0:0:
271,366,89000,1,0,0:0:0:0:
322,374,89088,1,0,0:0:0:0:
371,383,89176,1,8,0:0:0:0:
417,318,89265,6,0,L|418:246,1,64.9999939250949,8|0,0:0|0:0,0:0:0:0:
219,161,89441,2,0,L|218:233,1,64.9999939250949,8|0,0:0|0:0,0:0:0:0:
388,214,89618,2,0,L|389:142,1,64.9999939250949,8|0,0:0|0:0,0:0:0:0:
190,57,89794,2,0,L|189:129,1,64.9999939250949,8|0,0:0|0:0,0:0:0:0:
269,14,89971,5,0,0:0:0:0:
76,100,90147,1,2,0:0:0:0:
28,121,90235,1,10,0:0:0:0:
347,142,90412,1,2,0:0:0:0:
353,90,90500,1,10,0:0:0:0:
199,311,90677,6,2,B|108:363|108:363|52:266,1,199.999990463257
103,144,91029,1,8,0:0:0:0:
127,186,91117,1,8,0:0:0:0:
151,227,91205,1,8,0:0:0:0:
175,269,91293,1,8,0:0:0:0:
199,311,91382,6,0,B|234:363|234:363|374:286|374:286|378:204|298:177,1,349.9999833107
429,55,92794,6,0,B|394:3|394:3|254:80|254:80|250:162|330:189,1,349.9999833107
143,142,94206,6,0,B|251:82|251:82|259:189|342:204|410:166|410:166|286:239|314:340,1,549.999973773957
408,340,96324,6,0,P|426:275|511:257,1,149.999992847443,0|0,0:0|0:0,0:0:0:0:
219,240,97029,6,0,B|199:313|221:366|221:366|104:270|8:375,1,349.9999833107
218,239,98441,6,0,B|238:166|216:113|216:113|333:209|429:104,1,349.9999833107
97,74,99853,6,0,B|174:190|81:313|81:313|-13:279,1,349.9999833107
97,74,101265,6,0,B|239:124|239:124|169:257|264:321,1,349.9999833107
376,229,102677,6,0,B|395:188|395:188|364:143|397:101|397:101|194:23,1,349.9999833107
294,213,104088,6,0,B|277:271|335:357|437:330|463:247|463:247|504:333,1,349.9999833107
378,227,105500,6,0,B|395:169|337:83|235:110|209:193|209:193|195:105|109:56|15:144|43:222,1,549.999973773957
269,292,107618,6,0,P|193:307|126:275,1,149.999992847443
302,156,108324,6,0,P|259:248|442:344,1,349.9999833107
389,113,109735,6,0,B|333:182|211:137|211:137|225:53|225:53|176:61|140:29,1,349.9999833107
320,53,111147,6,0,B|297:217|297:217|215:197|159:247|170:326,1,349.9999833107
319,52,112559,6,0,B|329:112|273:162|191:142|191:142|168:306,1,349.9999833107
234,58,113971,5,0,0:0:0:0:
420,286,114147,1,0,0:0:0:0:
203,225,114853,5,8,0:0:0:0:
232,58,115029,5,0,0:0:0:0:
135,86,115118,1,8,0:0:0:0:
286,196,115294,5,0,0:0:0:0:
187,202,115382,1,8,0:0:0:0:
378,69,115559,5,0,0:0:0:0:
346,191,116265,6,0,B|331:240|331:240|258:268,2,99.9999952316285,0|0|0,0:0|0:0|0:0,0:0:0:0:
377,68,116794,1,0,0:0:0:0:
300,375,116971,1,0,0:0:0:0:
300,375,117677,5,8,0:0:0:0:
137,255,117853,5,0,0:0:0:0:
157,352,117941,1,8,0:0:0:0:
224,237,118118,5,0,0:0:0:0:
179,148,118206,1,8,0:0:0:0:
300,375,118382,5,0,0:0:0:0:
159,47,118824,6,0,L|53:56,1,99.9999952316285,8|0,0:0|0:0,0:0:0:0:
137,205,119088,2,0,L|243:196,1,99.9999952316285,8|0,0:0|0:0,0:0:0:0:
159,47,119353,2,0,L|53:56,1,99.9999952316285,8|0,0:0|0:0,0:0:0:0:
151,127,119618,5,0,0:0:0:0:
397,316,119794,1,0,0:0:0:0:
371,35,120500,5,8,0:0:0:0:
384,184,120677,5,0,0:0:0:0:
376,84,120765,1,8,0:0:0:0:
306,240,120941,5,0,0:0:0:0:
340,335,121029,1,8,0:0:0:0:
252,98,121206,5,0,0:0:0:0:
193,252,121912,6,0,L|159:350,1,99.9999952316285,8|0,0:0|0:0,0:0:0:0:
62,248,122177,2,0,L|96:150,1,99.9999952316285,8|0,0:0|0:0,0:0:0:0:
121,87,122441,1,0,0:0:0:0:
26,334,122618,1,0,0:0:0:0:
372,248,123147,6,0,L|434:271,1,49.9999976158143
305,224,123324,1,8,0:0:0:0:
158,213,123500,5,0,0:0:0:0:
63,245,123588,1,8,0:0:0:0:
254,100,123765,5,0,0:0:0:0:
353,93,123853,1,8,0:0:0:0:
41,35,124029,5,0,0:0:0:0:
64,244,124735,6,0,B|72:294|72:294|111:343,1,99.9999952316285,8|0,0:0|0:0,0:0:0:0:
266,274,125000,2,0,B|258:224|258:224|219:175,1,99.9999952316285,8|0,0:0|0:0,0:0:0:0:
165,256,125265,5,0,0:0:0:0:
366,291,125441,1,0,0:0:0:0:
220,107,125618,2,0,P|177:121|163:138,1,49.9999976158143,8|0,0:0|0:0,0:0:0:0:
368,118,125794,2,0,P|372:92|366:64,1,49.9999976158143,0|0,0:0|0:0,0:0:0:0:
268,223,125971,2,0,P|264:249|270:277,1,49.9999976158143,0|8,0:0|0:0,0:0:0:0:
366,291,126147,2,0,P|368:226|356:187,1,99.9999952316285,8|0,0:0|0:0,0:0:0:0:
165,256,126412,2,0,P|163:321|175:360,1,99.9999952316285,8|0,0:0|0:0,0:0:0:0:
293,345,126677,5,0,0:0:0:0:
83,199,126853,1,0,0:0:0:0:
221,105,127029,5,0,0:0:0:0:
268,87,127118,1,0,0:0:0:0:
317,88,127206,1,0,0:0:0:0:
362,107,127294,1,8,0:0:0:0:
417,218,127471,5,0,0:0:0:0:
435,264,127559,1,8,0:0:0:0:
224,197,127735,5,0,0:0:0:0:
203,153,127824,1,8,0:0:0:0:
82,202,128000,5,0,0:0:0:0:
83,251,128088,2,0,L|85:385,1,99.9999952316285
224,197,128441,1,0,0:0:0:0:
201,152,128529,1,0,0:0:0:0:
163,118,128618,1,0,0:0:0:0:
113,115,128706,1,8,0:0:0:0:
223,308,128882,5,0,0:0:0:0:
272,318,128971,1,8,0:0:0:0:
330,162,129147,5,0,0:0:0:0:
294,197,129236,1,8,0:0:0:0:
278,244,129324,1,0,0:0:0:0:
290,292,129412,1,0,0:0:0:0:
324,327,129500,6,0,L|445:350,1,99.9999952316285
373,139,129853,2,0,L|252:116,1,99.9999952316285,8|0,0:0|0:0,0:0:0:0:
456,211,130206,2,0,P|477:149|466:88,1,99.9999952316285,8|0,0:0|0:0,0:0:0:0:
250,199,130559,2,0,L|279:250,1,49.9999976158143,8|0,0:0|0:0,0:0:0:0:
137,114,130735,2,0,L|72:91,1,49.9999976158143
145,212,130912,5,0,0:0:0:0:
293,57,131088,1,0,0:0:0:0:
338,265,131265,2,0,L|351:329,1,49.9999976158143,8|0,0:0|0:0,0:0:0:0:
196,204,131441,2,0,L|183:140,1,49.9999976158143
299,305,131618,2,0,L|308:353,1,49.9999976158143,8|0,0:0|0:0,0:0:0:0:
167,325,131794,2,0,B|119:346|119:346|66:342,1,99.9999952316285,8|0,0:0|0:0,0:0:0:0:
48,228,132059,2,0,B|96:207|96:207|149:211,1,99.9999952316285,8|0,0:0|0:0,0:0:0:0:
225,224,132324,6,0,P|289:225|328:196,1,99.9999952316285
224,30,132677,2,0,P|168:61|148:105,1,99.9999952316285,8|0,0:0|0:0,0:0:0:0:
155,141,132941,1,8,0:0:0:0:
356,95,133118,1,0,0:0:0:0:
343,46,133206,1,8,0:0:0:0:
296,226,133382,1,0,0:0:0:0:
300,276,133471,1,8,0:0:0:0:
448,143,133647,5,0,0:0:0:0:
463,95,133735,2,0,B|348:42,1,99.9999952316285
432,192,134353,5,0,0:0:0:0:
116,257,134618,5,0,0:0:0:0:
417,241,134882,5,0,0:0:0:0:
172,328,135147,6,0,B|83:366|32:328|3:257|34:184|86:169|86:169|134:227|165:202|232:71|204:50|21:43|196:237|254:166,1,599.999971389771,0|8,0:0|0:0,0:0:0:0:
266,168,136294,1,0,0:0:0:0:
297,128,136382,1,0,0:0:0:0:
286,78,136471,1,0,0:0:0:0:
244,49,136559,1,8,0:0:0:0:
414,31,136735,6,0,L|489:23,2,49.9999976158143,0|0|8,0:0|0:0|0:0,0:0:0:0:
148,58,137265,1,8,0:0:0:0:
109,62,137618,1,8,0:0:0:0:
330,158,137971,6,0,L|443:204,1,99.9999952316285,8|0,0:0|0:0,0:0:0:0:
384,227,138235,1,0,0:0:0:0:
343,257,138324,1,8,0:0:0:0:
47,128,138677,1,8,0:0:0:0:
8,132,139030,1,8,0:0:0:0:
218,245,139382,6,0,L|331:291,1,99.9999952316285,8|0,0:0|0:0,0:0:0:0:
272,314,139646,1,0,0:0:0:0:
231,344,139735,1,8,0:0:0:0:
383,230,140088,1,8,0:0:0:0:
419,202,140441,1,8,0:0:0:0:
161,163,140794,6,0,L|38:154,1,99.9999952316285,8|0,0:0|0:0,0:0:0:0:
66,205,141059,1,0,0:0:0:0:
72,254,141147,1,8,0:0:0:0:
46,60,141500,1,8,0:0:0:0:
85,348,141853,1,8,0:0:0:0:
251,250,142206,6,0,P|278:195|279:149,1,99.9999952316285,8|0,0:0|0:0,0:0:0:0:
234,134,142471,1,0,0:0:0:0:
185,122,142559,2,0,P|158:177|157:223,1,99.9999952316285,8|0,0:0|0:0,0:0:0:0:
257,263,142912,6,0,P|286:202|287:151,1,109.999998111725,8|0,0:0|0:0,0:0:0:0:
238,136,143177,1,0,0:0:0:0:
185,119,143265,2,0,P|155:179|154:230,1,109.999998111725,8|0,0:0|0:0,0:0:0:0:
263,277,143618,6,0,P|295:211|296:155,1,119.999990615845,8|0,0:0|0:0,0:0:0:0:
243,138,143883,1,0,0:0:0:0:
186,118,143971,2,0,P|153:184|152:239,1,119.999990615845,8|0,0:0|0:0,0:0:0:0:
270,290,144324,6,0,P|305:218|306:158,1,129.99998785019,8|0,0:0|0:0,0:0:0:0:
249,140,144588,1,0,0:0:0:0:
187,118,144677,2,0,P|149:194|147:259,1,129.99998785019,8|0,0:0|0:0,0:0:0:0:
226,368,145029,5,8,0:0:0:0:
278,373,145118,1,0,0:0:0:0:
326,354,145206,2,0,L|435:379,1,64.9999939250949
208,232,145382,5,8,0:0:0:0:
190,281,145471,1,0,0:0:0:0:
203,331,145559,2,0,L|132:347,1,64.9999939250949
343,206,145735,5,8,0:0:0:0:
361,157,145824,1,0,0:0:0:0:
348,107,145912,2,0,L|419:91,1,64.9999939250949
314,23,146088,5,8,0:0:0:0:
262,18,146177,1,0,0:0:0:0:
214,37,146265,2,0,L|105:12,1,64.9999939250949
30,104,146441,6,0,P|21:175|43:226,1,99.9999952316285
73,257,146706,6,0,P|19:160|102:36,1,249.999988079071
212,128,147324,5,2,0:0:0:0:
256,168,147412,1,0,0:0:0:0:
268,180,147500,5,2,3:0:0:0:
287,237,147588,1,0,3:0:0:0:
292,252,147677,5,10,3:0:0:0:
271,309,147765,1,8,3:0:0:0:
233,349,147853,6,0,B|165:355|165:355|110:325,1,129.99998785019,2|0,0:0|0:0,0:0:0:0:
64,278,148118,1,0,0:0:0:0:
63,213,148206,2,0,L|64:133,1,64.9999939250949,8|0,0:0|0:0,0:0:0:0:
108,63,148382,1,2,0:0:0:0:
174,73,148471,1,0,0:0:0:0:
212,129,148559,2,0,L|190:206,1,64.9999939250949
175,39,148735,2,0,P|255:40|308:104,1,129.99998785019,2|8,0:0|0:0,0:0:0:0:
319,128,149000,1,0,0:0:0:0:
338,189,149088,2,0,L|316:266,1,64.9999939250949,2|0,0:0|0:0,0:0:0:0:
179,253,149265,6,0,L|212:128,1,129.99998785019,2|0,0:0|0:0,0:0:0:0:
265,91,149529,1,0,0:0:0:0:
329,76,149618,2,0,L|420:107,1,64.9999939250949,8|0,0:0|0:0,0:0:0:0:
346,207,149794,1,0,0:0:0:0:
305,257,149882,1,0,0:0:0:0:
241,272,149971,2,0,L|150:241,1,64.9999939250949
346,207,150147,2,0,B|388:260|388:260|391:343,1,129.99998785019,2|8,0:0|0:0,0:0:0:0:
332,354,150412,1,0,0:0:0:0:
269,369,150500,2,0,L|178:338,1,64.9999939250949,2|0,0:0|0:0,0:0:0:0:
432,255,150677,6,0,B|434:350|434:350|407:384,1,129.99998785019,2|0,0:0|0:0,0:0:0:0:
357,342,150941,1,0,0:0:0:0:
322,286,151029,2,0,L|319:196,1,64.9999939250949,8|0,0:0|0:0,0:0:0:0:
252,154,151206,1,2,0:0:0:0:
197,119,151294,1,0,0:0:0:0:
132,127,151382,1,0,0:0:0:0:
85,173,151471,1,0,0:0:0:0:
80,237,151559,2,0,B|132:273|132:273|212:269,1,129.99998785019,2|0,0:0|0:0,0:0:0:0:
241,220,151824,1,0,0:0:0:0:
252,154,151912,2,0,L|265:67,1,64.9999939250949,2|0,0:0|0:0,0:0:0:0:
105,45,152088,6,0,L|79:210,1,129.99998785019,2|0,0:0|0:0,0:0:0:0:
73,238,152353,1,0,0:0:0:0:
62,301,152441,2,0,L|85:363,1,64.9999939250949,8|0,0:0|0:0,0:0:0:0:
201,222,152618,2,0,L|135:210,1,64.9999939250949,2|0,0:0|0:0,0:0:0:0:
267,366,152794,2,0,L|332:377,1,64.9999939250949
385,256,152971,2,0,P|400:186|399:126,1,129.99998785019,2|8,0:0|0:0,0:0:0:0:
342,74,153235,1,0,0:0:0:0:
274,34,153324,2,0,L|174:40,1,64.9999939250949,2|0,0:0|0:0,0:0:0:0:
174,181,153500,6,0,B|236:177|236:177|316:219,1,129.99998785019,6|0,0:0|0:0,0:0:0:0:
351,244,153765,1,0,0:0:0:0:
392,294,153853,2,0,L|392:372,1,64.9999939250949,8|0,0:0|0:0,0:0:0:0:
226,242,154029,1,0,0:0:0:0:
237,179,154117,1,0,0:0:0:0:
249,115,154206,2,0,L|314:84,1,64.9999939250949,2|0,0:0|0:0,0:0:0:0:
136,81,154382,2,0,B|70:93|70:93|15:166,1,129.99998785019,2|8,0:0|0:0,0:0:0:0:
40,208,154647,1,0,0:0:0:0:
49,272,154735,2,0,L|133:316,1,64.9999939250949,2|0,0:0|0:0,0:0:0:0:
226,242,154912,6,0,P|221:164|187:126,1,129.99998785019,2|0,0:0|0:0,0:0:0:0:
123,137,155177,1,0,0:0:0:0:
87,191,155265,2,0,L|87:292,1,64.9999939250949,8|0,0:0|0:0,0:0:0:0:
283,158,155441,1,2,0:0:0:0:
283,93,155529,1,0,0:0:0:0:
240,42,155618,2,0,L|162:26,1,64.9999939250949
171,176,155794,2,0,L|180:252,1,64.9999939250949,2|0,0:0|0:0,0:0:0:0:
327,322,155971,2,0,L|403:371,1,64.9999939250949,8|0,0:0|0:0,0:0:0:0:
349,163,156147,2,0,L|245:156,1,64.9999939250949,2|0,0:0|0:0,0:0:0:0:
384,287,156324,6,0,B|441:270|441:270|492:209,1,129.99998785019,2|0,0:0|0:0,0:0:0:0:
443,165,156588,1,0,0:0:0:0:
397,117,156677,2,0,L|293:110,1,64.9999939250949,8|0,0:0|0:0,0:0:0:0:
194,189,156853,1,2,0:0:0:0:
169,248,156941,1,0,0:0:0:0:
192,308,157029,2,0,L|276:345,1,64.9999939250949
255,110,157206,2,0,B|192:81|192:81|114:89,1,129.99998785019,0|8,0:0|0:0,0:0:0:0:
77,124,157471,1,0,0:0:0:0:
70,188,157559,1,2,0:0:0:0:
103,243,157647,1,0,0:0:0:0:
169,248,157735,6,0,B|235:246|235:246|332:288,1,129.99998785019,2|0,0:0|0:0,0:0:0:0:
351,301,158000,1,0,0:0:0:0:
407,332,158088,2,0,L|422:407,1,64.9999939250949,8|0,0:0|0:0,0:0:0:0:
325,128,158265,2,0,L|310:53,1,64.9999939250949,8|0,0:0|0:0,0:0:0:0:
208,192,158441,1,0,0:0:0:0:
141,232,158529,1,0,0:0:0:0:
73,272,158618,2,0,L|63:345,1,64.9999939250949,2|0,0:0|0:0,0:0:0:0:
253,257,158794,1,8,0:0:0:0:
237,180,158882,1,0,0:0:0:0:
224,102,158971,2,0,L|136:76,1,64.9999939250949,2|0,0:0|0:0,0:0:0:0:
105,242,159147,6,0,B|144:296|144:296|225:318,1,129.99998785019,6|0,0:0|0:0,0:0:0:0:
270,309,159412,1,0,0:0:0:0:
323,272,159500,1,8,0:0:0:0:
335,208,159588,1,0,0:0:0:0:
310,147,159677,2,0,L|240:125,1,64.9999939250949,2|0,0:0|0:0,0:0:0:0:
92,131,159853,1,0,0:0:0:0:
39,169,159941,1,0,0:0:0:0:
5,227,160029,2,0,B|11:321|11:321|48:362,1,129.99998785019,0|8,0:0|0:0,0:0:0:0:
113,356,160294,1,0,0:0:0:0:
166,299,160382,2,0,L|161:219,1,64.9999939250949,2|0,0:0|0:0,0:0:0:0:
308,147,160559,6,0,P|397:130|439:155,1,129.99998785019
483,202,160824,1,0,0:0:0:0:
500,277,160912,2,0,L|488:353,1,64.9999939250949,8|0,0:0|0:0,0:0:0:0:
334,209,161088,2,0,L|346:133,1,64.9999939250949,2|0,0:0|0:0,0:0:0:0:
306,314,161265,1,0,0:0:0:0:
232,340,161353,1,0,0:0:0:0:
166,297,161441,2,0,L|147:218,1,64.9999939250949,2|0,0:0|0:0,0:0:0:0:
215,120,161618,1,8,0:0:0:0:
245,62,161706,1,0,0:0:0:0:
303,33,161794,2,0,L|369:27,1,64.9999939250949
476,54,161971,6,0,B|474:109|474:109|432:197,1,129.99998785019,2|0,0:0|0:0,0:0:0:0:
398,219,162235,1,0,0:0:0:0:
351,264,162324,2,0,B|345:292|345:292|364:334,1,64.9999939250949,8|0,0:0|0:0,0:0:0:0:
330,194,162500,1,0,0:0:0:0:
270,168,162588,1,0,0:0:0:0:
204,170,162677,2,0,L|98:193,1,64.9999939250949
116,342,162853,2,0,B|179:368|179:368|268:360,1,129.99998785019,2|8,0:0|0:0,0:0:0:0:
305,353,163118,1,0,0:0:0:0:
369,343,163206,2,0,L|470:325,1,64.9999939250949,2|0,0:0|0:0,0:0:0:0:
331,204,163382,5,2,0:0:0:0:
271,177,163471,1,0,0:0:0:0:
205,178,163559,1,0,0:0:0:0:
151,215,163647,1,0,0:0:0:0:
123,273,163735,2,0,L|126:364,1,64.9999939250949,8|0,0:0|0:0,0:0:0:0:
206,98,163912,2,0,L|203:7,1,64.9999939250949,2|0,0:0|0:0,0:0:0:0:
332,205,164088,1,0,0:0:0:0:
338,283,164177,1,0,0:0:0:0:
305,353,164265,2,0,L|216:380,1,64.9999939250949,2|0,0:0|0:0,0:0:0:0:
123,273,164441,1,8,0:0:0:0:
67,217,164529,1,0,0:0:0:0:
46,141,164618,2,0,B|49:102|49:102|81:42,1,64.9999939250949,2|0,0:0|0:0,0:0:0:0:
203,102,164794,6,0,L|165:280,1,129.99998785019,6|0,0:0|0:0,0:0:0:0:
123,273,165059,1,0,0:0:0:0:
64,300,165147,2,0,L|-6:292,1,64.9999939250949,8|0,0:0|0:0,0:0:0:0:
125,160,165324,1,0,0:0:0:0:
116,95,165412,1,0,0:0:0:0:
63,56,165500,2,0,L|-25:44,1,64.9999939250949
88,217,165677,2,0,P|203:229|259:186,1,129.99998785019,2|8,0:0|0:0,0:0:0:0:
269,194,165941,1,0,0:0:0:0:
326,165,166029,2,0,P|367:163|405:180,1,64.9999939250949,2|0,0:0|0:0,0:0:0:0:
396,334,166206,6,0,P|298:328|245:288,1,129.99998785019
238,256,166471,1,0,0:0:0:0:
224,192,166559,1,8,0:0:0:0:
240,129,166647,1,0,0:0:0:0:
281,78,166735,2,0,P|337:54|361:53,1,64.9999939250949,2|0,0:0|0:0,0:0:0:0:
461,119,166912,1,8,0:0:0:0:
445,182,167000,1,0,0:0:0:0:
404,233,167088,2,0,P|348:257|324:258,1,64.9999939250949,2|0,0:0|0:0,0:0:0:0:
239,130,167265,2,0,P|299:121|322:126,1,64.9999939250949,8|0,0:0|0:0,0:0:0:0:
291,302,167441,2,0,P|282:333|266:361,1,64.9999939250949,2|0,0:0|0:0,0:0:0:0:
168,280,167618,6,0,B|140:219|140:219|160:141,1,129.99998785019
175,96,167882,1,0,0:0:0:0:
196,34,167971,2,0,L|216:-30,1,64.9999939250949,8|0,0:0|0:0,0:0:0:0:
62,81,168147,1,2,0:0:0:0:
26,135,168235,1,0,0:0:0:0:
25,200,168324,2,0,B|31:237|31:237|74:278,1,64.9999939250949
177,349,168500,6,0,B|239:376|239:376|341:345,1,129.99998785019,2|0,0:0|0:0,0:0:0:0:
365,316,168765,1,0,0:0:0:0:
439,292,168853,2,0,L|532:321,1,64.9999939250949,2|0,0:0|0:0,0:0:0:0:
414,172,169029,5,12,0:0:0:0:
245,78,169206,2,0,L|227:179,1,64.9999939250949,2|0,0:0|0:0,0:0:0:0:
414,172,169382,2,0,L|432:71,1,64.9999939250949
360,243,169559,5,0,0:0:0:0:
287,285,169648,1,0,0:0:0:0:
203,270,169736,1,0,0:0:0:0:
149,206,169824,1,0,0:0:0:0:
149,121,169912,1,0,0:0:0:0:
415,172,170088,5,0,0:0:0:0:
457,250,170176,1,0,0:0:0:0:
460,339,170264,1,0,0:0:0:0:
286,318,170441,5,0,0:0:0:0:
156,331,170618,1,0,0:0:0:0:
27,345,170794,2,0,L|37:257,1,64.9999939250949,12|0,0:0|0:0,0:0:0:0:
201,159,170971,2,0,L|211:247,1,64.9999939250949
55,137,171147,2,0,L|69:5,1,129.99998785019
311,248,171500,2,0,L|325:380,1,129.99998785019,8|0,0:0|0:0,0:0:0:0:
456,203,171853,6,0,B|475:134|475:134|445:59,1,129.99998785019,2|0,0:0|0:0,0:0:0:0:
392,54,172118,1,0,0:0:0:0:
327,46,172206,2,0,L|225:92,1,64.9999939250949,8|0,0:0|0:0,0:0:0:0:
214,189,172382,1,2,0:0:0:0:
199,252,172471,1,0,0:0:0:0:
227,310,172559,6,0,L|307:357,1,64.9999939250949
327,142,172735,2,0,L|234:141,1,64.9999939250949
409,259,172912,2,0,L|501:259,1,64.9999939250949,8|0,0:0|0:0,0:0:0:0:
460,68,173088,2,0,L|367:67,1,64.9999939250949,8|0,0:0|0:0,0:0:0:0:
426,218,173265,5,10,0:0:0:0:
292,336,173441,1,0,0:0:0:0:
236,370,173529,1,0,0:0:0:0:
170,370,173618,2,0,L|101:352,1,64.9999939250949,8|0,0:0|0:0,0:0:0:0:
263,255,173794,1,2,0:0:0:0:
319,221,173882,1,0,0:0:0:0:
385,221,173971,2,0,L|454:239,1,64.9999939250949,8|0,0:0|0:0,0:0:0:0:
320,76,174147,2,0,L|255:42,1,64.9999939250949,2|0,0:0|0:0,0:0:0:0:
137,114,174324,5,0,0:0:0:0:
88,165,174412,1,0,0:0:0:0:
74,234,174500,1,0,0:0:0:0:
95,302,174588,1,0,0:0:0:0:
142,356,174677,2,0,P|224:372|312:336,1,129.99998785019
447,80,175029,2,0,P|365:64|277:100,1,129.99998785019,8|0,0:0|0:0,0:0:0:0:
387,258,175382,2,0,L|428:403,1,129.99998785019
281,147,175735,1,8,0:0:0:0:
216,153,175823,1,8,0:0:0:0:
152,160,175911,1,8,0:0:0:0:
87,166,175999,1,8,0:0:0:0:
21,173,176088,6,0,P|28:278|35:357,1,129.99998785019
207,311,176441,2,0,L|305:357,1,64.9999939250949,0|0,0:0|0:0,0:0:0:0:
217,153,176618,2,0,L|137:160,1,64.9999939250949,2|0,0:0|0:0,0:0:0:0:
343,206,176794,6,0,P|339:103|293:43,1,129.99998785019
217,222,177147,2,0,P|247:320|307:368,1,129.99998785019,8|0,0:0|0:0,0:0:0:0:
456,94,177500,6,0,B|386:80|386:80|277:84,1,129.99998785019,2|0,0:0|0:0,0:0:0:0:
283,130,177765,1,0,0:0:0:0:
276,194,177853,2,0,B|287:229|287:229|351:278,1,64.9999939250949
253,68,178029,1,0,0:0:0:0:
190,49,178118,1,0,0:0:0:0:
127,64,178206,2,0,L|88:139,1,64.9999939250949
145,239,178382,6,0,B|152:331|152:331|133:373,1,129.99998785019,0|8,0:0|0:0,0:0:0:0:
81,330,178647,1,8,0:0:0:0:
60,268,178735,1,10,0:0:0:0:
84,207,178824,1,8,0:0:0:0:
144,184,178912,1,12,0:0:0:0:
359,215,179088,5,0,0:0:0:0:
387,274,179177,1,0,0:0:0:0:
356,331,179265,2,0,P|306:346|267:335,1,64.9999939250949
245,228,179441,1,0,0:0:0:0:
234,164,179530,1,0,0:0:0:0:
278,116,179618,2,0,P|330:114|365:135,1,64.9999939250949
456,217,179794,2,0,P|467:299|426:373,1,129.99998785019,0|8,0:0|0:0,0:0:0:0:
255,334,180147,5,0,0:0:0:0:
190,341,180235,1,0,0:0:0:0:
124,347,180324,2,0,L|150:183,1,129.99998785019
220,233,180588,2,0,P|167:291|163:144,1,324.999969625475,0|8,0:0|0:0,0:0:0:0:
145,220,181118,1,0,0:0:0:0:
145,220,181206,1,8,0:0:0:0:
368,149,181382,5,8,0:0:0:0:
427,176,181470,1,0,0:0:0:0:
460,230,181558,1,8,0:0:0:0:
457,294,181646,1,0,0:0:0:0:
419,346,181735,2,0,L|267:363,1,129.99998785019,12|0,0:0|0:0,0:0:0:0:
145,220,182088,2,0,L|143:295,1,64.9999939250949,8|0,0:0|0:0,0:0:0:0:
284,128,182265,2,0,L|282:53,1,64.9999939250949
124,121,182441,2,0,P|10:132|-39:102,1,129.99998785019,2|0,0:0|0:0,0:0:0:0:
287,230,182794,2,0,L|291:379,1,129.99998785019,8|0,0:0|0:0,0:0:0:0:
432,364,183147,6,0,P|470:313|462:250,1,129.99998785019
423,197,183412,1,0,0:0:0:0:
384,145,183500,2,0,B|370:98|398:32,1,64.9999939250949,8|0,0:0|0:0,0:0:0:0:
385,288,183677,1,2,0:0:0:0:
341,336,183765,1,0,0:0:0:0:
282,364,183853,2,0,P|237:361|205:334,1,64.9999939250949
239,128,184029,6,0,L|408:165,1,129.99998785019,0|8,0:0|0:0,0:0:0:0:
492,189,184382,1,8,0:0:0:0:
67,77,184559,1,8,0:0:0:0:
239,126,184735,5,0,0:0:0:0:
302,142,184824,1,0,0:0:0:0:
365,156,184912,2,0,L|467:182,1,64.9999939250949,8|0,0:0|0:0,0:0:0:0:
319,280,185088,1,2,0:0:0:0:
256,296,185177,1,0,0:0:0:0:
193,310,185265,2,0,L|91:336,1,64.9999939250949,0|0,0:0|0:0,0:0:0:0:
73,221,185441,6,0,L|234:221,1,129.99998785019,0|8,0:0|0:0,0:0:0:0:
275,221,185706,1,0,0:0:0:0:
346,221,185794,1,2,0:0:0:0:
417,221,185882,1,0,0:0:0:0:
489,220,185971,5,0,0:0:0:0:
304,347,186147,1,0,0:0:0:0:
270,68,186324,2,0,B|332:48|332:48|437:47,1,129.99998785019,8|0,0:0|0:0,0:0:0:0:
275,221,186677,1,0,0:0:0:0:
90,70,186853,1,0,0:0:0:0:
96,194,187029,1,8,0:0:0:0:
98,239,187118,1,0,0:0:0:0:
100,284,187206,1,2,0:0:0:0:
104,329,187294,1,0,0:0:0:0:
107,374,187382,6,0,B|38:348|38:348|34:278,1,129.99998785019
171,163,187735,1,8,0:0:0:0:
191,232,187824,1,0,0:0:0:0:
248,273,187912,1,2,0:0:0:0:
316,291,188000,1,0,0:0:0:0:
377,255,188088,2,0,L|362:434,1,129.99998785019,4|0,0:0|0:0,0:0:0:0:
387,129,188441,2,0,L|402:-50,1,129.99998785019,8|0,0:0|0:0,0:0:0:0:
106,91,188794,6,0,P|69:159|91:217,1,129.99998785019
125,255,189059,1,0,0:0:0:0:
154,312,189147,2,0,P|152:339|111:385,1,64.9999939250949,8|0,0:0|0:0,0:0:0:0:
254,238,189324,1,2,0:0:0:0:
318,229,189412,1,0,0:0:0:0:
379,250,189500,2,0,P|414:280|429:323,1,64.9999939250949,8|0,0:0|0:0,0:0:0:0:
193,261,189677,2,0,P|177:217|186:172,1,64.9999939250949,10|0,0:0|0:0,0:0:0:0:
337,169,189853,2,0,P|328:214|298:248,1,64.9999939250949,8|0,0:0|0:0,0:0:0:0:
272,89,190029,2,0,L|280:9,1,64.9999939250949,10|0,0:0|0:0,0:0:0:0:
254,238,190206,6,0,L|240:372,1,129.99998785019,12|4,0:0|0:0,0:0:0:0:
128,66,190735,1,0,0:0:0:0:
65,85,190824,1,0,0:0:0:0:
3,105,190912,2,0,L|34:262,1,129.99998785019,12|4,0:0|0:0,0:0:0:0:
393,256,191441,5,0,0:0:0:0:
355,308,191529,1,0,0:0:0:0:
293,316,191618,6,0,P|355:306|392:255,1,129.99998785019
371,170,191882,6,0,P|352:309|222:256,1,324.999969625475
199,32,192500,5,4,0:0:0:0:
248,121,192677,5,8,0:0:0:0:
264,149,192765,1,8,0:0:0:0:
279,178,192853,1,8,0:0:0:0:
295,206,192941,1,8,0:0:0:0:
311,235,193029,1,8,0:0:0:0:
110,178,193206,5,0,0:0:0:0:
72,164,193294,1,0,0:0:0:0:
34,149,193382,2,0,L|41:280,1,99.9999952316285,8|0,0:0|0:0,0:0:0:0:
113,226,193647,2,0,L|103:59,1,149.999992847443
206,306,194088,6,0,L|278:327,1,49.9999976158143,8|0,0:0|0:0,0:0:0:0:
192,203,194265,2,0,L|120:182,1,49.9999976158143,2|0,0:0|0:0,0:0:0:0:
311,242,194441,2,0,L|453:286,1,99.9999952316285
362,101,194794,2,0,P|368:164|396:193,1,99.9999952316285,8|0,0:0|0:0,0:0:0:0:
446,80,195059,1,0,0:0:0:0:
446,80,195147,2,0,P|409:28|370:17,1,99.9999952316285
178,62,195500,1,8,0:0:0:0:
149,89,195588,1,0,0:0:0:0:
140,126,195677,1,2,0:0:0:0:
155,162,195765,1,0,0:0:0:0:
187,185,195853,6,0,L|325:207,1,99.9999952316285
345,241,196118,1,0,0:0:0:0:
345,241,196206,2,0,P|360:304|346:346,1,99.9999952316285,8|0,0:0|0:0,0:0:0:0:
270,293,196471,2,0,P|257:200|303:134,1,149.999992847443
424,140,196912,6,0,L|376:127,1,49.9999976158143,8|0,0:0|0:0,0:0:0:0:
342,239,197088,2,0,L|391:253,1,49.9999976158143
305,361,197265,2,0,L|168:321,1,99.9999952316285
72,157,197618,2,0,P|140:118|183:122,1,99.9999952316285,8|0,0:0|0:0,0:0:0:0:
144,282,197971,2,0,L|133:394,1,99.9999952316285
155,170,198324,1,8,0:0:0:0:
157,145,198412,1,0,0:0:0:0:
159,120,198500,1,2,0:0:0:0:
162,95,198588,1,0,0:0:0:0:
164,70,198676,1,0,0:0:0:0:
299,133,198853,5,0,0:0:0:0:
336,145,198941,1,0,0:0:0:0:
375,137,199029,2,0,L|366:269,1,99.9999952316285,8|0,0:0|0:0,0:0:0:0:
340,322,199294,2,0,P|412:312|452:251,1,149.999992847443
250,205,199735,1,8,0:0:0:0:
265,358,199912,1,0,0:0:0:0:
336,145,200088,6,0,B|386:137|386:137|465:166,1,99.9999952316285
273,321,200441,2,0,P|190:333|149:308,1,99.9999952316285,8|0,0:0|0:0,0:0:0:0:
139,156,200794,2,8,P|222:165|255:200,1,99.9999952316285
88,221,201147,2,0,B|46:245|46:245|62:229|62:229|46:213|46:213|62:197|62:197|46:181|46:181|54:173,1,149.999992847443
54,173,201500,6,0,P|63:113|109:76,1,99.9999952316285
126,71,201765,1,0,0:0:0:0:
165,67,201853,2,0,L|290:78,1,99.9999952316285,8|0,0:0|0:0,0:0:0:0:
290,168,202118,2,0,L|119:154,1,149.999992847443
216,289,202559,2,0,L|216:358,1,49.9999976158143,8|0,0:0|0:0,0:0:0:0:
315,171,202735,2,0,L|315:102,1,49.9999976158143
337,280,202912,6,0,P|392:295|454:282,1,99.9999952316285,0|0,0:0|0:0,0:0:0:0:
221,211,203265,2,0,P|166:196|104:209,1,99.9999952316285,8|0,0:0|0:0,0:0:0:0:
33,253,203618,6,0,L|5:319,1,64.9999939250949
104,286,203794,2,0,L|76:352,1,64.9999939250949,0|0,0:0|0:0,0:0:0:0:
174,321,203971,2,0,L|146:387,3,64.9999939250949,8|0|0|0,0:0|0:0|0:0|0:0,0:0:0:0:
251,352,204324,6,0,B|285:269|285:269|307:369|370:388|418:368|334:284,1,254.999992704392,4|0,0:0|0:0,0:0:0:0:
358,263,204677,6,0,P|311:198|263:204,1,99.9999952316285
218,185,204941,2,0,L|395:148,1,149.999992847443,8|0,0:0|0:0,0:0:0:0:
157,57,205382,1,10,0:0:0:0:
107,49,205471,1,0,0:0:0:0:
66,78,205559,1,2,0:0:0:0:
71,127,205647,1,0,0:0:0:0:
109,159,205735,2,0,P|132:222|94:280,1,99.9999952316285
278,243,206088,6,0,L|230:134,1,99.9999952316285
383,111,206441,2,0,P|322:83|308:15,1,99.9999952316285
417,198,206794,2,0,B|452:197|459:174|459:174|443:190|443:190|459:206|459:206|443:222|443:222|459:238|459:238|451:246,1,149.999992847443
453,243,207147,6,0,P|359:239|391:112,1,254.999992704392
450,82,207500,6,0,L|304:78,1,129.99998785019,8|0,0:0|0:0,0:0:0:0:
254,75,207765,1,0,0:0:0:0:
189,73,207853,2,0,B|121:72|121:72|66:129,1,129.99998785019
74,290,208206,1,8,0:0:0:0:
116,319,208294,1,0,0:0:0:0:
167,323,208382,1,2,0:0:0:0:
215,302,208471,1,0,0:0:0:0:
240,257,208559,2,0,L|265:388,1,129.99998785019
369,169,208912,6,0,B|275:188|275:188|236:169|197:180|168:215,1,194.999981775285,8|0,0:0|0:0,0:0:0:0:
240,257,209265,2,0,B|268:269|298:261|298:261|366:246|366:246|359:340,1,194.999981775285
444,302,209618,2,2,B|452:294|452:294|436:277|436:277|453:262|453:262|437:245|437:245|454:230|454:230|439:213|439:213|455:197|455:197|440:181|440:181|456:166|456:166|441:149|441:149|466:118,1,194.999981775285
444,78,209971,6,0,B|283:108|283:108|248:91|207:98,1,194.999981775285,0|0,0:0|0:0,0:0:0:0:
168,77,210324,2,0,P|191:156|256:177,1,129.99998785019
253,98,210588,2,0,B|166:66|166:66|30:128,1,194.999981775285
145,324,211029,1,8,0:0:0:0:
164,275,211118,1,0,0:0:0:0:
153,227,211206,1,2,0:0:0:0:
121,185,211294,1,0,0:0:0:0:
69,178,211382,2,0,B|20:218|20:218|23:320,1,129.99998785019
270,299,211735,6,0,L|278:128,1,129.99998785019
279,116,212000,1,0,0:0:0:0:
279,109,212088,1,0,0:0:0:0:
391,105,212265,6,0,L|393:40,1,64.9999939250949
451,204,212441,1,8,0:0:0:0:
477,248,212529,1,0,0:0:0:0:
466,299,212618,1,8,0:0:0:0:
434,340,212706,1,0,0:0:0:0:
384,357,212794,2,0,P|308:352|268:387,1,129.99998785019,12|8,0:0|0:0,0:0:0:0:
171,290,213147,5,8,0:0:0:0:
168,225,213235,1,0,0:0:0:0:
165,159,213324,1,8,0:0:0:0:
161,94,213412,1,0,0:0:0:0:
159,29,213500,2,0,L|21:51,1,129.99998785019
413,65,213853,6,0,L|471:78,8,32.4999969625475,0|0|0|0|0|0|0|4|4,0:0|0:0|0:0|0:0|0:0|0:0|0:0|0:0|0:0,0:0:0:0:
25,191,214912,5,0,0:0:0:0:
42,201,215265,1,0,0:0:0:0:
159,277,215618,5,0,0:0:0:0:
216,307,215706,2,0,B|276:335|276:335|359:311,1,129.99998785019
399,298,215971,1,8,0:0:0:0:
346,96,216147,1,0,0:0:0:0:
283,80,216235,1,0,0:0:0:0:
222,105,216324,2,0,B|171:141|171:141|83:135,1,129.99998785019
54,93,216588,1,0,0:0:0:0:
7,46,216677,2,0,L|22:220,1,129.99998785019,8|0,0:0|0:0,0:0:0:0:
230,311,217029,6,0,P|283:253|283:197,1,129.99998785019
227,172,217294,1,0,0:0:0:0:
167,145,217382,1,8,0:0:0:0:
331,31,217559,1,0,0:0:0:0:
393,49,217647,1,0,0:0:0:0:
410,111,217735,1,0,0:0:0:0:
382,359,217912,1,2,0:0:0:0:
174,211,218088,1,8,0:0:0:0:
458,66,218265,1,2,0:0:0:0:
351,224,218441,5,4,0:0:0:0:
312,276,218529,2,0,B|268:325|268:325|199:331,1,129.99998785019
138,336,218794,2,0,B|72:339|72:339|19:294,1,129.99998785019,8|0,0:0|0:0,0:0:0:0:
17,232,219059,1,0,0:0:0:0:
11,167,219147,1,0,0:0:0:0:
237,66,219324,1,0,0:0:0:0:
243,131,219412,1,0,0:0:0:0:
250,194,219500,2,0,L|259:286,1,64.9999939250949,8|0,0:0|0:0,0:0:0:0:
359,305,219677,2,0,L|368:397,1,64.9999939250949,8|0,0:0|0:0,0:0:0:0:
429,200,219853,6,0,L|412:37,1,129.99998785019
407,6,220118,1,0,0:0:0:0:
178,104,220294,1,0,0:0:0:0:
194,289,220471,1,0,0:0:0:0:
200,352,220559,2,0,B|265:376|265:376|362:343,1,129.99998785019
175,41,220912,2,0,B|120:15|120:15|13:50,1,129.99998785019,8|0,0:0|0:0,0:0:0:0:
183,169,221265,5,0,0:0:0:0:
242,195,221353,2,0,B|302:221|302:221|358:313,1,129.99998785019
365,334,221618,1,8,0:0:0:0:
139,326,221794,1,0,0:0:0:0:
78,302,221882,1,0,0:0:0:0:
19,272,221971,2,0,L|0:134,1,129.99998785019
38,90,222235,1,0,0:0:0:0:
92,54,222324,2,0,B|153:36|153:36|224:55,1,129.99998785019,8|0,0:0|0:0,0:0:0:0:
308,221,222677,6,0,L|270:356,1,129.99998785019
203,325,222941,2,0,L|241:190,1,129.99998785019
167,182,223206,1,0,0:0:0:0:
149,244,223294,1,0,0:0:0:0:
131,307,223382,1,0,0:0:0:0:
199,69,223559,1,0,0:0:0:0:
103,202,223735,1,8,0:0:0:0:
376,217,223912,1,0,0:0:0:0:
252,113,224088,5,0,0:0:0:0:
199,69,224177,2,0,L|53:78,1,129.99998785019
17,37,224441,1,8,0:0:0:0:
46,236,224618,1,0,0:0:0:0:
62,298,224706,1,0,0:0:0:0:
76,361,224794,2,0,L|233:351,1,129.99998785019
261,317,225059,1,0,0:0:0:0:
309,274,225147,2,0,B|374:271|374:271|445:313,1,129.99998785019,8|0,0:0|0:0,0:0:0:0:
451,108,225500,6,0,L|303:110,1,129.99998785019
255,110,225765,1,0,0:0:0:0:
190,110,225853,2,0,B|159:111|159:111|134:138|90:146|60:111,1,129.99998785019,8|0,0:0|0:0,0:0:0:0:
44,62,226118,1,0,0:0:0:0:
109,68,226206,1,0,0:0:0:0:
453,107,226382,1,2,0:0:0:0:
72,335,226559,1,8,0:0:0:0:
384,108,226735,1,2,0:0:0:0:
230,184,226912,5,0,0:0:0:0:
162,218,227000,2,0,B|151:308|151:308|16:353,1,169.999995136261
1,354,227265,1,8,0:0:0:0:
296,272,227441,1,0,0:0:0:0:
368,247,227529,1,0,0:0:0:0:
440,221,227618,2,0,B|433:304|433:304|302:342,1,169.999995136261
296,272,227882,1,0,0:0:0:0:
307,195,227971,2,0,B|315:107|315:107|241:58,1,169.999995136261,8|0,0:0|0:0,0:0:0:0:
28,142,228324,6,0,L|70:322,1,169.999995136261
126,354,228588,1,0,0:0:0:0:
198,379,228677,2,0,B|285:370|285:370|373:308,1,169.999995136261,8|0,0:0|0:0,0:0:0:0:
416,280,228941,1,0,0:0:0:0:
491,291,229029,1,0,0:0:0:0:
157,228,229206,1,0,0:0:0:0:
491,85,229382,1,0,0:0:0:0:
233,5,229559,1,0,0:0:0:0:
368,130,229735,5,4,0:0:0:0:
354,205,229824,2,0,B|335:285|335:285|259:346,1,169.999995136261
199,376,230088,1,8,0:0:0:0:
48,180,230265,1,0,0:0:0:0:
43,103,230353,1,0,0:0:0:0:
38,26,230441,1,0,0:0:0:0:
227,82,230618,1,0,0:0:0:0:
298,107,230706,1,0,0:0:0:0:
369,133,230794,2,0,B|448:163|448:163|482:265,1,169.999995136261,8|0,0:0|0:0,0:0:0:0:
216,252,231147,6,0,L|227:73,1,169.999995136261
233,5,231412,1,0,0:0:0:0:
208,375,231588,1,0,0:0:0:0:
104,222,231765,1,0,0:0:0:0:
61,158,231853,2,0,B|21:86|21:86|23:-6,1,169.999995136261
368,108,232206,1,0,0:0:0:0:
368,185,232294,1,0,0:0:0:0:
302,223,232383,1,0,0:0:0:0:
236,184,232471,1,0,0:0:0:0:
236,107,232559,6,0,L|236:18,1,84.9999975681305,0|0,0:0|0:0,0:0:0:0:
431,311,232824,2,0,L|475:388,1,84.9999975681305,0|8,0:0|0:0,0:0:0:0:
168,339,233088,1,0,0:0:0:0:
91,348,233177,1,0,0:0:0:0:
15,357,233265,2,0,B|38:269|38:269|-11:245|7:176,1,169.999995136261
78,199,233529,1,0,0:0:0:0:
154,191,233618,2,0,L|403:171,1,169.999995136261,8|0,0:0|0:0,0:0:0:0:
501,49,233971,6,0,L|252:69,1,169.999995136261,8|0,0:0|0:0,0:0:0:0:
273,112,234235,1,0,0:0:0:0:
239,181,234324,2,0,B|203:260|203:260|246:354,1,169.999995136261,8|0,0:0|0:0,0:0:0:0:
301,377,234588,1,0,0:0:0:0:
374,354,234677,1,0,0:0:0:0:
305,42,234853,1,0,0:0:0:0:
78,199,235029,1,8,0:0:0:0:
466,166,235206,1,0,0:0:0:0:
301,270,235382,5,12,0:0:0:0:
236,312,235471,1,0,0:0:0:0:
169,348,235559,2,0,B|120:339|120:339|76:286,1,84.9999975681305,2|0,0:0|0:0,0:0:0:0:
79,195,235735,5,8,0:0:0:0:
144,153,235824,1,0,0:0:0:0:
211,117,235912,2,0,B|260:126|260:126|304:179,1,84.9999975681305,2|0,0:0|0:0,0:0:0:0:
369,222,236088,5,8,0:0:0:0:
398,293,236177,1,0,0:0:0:0:
426,368,236265,2,0,L|521:384,1,84.9999975681305,2|0,0:0|0:0,0:0:0:0:
466,166,236441,5,8,0:0:0:0:
425,101,236529,1,0,0:0:0:0:
356,66,236618,1,8,0:0:0:0:
279,61,236706,1,0,0:0:0:0:
204,84,236794,2,8,L|235:145,6,42.4999987840653,4|0|0|0|0|0|0,0:0|0:0|0:0|0:0|0:0|0:0|0:0,0:0:0:0:
148,249,237147,2,8,L|97:294,6,42.4999987840653,4|0|0|0|0|0|0,0:0|0:0|0:0|0:0|0:0|0:0|0:0,0:0:0:0:
239,314,237500,6,0,B|327:354|327:354|441:360,1,199.999990463257,0|2,0:0|0:0,0:0:0:0:
492,83,237853,6,0,B|404:43|404:43|290:37,1,199.999990463257,0|0,0:0|0:0,0:0:0:0:
76,134,238206,6,0,L|88:299,1,129.99998785019
134,283,238471,1,0,0:0:0:0:
180,306,238559,1,8,0:0:0:0:
282,200,238735,2,0,L|290:103,1,64.9999939250949
390,179,238912,2,0,L|378:344,1,129.99998785019
332,328,239177,1,0,0:0:0:0:
286,351,239265,1,8,0:0:0:0:
488,264,239441,1,0,0:0:0:0:
181,226,239618,5,0,0:0:0:0:
203,122,239794,1,0,0:0:0:0:
212,70,239882,1,0,0:0:0:0:
223,16,239971,2,0,B|163:54|163:54|90:17,1,129.99998785019
311,133,240324,1,0,0:0:0:0:
384,167,240500,2,0,B|414:167|414:167|407:162|390:144|390:144|409:199|492:161,1,129.99998785019,2|0,0:0|0:0,0:0:0:0:
453,102,240853,1,0,0:0:0:0:
317,215,241029,6,0,L|325:344,1,99.9999952316285
277,346,241294,1,0,0:0:0:0:
277,346,241382,1,8,0:0:0:0:
193,172,241559,2,0,L|118:178,1,49.9999976158143
314,220,241735,6,0,L|311:349,1,99.9999952316285
263,347,242000,1,0,0:0:0:0:
235,354,242088,6,0,L|159:359,1,64.9999939250949,2|0,0:0|0:0,0:0:0:0:
94,286,242265,2,0,L|155:265,1,64.9999939250949,2|0,0:0|0:0,0:0:0:0:
131,145,242441,6,0,L|16:184,1,99.9999952316285
27,216,242706,1,0,0:0:0:0:
27,220,242794,1,8,0:0:0:0:
231,197,242971,1,0,0:0:0:0:
228,172,243059,1,2,0:0:0:0:
332,307,243235,1,0,0:0:0:0:
350,323,243324,1,2,0:0:0:0:
387,210,243500,2,0,L|476:207,1,49.9999976158143,0|8,0:0|0:0,0:0:0:0:
337,113,243677,2,0,L|254:116,1,49.9999976158143,0|8,0:0|0:0,0:0:0:0:
413,111,243853,6,0,L|541:105,1,99.9999952316285,0|2,0:0|0:0,0:0:0:0:
469,164,244118,1,0,0:0:0:0:
464,164,244206,1,0,0:0:0:0:
396,288,244382,2,0,L|406:349,1,49.9999976158143
270,345,244559,2,0,L|141:350,1,99.9999952316285,0|2,0:0|0:0,0:0:0:0:
214,292,244824,1,0,0:0:0:0:
219,292,244912,1,0,0:0:0:0:
214,113,245088,1,0,0:0:0:0:
59,63,245265,6,0,P|47:146|68:188,1,99.9999952316285
138,120,245529,1,0,0:0:0:0:
136,113,245618,6,0,P|142:210|104:267,1,129.99998785019
46,318,245971,1,0,0:0:0:0:
214,292,246147,2,0,B|237:257|237:257|268:293|268:293|218:271|218:271|312:271,2,129.99998785019,0|0|0,0:0|0:0|0:0,0:0:0:0:
362,259,246677,6,0,L|281:168,1,99.9999952316285
290,182,246941,1,0,0:0:0:0:
285,180,247029,1,8,0:0:0:0:
413,140,247206,2,0,L|485:151,1,49.9999976158143
355,267,247382,6,0,L|282:170,1,99.9999952316285
290,185,247646,1,0,0:0:0:0:
285,182,247734,1,8,0:0:0:0:
416,153,247912,2,0,L|487:171,1,49.9999976158143
450,266,248088,5,8,0:0:0:0:
456,305,248177,1,0,0:0:0:0:
462,344,248265,1,8,0:0:0:0:
240,323,248441,1,8,0:0:0:0:
121,255,248618,1,0,0:0:0:0:
95,240,248706,2,0,L|77:172,1,37.4999996423721
153,156,248882,2,0,L|183:261,1,74.9999992847443,8|0,0:0|0:0,0:0:0:0:
213,94,249147,2,0,L|196:36,1,37.4999996423721,0|8,0:0|0:0,0:0:0:0:
241,170,249324,2,0,L|258:228,1,37.4999996423721,0|8,0:0|0:0,0:0:0:0:
308,109,249500,6,0,L|421:113,1,99.9999952316285,4|0,0:0|0:0,0:0:0:0:
427,147,249765,1,0,0:0:0:0:
419,186,249853,1,8,0:0:0:0:
346,271,250029,2,0,L|359:328,1,49.9999976158143
237,253,250206,2,0,L|124:266,1,99.9999952316285,4|0,0:0|0:0,0:0:0:0:
121,301,250471,1,0,0:0:0:0:
133,339,250559,1,8,0:0:0:0:
63,108,250735,1,0,0:0:0:0:
226,155,250912,6,0,B|241:201|241:201|235:272,1,99.9999952316285,0|0,0:0|0:0,0:0:0:0:
232,292,251177,1,0,0:0:0:0:
226,331,251265,2,0,L|219:382,1,49.9999976158143,8|0,0:0|0:0,0:0:0:0:
313,235,251441,2,0,L|320:184,1,49.9999976158143
377,359,251618,1,0,0:0:0:0:
399,162,251794,6,0,B|409:79|409:79|403:133|403:133|418:136,2,129.99998785019,0|0|0,0:0|0:0|0:0,0:0:0:0:
313,235,252324,2,0,L|176:255,1,99.9999952316285
200,286,252588,1,0,0:0:0:0:
188,324,252677,1,8,0:0:0:0:
55,248,252853,2,0,L|68:312,1,49.9999976158143
84,162,253029,2,0,L|221:142,1,99.9999952316285
197,111,253293,1,0,0:0:0:0:
210,71,253382,6,0,L|96:49,1,64.9999939250949
146,58,253559,2,0,L|236:40,1,64.9999939250949
304,24,253735,6,0,B|351:14|351:14|434:48,1,99.9999952316285,0|0,0:0|0:0,0:0:0:0:
417,80,254000,1,0,0:0:0:0:
418,84,254088,1,8,0:0:0:0:
245,186,254265,1,0,0:0:0:0:
220,192,254353,1,8,0:0:0:0:
269,325,254529,1,0,0:0:0:0:
276,348,254618,1,0,0:0:0:0:
322,183,254794,2,0,P|307:140|282:124,1,49.9999976158143
143,195,254971,2,0,P|158:238|183:254,1,49.9999976158143
206,93,255147,6,0,L|103:71,1,99.9999952316285
91,90,255412,1,0,0:0:0:0:
75,109,255500,1,8,0:0:0:0:
81,248,255677,2,0,L|137:279,1,49.9999976158143
214,89,255853,6,0,L|114:58,1,99.9999952316285
100,76,256118,1,0,0:0:0:0:
82,93,256294,1,8,0:0:0:0:
76,232,256382,2,0,L|129:268,1,49.9999976158143
245,260,256559,6,0,B|263:212|263:212|249:121,1,99.9999952316285
230,166,256824,1,0,0:0:0:0:
205,169,256912,1,8,0:0:0:0:
255,335,257088,2,0,L|341:357,1,49.9999976158143
384,239,257265,2,0,L|298:261,1,49.9999976158143
394,132,257441,6,0,B|420:67|420:67|430:83|430:83|404:91|385:82|385:82|399:56|399:56,2,129.99998785019,0|0|0,0:0|0:0|0:0,0:0:0:0:
256,192,257971,5,0,0:0:0:0:
136,240,258147,5,2,0:0:0:0:
72,264,258235,1,0,0:0:0:0:
8,288,258324,1,8,0:0:0:0:
376,240,258500,5,2,0:0:0:0:
440,264,258588,1,0,0:0:0:0:
504,288,258677,1,8,0:0:0:0:
136,144,258853,5,0,0:0:0:0:
72,120,258941,1,0,0:0:0:0:
8,96,259030,1,8,0:0:0:0:
376,144,259206,5,2,0:0:0:0:
440,120,259294,1,0,0:0:0:0:
504,96,259383,1,8,0:0:0:0:
256,192,259559,5,0,0:0:0:0:
256,8,259735,1,0,0:0:0:0:
184,288,259912,6,0,L|168:352,1,64.9999939250949
328,288,260088,2,0,L|344:352,1,64.9999939250949
256,192,260265,2,0,B|256:168|256:168|256:184|256:184|256:120,1,64.9999939250949
136,136,260441,6,0,L|136:248,1,99.9999952316285
376,248,260618,6,0,L|376:136,1,99.9999952316285
256,192,260794,5,0,0:0:0:0:
