osu file format v5

[General]
AudioFilename: 01. JAKAZiD Ft. Barry Scott - Cillit Bang (Original Mix) - DoG.mp3
AudioLeadIn: 0
PreviewTime: -1
Countdown: 1
SampleSet: Normal
StackLeniency: 0.7
Mode: 0
LetterboxInBreaks: 1

[Metadata]
Title:Cillit Bang (Original Mix)
Artist:JAKAZiD
Creator:MennyRuS
Version:Normal
Source:
Tags:

[Difficulty]
HPDrainRate:5
CircleSize:5
OverallDifficulty:5
SliderMultiplier:1.4
SliderTickRate:1

[Events]
//Background and Video events
//Break Periods
2,38043,39806
//Storyboard Layer 0 (Background)
//Storyboard Layer 1 (Failing)
//Storyboard Layer 2 (Passing)
//Storyboard Layer 3 (Foreground)
//Storyboard Sound Samples
//Background Colour Transformations
3,100,255,255,255

[TimingPoints]
9065,316.256864383694,4,1,0,100,1

[HitObjects]
128,96,10646,1,0
224,96,10962,1,0
320,96,11278,1,0
320,192,11595,1,0
224,192,11911,1,0
224,96,12227,1,0
320,96,12543,1,0
320,192,12860,1,0
128,192,13176,6,0,B|162:252|162:252|160:352,2,140
224,192,14125,1,0
320,192,14441,1,0
352,192,14599,1,0
384,224,14757,1,0
352,288,15073,1,0
288,288,15390,1,0
224,288,15706,6,0,B|128:288,2,70
224,224,16338,2,0,B|128:224,2,70
224,160,16971,2,0,B|288:192,1,46.6666666666667
288,224,17287,2,0,B|352:224,1,46.6666666666667
320,160,17603,2,0,B|224:160,1,93.3333333333333
32,352,18236,5,0
96,352,18552,1,0
160,352,18868,1,0
224,352,19185,1,0
288,352,19501,2,0,B|480:352|480:96|480:96|320:256,1,560
256,256,21082,5,0
128,160,21399,1,0
288,128,22031,1,0
352,160,22347,1,0
416,224,22664,2,0,B|352:224,1,46.6666666666667
224,256,23296,5,0
160,224,23612,1,0
160,160,23929,1,0
256,96,24245,1,0
320,128,24561,1,0
320,128,24772,1,0
320,128,24983,1,0
320,128,25194,1,0
384,128,25510,1,0
384,224,25826,5,0
384,256,26142,2,0,B|224:256,1,140
224,192,26775,2,0,B|64:192,1,140
64,288,27407,2,0,B|224:288|288:128,1,280
320,160,28356,6,0,B|320:320,1,140
160,224,29463,1,0
96,224,29700,1,0
96,128,30254,1,0
160,160,30886,2,0,B|320:160,1,140
320,160,31519,1,0
288,288,32046,1,0
224,288,32362,1,0
160,288,32678,1,0
160,128,33416,5,0
320,128,34049,1,0
320,256,34681,2,0,B|160:256,2,140
160,128,35946,5,0
320,128,36579,1,0
320,288,37211,2,4,B|160:288|160:288|160:160,1,280
256,192,41006,5,0
96,192,41639,1,0
96,160,41744,1,0
256,64,42166,1,0
288,64,42271,1,0
384,64,42799,1,0
352,224,43431,6,0,B|192:224,1,140
128,224,44064,1,0
64,64,44696,2,0,B|160:64|192:192|352:160,1,280
224,160,46067,5,0
384,160,46699,1,0
384,192,46804,1,0
384,288,47253,1,0
320,288,47490,1,0
224,288,47859,1,0
64,64,48597,6,0,B|480:64|480:64|480:352|480:352|224:192,1,980
224,128,51127,6,0,B|32:320,1,233.333333333333
320,128,52392,6,0,B|128:320,1,233.333333333333
64,64,53551,5,0
128,64,53868,1,0
384,64,54184,1,0
448,64,54500,1,0
320,192,54817,1,0
256,192,55028,2,0,B|256:128,4,46.6666666666667
192,192,55766,1,0
256,192,56187,12,0,56819
256,192,57452,12,0,58084
64,64,58611,5,0
128,64,58927,1,0
384,64,59243,1,0
448,64,59559,1,0
448,224,59982,2,0,B|288:224|288:224|288:352,1,280
64,64,61141,5,0
160,64,61457,1,0
256,64,61773,1,0
352,64,62090,1,0
448,64,62406,1,0
448,160,62722,1,0
352,160,63038,1,0
352,64,63355,5,0
448,64,63671,5,0
448,160,63987,5,0
352,160,64303,5,0
256,160,64620,1,0
160,160,65016,1,0
128,160,65121,1,0
96,160,65227,1,0
96,256,65595,1,0
192,256,65885,5,0
288,256,66202,1,0
384,256,66518,1,0
480,256,66834,1,0
480,352,67150,1,0
384,352,67467,1,0
288,352,67783,1,0
192,352,68099,1,0
96,352,68415,1,0
96,256,68732,1,0
192,256,69048,1,0
288,256,69364,1,0
384,256,69680,1,0
480,256,69997,6,0,B|480:192,5,46.6666666666667
480,128,70945,1,0
384,128,71262,1,0
305,187,71894,5,0
224,128,72527,5,0
128,128,72843,1,0
64,128,73159,1,0
128,192,73792,1,0
224,192,74424,5,0
288,192,75057,1,0
384,192,75373,1,0
448,192,75689,1,0
384,128,76322,5,0
288,128,76954,1,0
192,128,77587,1,0
96,128,78219,1,0
96,224,78852,1,0
32,320,79168,5,0
64,320,79484,1,0
96,320,79801,1,0
128,320,80117,1,0
448,320,80433,1,0
448,64,80749,1,0
64,64,81065,1,0
64,64,81408,2,0,B|480:64|480:352|320:320|416:64|128:64|96:256|96:256|320:32,1,1050
