osu file format v3

[General]
AudioFilename: KarateHouse.mp3
AudioLeadIn: 0
AudioHash: 44e49694169c97f6462ab3069f5a95f8
PreviewTime: -1
SampleSet: Normal

[Metadata]
Title:Karate House
Artist:J.P. ROOM
Creator:Fox
Version:Normal

[Difficulty]
HPDrainRate:5
CircleSize:3
OverallDifficulty:5
SliderMultiplier: 1.4
SliderTickRate: 1

[Events]
0,0,"bg.jpg"
3,0,163,162,255

[TimingPoints]
20,504.750505050505

[HitObjects]
64,320,1029,1,0,
192,320,1534,1,0,
320,320,2039,1,0,
448,320,2543,1,0,
448,320,2796,1,0,
448,192,3048,5,0,
320,192,3553,1,0,
192,192,4058,1,0,
64,192,4562,1,0,
64,192,4815,1,0,
64,64,5067,5,0,
192,64,5572,1,4,
320,64,6077,1,4,
448,144,6581,5,0,
464,192,6834,1,4,
448,240,7086,1,4,
384,192,7591,2,4,B|384:192|128:192|64:192,1,280
256,256,9105,1,4,
96,256,9610,2,0,B|96:256|448:64,1,280
160,160,11124,5,0,
352,160,11629,1,0,
256,256,12134,1,0,
64,192,12386,1,4,
64,192,12638,1,4,
128,64,13143,6,0,B|128:64|351:64|409:195|352:288|245:361|155:339|96:320,2,560
128,64,17686,1,0,
224,128,18191,1,0,
224,256,18695,1,0,
128,320,19200,1,0,
128,64,19668,1,4,
128,192,20210,2,0,B|128:192|480:192,2,280
256,32,23238,5,0,
256,128,23743,1,0,
256,224,24248,1,0,
256,320,24781,1,4,
256,192,25257,12,0,27528
160,96,28790,1,0,
160,96,29043,1,0,
160,96,29295,1,0,
256,128,29800,1,0,
352,96,30305,1,0,
320,224,30809,1,0,
384,192,31314,5,0,
128,192,31819,1,0,
256,64,32324,1,0,
256,320,32828,1,0,
384,192,33333,1,0,
128,192,33838,1,0,
256,64,34343,1,0,
384,192,34847,1,2,
256,320,35352,1,2,
128,192,35857,1,2,
256,64,36362,1,2,
384,192,36866,5,2,
256,320,37365,6,0,B|256:320|128:320|128:192|128:96|256:96|384:96|384:192|384:224|384:320,1,568.363159179688
256,192,39895,5,0,
448,192,40400,1,0,
64,192,40904,1,0,
256,32,41409,1,0,
256,352,41914,1,0,
256,192,42419,5,0,
256,192,42671,1,0,
256,192,42923,1,0,
256,192,43176,1,0,
256,192,43428,1,0,
192,256,43933,2,0,B|192:256|352:128,1,140
256,192,45195,12,0,47466
256,192,48223,5,0,
256,192,48476,1,0,
256,192,48728,1,0,
256,192,48980,1,0,
256,192,49233,1,0,
256,192,49485,1,0,
384,192,49990,5,0,
128,192,50495,1,0,
256,64,50999,1,0,
256,320,51504,1,0,
32,128,52009,1,0,
128,256,52514,1,0,
224,128,53018,1,0,
320,256,53523,1,0,
416,128,54028,1,0,
512,256,54533,1,0,
256,320,55037,5,0,
256,64,55542,1,0,
256,192,56047,1,0,
256,192,56299,1,0,
256,192,56552,1,0,
256,192,56804,1,0,
256,192,57056,1,0,
96,96,57561,2,0,B|96:96|512:352,1,420
128,224,59580,5,0,
160,160,59832,1,0,
192,224,60085,1,0,
224,160,60337,1,0,
256,224,60590,1,0,
288,160,60842,1,0,
320,224,61094,1,0,
256,192,61599,5,0,
256,320,62104,1,0,
256,192,62609,1,0,
256,64,63113,1,0,
256,192,63618,1,0,
128,192,64123,1,0,
256,192,64628,1,0,
384,192,65132,1,0,
32,32,65637,5,0,
64,96,65889,1,0,
96,160,66142,1,0,
128,224,66394,1,0,
160,288,66647,1,0,
224,320,66899,1,0,
288,320,67151,1,0,
352,288,67404,1,0,
384,224,67656,1,0,
416,160,67908,1,0,
448,96,68161,1,0,
480,32,68413,1,0,
256,192,69675,12,0,74218
256,272,76237,1,0,
304,192,76552,1,0,
304,192,76678,1,0,
240,128,76994,1,0,
304,96,77120,1,0,
368,112,77246,1,0,
400,160,77373,1,0,
400,224,77499,1,0,
