osu file format v5

[General]
AudioFilename: J.A. Seazer - Angel creation, namely light.mp3
AudioLeadIn: 0
PreviewTime: -1
Countdown: 1
SampleSet: Normal
StackLeniency: 0.2
Mode: 0
LetterboxInBreaks: 1
EditorBookmarks: 13891,38795,50718,69564,75429,100333,121872

[Metadata]
Title:Angel creation, namely light
Artist:J.A. Seazer
Creator:AgentSieg
Version:Hard
Source:Revolutionary Girl Utena
Tags:Shoujo Kakumei Utena Revolutionary Girl Utena Juri

[Difficulty]
HPDrainRate:7
CircleSize:6
OverallDifficulty:7
SliderMultiplier:1.5
SliderTickRate:1

[Events]
//Background and Video events
0,0,"006792448.jpg"
1,897,"duelJuriNoSound.avi"
//Break Periods
2,44475,49999
2,106399,108460
//Storyboard Layer 0 (Background)
//Storyboard Layer 1 (Failing)
//Storyboard Layer 2 (Passing)
//Storyboard Layer 3 (Foreground)
//Storyboard Sound Samples
//Background Colour Transformations
3,100,163,162,255

[TimingPoints]
14285,384.615384615385,4,1,0,30,1

[Colours]
Combo1 : 255,128,0
Combo2 : 255,128,192

[HitObjects]
24,208,14284,1,2
144,208,14669,1,0
147,329,15054,1,2
28,326,15438,5,8
78,217,15823,5,2
117,172,16015,1,0
157,127,16208,1,2
196,82,16400,1,0
235,36,16592,1,2
236,157,16977,5,8
356,156,17361,5,2
393,204,17554,1,0
430,252,17746,1,2
467,300,17938,1,0
503,349,18131,1,2
504,230,18515,1,2
504,110,18900,1,2
454,78,19092,1,0
404,46,19285,1,2
285,46,19669,1,2
165,46,20054,1,8
226,148,20438,5,2
271,108,20631,1,0
316,69,20823,1,2
436,68,21208,1,2
438,187,21592,5,8
436,307,21977,5,2
392,349,22169,1,0
348,308,22361,1,2
303,349,22554,1,0
257,310,22746,1,2
257,189,23131,5,8
376,188,23515,6,0,B|376:25,1,150,2|0
496,38,24285,1,2
495,157,24669,1,0
495,277,25054,2,0,L|395:277,1,75,2|0
360,277,25438,1,2
317,234,25631,1,0
274,275,25823,1,2
232,317,26015,1,0
186,277,26208,1,2
96,197,26592,5,2
131,148,26785,1,0
165,99,26977,1,2
200,50,27169,1,0
259,49,27361,1,2
138,50,27746,5,8
17,53,28131,6,0,B|17:219,1,150,2|0
137,199,28900,1,2
138,78,29285,5,8
257,79,29669,6,0,L|423:79,2,150,2|0|2
136,82,30823,1,2
136,202,31208,1,2
179,242,31400,1,0
222,283,31592,1,2
266,324,31785,1,0
309,283,31977,2,0,B|480:283,1,150,0|8
462,162,32746,6,2,L|462:12,1,150,2|0
341,10,33515,1,2
342,130,33900,5,8
342,250,34285,6,0,L|171:250,1,150,2|0
190,370,35054,1,2
309,371,35438,5,8
429,371,35823,5,2
427,250,36208,1,0
426,130,36592,1,2
381,89,36785,1,8
336,48,36977,1,10
291,7,37169,1,8
246,47,37361,1,10
201,87,37554,1,8
157,128,37746,1,10
113,169,37938,1,8
69,210,38131,1,10
69,329,38515,1,8
189,329,38900,6,0,B|344:330,2,150,0|0|0
184,89,40438,6,0,L|366:89,2,150
417,145,41977,6,0,L|417:317,2,150
230,296,43515,6,0,L|231:123,2,150
480,336,51208,5,2
443,288,51400,1,0
406,240,51592,1,2
369,192,51784,1,0
332,144,51977,1,2
295,96,52169,1,0
258,48,52361,1,2
197,48,52554,1,0
137,48,52746,1,2
77,48,52938,1,0
16,48,53131,1,2
13,167,53515,1,2
133,167,53900,1,0
136,287,54284,1,0
136,346,54477,1,0
195,349,54669,2,0,L|477:349|476:26|175:26,1,900,2|8
286,83,57361,6,0,B|129:83,1,150,2|0
15,88,58131,2,0,B|15:250,1,150,2|0
135,239,58900,1,2
194,237,59092,1,0
195,176,59284,1,2
254,176,59477,1,0
223,124,59669,1,2
186,76,59861,1,0
145,31,60054,1,2
140,150,60438,1,0
139,210,60631,1,0
139,269,60823,2,0,L|139:346|503:346|503:180,1,600,2|8
154,275,63515,6,0,L|209:208,1,75,2|0
234,166,63900,1,2
269,117,64092,1,0
329,119,64284,5,2
361,169,64477,1,0
399,123,64669,1,2
439,167,64861,1,0
482,125,65054,6,0,B|482:278,1,150,2|0
377,334,65823,2,0,B|220:334,1,150,2|0
129,263,66592,5,0
130,202,66784,1,0
130,261,66977,1,0
130,320,67169,2,0,L|252:320|252:252|332:249|332:198|408:198|408:303|305:303|306:368|461:368,1,825,2|8
458,247,69669,6,0,B|458:79,1,150,0|2
373,11,70438,1,2
312,11,70631,1,0
252,10,70823,1,2
252,130,71208,2,0,B|92:130,1,150
102,250,71977,1,2
161,250,72169,1,0
220,249,72361,1,2
280,250,72554,1,0
280,309,72746,1,2
339,312,72938,1,0
340,251,73131,2,0,L|340:194|394:194|395:364|59:363|60:296|156:296,1,750,2|8
167,61,75823,6,0,B|319:61,3,150,2|0|2|0
206,108,77361,2,0,B|364:108,2,150,0|2|0
300,328,78900,2,0,B|141:328,1,150,2|0
257,274,79669,2,0,B|416:274,1,150,2|0
299,220,80438,2,0,B|127:220,1,150,2|0
255,164,81208,1,8
360,106,81592,6,0,B|360:27,1,75
410,63,81977,2,0,L|410:138,1,75
459,105,82361,2,0,L|459:345|19:345|19:261,1,750,2|8
139,270,84669,5,0
140,149,85054,2,0,L|140:219|99:220|99:114|181:114|181:270|63:270|63:70|216:70|216:194,1,1050,0|8
336,195,88131,6,0,L|336:367,1,150,2|0
215,349,88900,1,2
215,228,89284,1,0
215,108,89669,1,2
214,228,90054,1,0
94,231,90438,1,8
334,231,91208,5,2
332,111,91592,1,0
452,110,91977,1,2
453,229,92361,1,0
453,349,92746,1,2
451,228,93131,1,0
331,230,93515,1,2
221,279,93900,6,0,L|302:279,1,75,0|2
258,232,94284,2,0,L|174:232,1,75,0|2
256,192,94669,12,8,96592
256,192,96977,5,0
256,192,97361,12,8,100054
444,268,100438,6,0,L|444:114,1,150,2|0
323,116,101208,2,0,L|322:39,2,75,2|0|2
320,236,101977,1,2
284,284,102169,1,0
249,332,102361,1,2
214,381,102554,1,0
176,333,102746,1,2
139,285,102938,1,0
101,237,103131,1,2
98,117,103515,6,0,L|6:117,3,75,2|0|2|0
23,56,104284,1,0
142,57,104669,1,2
201,57,104861,1,0
261,57,105054,1,2
320,58,105246,1,0
379,59,105438,1,2
439,60,105631,1,0
440,0,105823,1,2
438,120,106208,1,8
488,64,109669,6,0,L|328:64,2,150
488,184,110823,1,2
443,223,111015,1,0
398,263,111208,1,2
353,303,111400,1,0
308,343,111592,1,2
247,344,111784,1,0
198,309,111977,1,2
148,274,112169,1,0
98,239,112361,1,8
98,118,112746,5,2
218,118,113131,2,0,L|218:40,1,75,0|2
277,43,113515,2,0,L|277:128,3,75,0|2|0|2
337,118,114284,1,0
381,77,114477,1,0
425,36,114669,1,2
484,36,114861,1,0
482,96,115054,1,2
480,155,115246,1,0
478,214,115438,1,8
388,294,115823,6,0,L|218:294,3,150,0|2|0|2
117,296,117361,5,2
72,254,117554,1,0
118,216,117746,1,2
161,257,117938,1,0
206,297,118131,1,2
248,254,118323,1,0
200,216,118515,1,8
286,299,118900,6,0,L|285:124,1,150,2|0
165,152,119669,1,2
105,153,119861,1,0
44,154,120054,1,2
44,273,120438,5,2
86,318,120631,1,0
124,272,120823,1,2
83,229,121015,1,0
43,184,121208,1,2
86,142,121400,1,0
124,190,121592,1,8
244,191,121977,5,0
280,143,122169,1,2
306,196,122361,1,8
244,191,122554,5,0
273,243,122746,1,2
213,244,122938,1,8
244,191,123131,5,0
184,191,123323,1,2
216,140,123515,1,8
244,191,123708,5,0
280,143,123900,1,2
306,196,124092,1,8
244,191,124284,5,0
273,243,124477,1,2
213,244,124669,1,8
244,191,124861,5,0
184,191,125054,1,2
216,140,125246,1,8
244,191,125438,5,0
280,143,125631,1,2
306,196,125823,1,8
244,191,126015,5,0
273,243,126208,1,2
213,244,126400,1,8
244,191,126592,5,0
184,191,126784,1,2
216,140,126977,1,8
244,191,127169,5,0
280,143,127361,1,2
306,196,127554,1,8
244,191,127746,5,0
273,243,127938,1,2
213,244,128131,1,8
244,191,128323,5,0
184,191,128515,1,2
216,140,128708,1,8
244,191,128900,5,0
280,143,129092,1,2
306,196,129284,1,8
244,191,129477,5,0
273,243,129669,1,2
213,244,129861,1,8
244,191,130054,5,0
184,191,130246,1,2
216,140,130438,1,8
244,192,130631,5,0
282,145,130823,1,2
307,199,131015,1,4
