osu file format v9

[General]
AudioFilename: J-Mi & Midi-D feat. Hanna Stockzell - Top The Charts.mp3
AudioLeadIn: 0
PreviewTime: 52363
Countdown: 0
SampleSet: Normal
StackLeniency: 0.5
Mode: 0
LetterboxInBreaks: 1

[Editor]
DistanceSpacing: 1
BeatDivisor: 4
GridSize: 8

[Metadata]
Title:Top The Charts
Artist:J-Mi & Midi-D feat. Hanna Stockzell
Creator:Tshemmp
Version:Normal
Source:Dance Dance Revolution
Tags:DDR 2010 phaZ

[Difficulty]
HPDrainRate:2
CircleSize:4
OverallDifficulty:2
ApproachRate:5
SliderMultiplier:1
SliderTickRate:1

[Events]
//Background and Video events
0,0,"Dance_Dance_Revolution_by_flexyjerkov.jpg"
//Break Periods
//Storyboard Layer 0 (Background)
//Storyboard Layer 1 (Fail)
//Storyboard Layer 2 (Pass)
//Storyboard Layer 3 (Foreground)
//Storyboard Sound Samples
//Background Colour Transformations
3,100,255,255,0

[TimingPoints]
3051,375,4,1,0,75,1,0
9051,-100,4,1,0,50,0,0
15051,-90.9090909090909,4,1,0,75,0,0
27051,-100,4,1,0,50,0,0
51801,-100,4,1,0,5,0,0
52551,-90.9090909090909,4,1,0,75,0,1
76551,-90.9090909090909,4,1,0,75,0,0
90801,-90.9090909090909,4,1,0,55,0,0
91551,-90.9090909090909,4,1,0,35,0,0
92301,-90.9090909090909,4,1,0,20,0,0
93051,-90.9090909090909,4,2,0,5,0,0

[Colours]
Combo1 : 79,141,217
Combo2 : 0,64,128
Combo3 : 0,128,192

[HitObjects]
144,128,9051,2,0,B|160:80|224:80,1,100
304,136,9801,2,0,B|288:184|224:184,1,100,8|0
144,240,10551,2,0,B|104:256|104:304|144:320,1,100
240,320,11301,2,0,B|280:304|280:256|238:240,1,100,8|0
336,280,12051,5,0
424,232,12426,1,0
504,168,12801,2,0,B|504:120|504:120|464:80,1,100,8|0
256,192,13551,12,4,15051
376,80,15801,6,0,B|408:80|408:80|432:64|456:80|456:80|488:80,2,109.999996721745,2|8|0
280,136,16926,1,0
264,248,17301,2,0,B|208:240|176:184,1,109.999996721745,2|8
144,80,18051,5,4
32,88,18426,1,0
96,176,18801,2,0,B|104:208|96:232,2,54.9999983608723,2|0|8
48,280,19551,2,0,B|72:336|128:352,1,109.999996721745
208,280,20301,2,0,B|251:322|309:316,1,109.999996721745,2|8
312,208,21051,6,0,B|368:230|419:202,1,109.999996721745,4|0
360,112,21801,1,2
360,112,22176,1,8
248,112,22551,2,0,B|191:89|140:117,1,109.999996721745,4|0
200,208,23301,1,2
200,208,23676,1,8
304,232,24051,6,0,B|340:247|360:282|356:322,1,109.999996721745
248,320,24801,2,0,B|232:356|197:376|157:372,1,109.999996721745,2|8
60,327,25551,2,0,B|36:295|35:255|58:222,1,109.999996721745,2|8
96,184,26113,1,0
144,160,26301,1,4
328,240,27051,6,0,B|337:208|370:181|380:149,1,100,4|0
256,72,27988,2,0,B|240:68|220:76|204:72,2,50,0|0|2
360,72,28738,1,2
432,136,29113,1,2
400,232,29488,1,2
336,160,29863,1,6
240,192,30238,6,0,B|208:192|192:208,1,50,2|0
200,256,30613,2,0,B|232:256|248:240,1,50,2|0
256,288,30988,2,0,B|224:288|208:304,2,50,2|2|2
408,288,31926,5,0
480,216,32301,1,0
408,144,32676,1,0
472,64,33051,6,0,B|429:31|377:45,1,100,4|0
232,80,33988,2,0,B|184:56,2,50,0|0|2
184,168,34738,1,2
280,208,35113,1,2
240,304,35488,2,0,B|192:280,2,50,2|0|2
288,320,36051,6,0,B|336:336|392:320,1,100
440,232,36801,2,0,B|392:216|336:232,1,100
256,192,37551,12,4,39051
208,344,39801,6,0,B|160:320|160:320|112:320|112:320|64:296|64:296|16:296,1,200
144,136,41301,1,0
224,72,41676,1,8
144,136,42051,6,2,B|104:168|48:168,1,100,0|0
51,167,42801,1,8
248,200,43551,6,2,B|288:168|344:168,1,100,0|0
340,168,44301,1,8
256,352,45051,6,0,B|256:248,1,100
400,296,45988,2,0,B|432:296|432:264,1,50
432,216,46363,2,0,B|456:168|432:120,1,100
352,216,47113,2,0,B|376:168|352:120,1,100
208,168,48051,5,2
112,128,48426,2,2,B|88:136|64:128,1,50,0|0
16,40,48988,1,2
256,192,49551,12,0,51801
96,320,52551,5,4
200,288,52926,1,8
96,256,53301,1,0
200,224,53676,1,8
96,192,54051,2,0,B|200:152,1,109.999996721745,0|8
312,152,54801,2,0,B|414:191,1,109.999996721745,2|8
312,224,55551,5,0
416,256,55926,1,8
312,288,56301,1,0
416,320,56676,1,8
312,352,57051,2,0,B|209:312,3,109.999996721745,0|8|2|8
256,212,58551,5,4
256,208,58926,1,8
256,204,59301,1,0
256,200,59676,2,0,B|256:144,1,54.9999983608723
312,48,60238,2,2,B|256:40|256:40|200:48,1,109.999996721745
104,184,61176,5,0
104,304,61551,2,0,B|200:360|288:304|288:184|384:184,1,329.999990165234
376,296,63051,2,0,B|285:296|285:176|197:120|101:176,1,329.999990165234,0|8
32,256,64551,6,0,B|88:248|136:280,1,109.999996721745,4|8
64,360,65301,2,0,B|112:392|168:384,1,109.999996721745,0|8
256,312,66051,1,0
344,384,66426,2,0,B|400:392|448:360,1,109.999996721745,8|2
375,280,67176,2,0,B|424:248|480:256,2,109.999996721745,8|0|8
312,192,68301,6,0,B|200:144,1,109.999996721745
256,48,69051,1,0
256,44,69426,1,0
256,40,69801,1,6
40,48,70551,6,0,B|96:72|128:120,1,109.999996721745,4|8
200,192,71301,2,0,B|144:215|115:259,1,109.999996721745,0|8
40,336,72051,1,0
200,192,72801,2,0,B|224:200|224:200|256:208|288:200|288:200|312:192,1,109.999996721745
320,80,73551,6,0,B|432:88|448:192|432:288|320:296,1,329.999990165234
191,296,75051,2,0,B|80:288|64:192|80:88|192:80,1,329.999990165234,4|0
256,192,76551,12,4,81051
456,48,81801,5,2
456,48,82176,1,8
456,160,82551,6,0,B|456:216|456:216|432:264,1,109.999996721745
320,264,83301,1,2
288,160,83676,1,8
176,152,84051,6,0,B|144:152|152:192|152:192|160:232|128:232,1,109.999996721745
48,304,84801,1,2
128,376,85176,1,8
208,304,85551,6,0,B|256:352|304:304,1,109.999996721745
352,208,86301,2,0,B|304:160|256:208,1,109.999996721745,2|8
256,96,87051,6,0,B|200:88|144:96,1,109.999996721745,0|8
256,168,87801,2,0,B|312:176|368:168,1,109.999996721745,0|8
256,240,88551,2,0,B|200:232|144:240,1,109.999996721745,0|8
256,312,89301,1,6
256,192,90051,12,0,93051
